<?xml version="1.0" standalone="no"?> <!DOCTYPE svg PUBLIC "-//W3C//DTD SVG 1.0//EN" "http://www.w3.org/TR/2001/REC-SVG-20010904/DTD/svg10.dtd" > <svg xmlns="http://www.w3.org/2000/svg" width="100%" height="100%">
<defs >
<font id="SourceCodePro" horiz-adv-x="600" ><font-face
    font-family="Source Code Pro ExtraLight"
    units-per-em="1000"
    panose-1="2 11 3 9 3 4 3 2 2 4"
    ascent="984"
    descent="-273"
    alphabetic="0" />
<missing-glyph d="M84 0V660H516V0H84ZM132 32H464L364 208L302 314H298L234 208L132 32ZM122 74L276 340L122 610V74ZM298 366H302L356 458L450 626H148L242 458L298 366ZM324 340L476 74V610L324 340Z" />
<glyph unicode=" " glyph-name="space" />
<glyph unicode="!" glyph-name="exclam" d="M288 214L286 608V670H314V608L312 214H288ZM300 -12Q280 -12 264 2T248 46Q248 75 264 89T300 104Q320 104 336 90T352 46Q352 17 336 3T300 -12Z" />
<glyph unicode="&quot;" glyph-name="quotedbl" d="M443 392L425 607L426 688H488L489 607L471 392H443ZM386 392L368 607L369 688H431L432 607L414 392H386Z" />
<glyph unicode="#" glyph-name="numbersign" d="M342 0L369 218H213L186 0H158L185 218H100V246H188L210 424H120V452H214L238 650H266L242 452H398L422 650H450L426 452H506V424H422L400 246H486V218H397L370 0H342ZM372 246L394 424H238L216 246H372Z" />
<glyph unicode="$" glyph-name="dollar" d="M102 112L120 134Q135 121 155 109T199 86T251 69T311 62Q389 62 429 95T470 182Q470 221 445 246T383 291T301 325T220 360T157 407T132 476Q132 507 144 532T178 576T229 605T293 618V750H323V618Q380 615 415 595T480
548L460 528Q443 542 428 553T395 573T356 585T306 590Q242 590 203 560T164 478Q164 442 189 420T251 380T333 347T414 311T477 260T502 184Q502 150 488 123T450 77T393 46T323 34V-110H293V35Q230 38 182 62T102 112Z" />
<glyph unicode="%" glyph-name="percent" d="M161 328Q102 328 66 370T29 492Q29 570 65 611T161 652Q220 652 256 611T293 492Q293 413 257 371T161 328ZM161 354Q205 354 234 390T263 492Q263 559 234 592T161 626Q117 626 88 593T59 492Q59 426 88 390T161
354ZM64 36L38 58L218 258L236 242L64 36ZM382 402L364 418L536 624L562 602L382 402ZM440 -12Q381 -12 345 30T308 152Q308 230 344 271T440 312Q499 312 535 271T572 152Q572 73 536 31T440 -12ZM440 14Q484 14 513 50T542 152Q542 219 513 252T440 286Q396 286
367 253T338 152Q338 86 367 50T440 14Z" />
<glyph unicode="&amp;" glyph-name="ampersand" d="M243 -12Q205 -12 172 0T113 36T72 92T57 166Q57 198 68 225T99 276T143 321T194 362Q173 405 161 447T149 528Q149 559 158 585T185 631T226 661T279 672Q330 672 356 639T383 556Q383 524 370 498T335 447T285
401T229 357Q264 289 314 226T418 115Q456 162 482 219T527 342H557Q537 273 508 211T439 97Q509 39 569 16L557 -12Q527 -1 493 20T420 74Q384 36 341 12T243 -12ZM179 530Q179 495 189 457T218 380Q244 399 268 418T311 459T341 503T353 554Q353 570 349 586T336
615T313 636T277 644Q254 644 236 635T205 611T186 574T179 530ZM245 16Q289 16 328 37T399 93Q345 144 294 207T206 339Q182 321 161 302T124 262T99 218T89 168Q89 133 101 105T135 58T185 27T245 16Z" />
<glyph unicode="&apos;" glyph-name="quotesingle" d="M286 392L268 607L269 688H331L332 607L314 392H286Z" />
<glyph unicode="(" glyph-name="parenleft" d="M465 -173Q355 -96 293 16T230 278Q230 427 292 539T465 729L482 706Q371 623 318 517T264 278Q264 145 317 39T482 -150L465 -173Z" />
<glyph unicode=")" glyph-name="parenright" d="M135 -173L118 -150Q229 -67 282 39T336 278Q336 411 283 517T118 706L135 729Q245 652 307 540T370 278Q370 129 308 17T135 -173Z" />
<glyph unicode="*" glyph-name="asterisk" d="M176 128L152 145L270 318L101 390L110 414L282 350L287 548H313L318 350L490 414L499 390L330 318L448 145L424 128L300 300L176 128Z" />
<glyph unicode="+" glyph-name="plus" d="M284 112V316H98V344H284V548H316V344H502V316H316V112H284Z" />
<glyph unicode="," glyph-name="comma" d="M221 -210L208 -185Q268 -154 298 -110T331 3Q320 -1 307 -1Q283 -1 268 11T253 52Q253 81 269 93T306 106Q337 106 353 81T369 13Q369 -69 328 -124T221 -210Z" />
<glyph unicode="-" glyph-name="hyphen" d="M98 316V344H502V316H98Z" />
<glyph unicode="." glyph-name="period" d="M300 -12Q280 -12 264 2T248 46Q248 75 264 89T300 104Q320 104 336 90T352 46Q352 17 336 3T300 -12Z" />
<glyph unicode="/" glyph-name="slash" d="M120 -160L446 710H480L154 -160H120Z" />
<glyph unicode="0" glyph-name="zero" d="M300 -12Q196 -12 140 76T84 322Q84 482 140 567T300 652Q404 652 460 567T516 322Q516 164 460 76T300 -12ZM300 16Q383 16 433 94T484 322Q484 471 434 547T300 624Q217 624 167 548T116 322Q116 173 166 95T300 16ZM300
274Q280 274 264 288T248 332Q248 361 264 375T300 390Q320 390 336 376T352 332Q352 303 336 289T300 274Z" />
<glyph unicode="1" glyph-name="one" d="M112 0V28H306V580H162V602Q212 608 249 618T313 640H336V28H520V0H112Z" />
<glyph unicode="2" glyph-name="two" d="M85 0V20Q176 103 244 168T356 287T422 386T444 476Q444 507 435 534T405 581T354 612T279 624Q228 624 184 600T105 538L83 558Q121 597 169 624T280 652Q374 652 424 604T475 476Q475 427 452 379T384 276T276 161T132
24Q164 26 193 27T253 28H511V0H85Z" />
<glyph unicode="3" glyph-name="three" d="M294 -12Q252 -12 218 -4T157 17T108 46T70 78L90 100Q106 84 125 69T170 42T227 23T296 16Q334 16 367 27T424 57T462 104T476 166Q476 235 413 278T212 322V352Q277 352 322 363T397 395T439 441T452 498Q452 526 440
549T407 589T357 615T292 624Q241 624 195 603T118 552L98 574Q133 606 181 629T292 652Q332 652 367 642T428 612T469 564T484 500Q484 468 473 442T441 397T394 363T336 340V336Q370 330 401 316T456 281T494 231T508 168Q508 127 492 94T446 37T378 1T294 -12Z"
/>
<glyph unicode="4" glyph-name="four" d="M390 0V196H43V213L405 641H420V225H535V196H420V0H390ZM92 225H390V496Q392 519 392 541T395 587H389Q374 567 359 547T328 506L92 225Z" />
<glyph unicode="5" glyph-name="five" d="M288 -12Q244 -12 210 -4T150 16T102 43T64 74L84 96Q100 81 119 67T163 41T219 23T290 16Q329 16 363 29T424 66T466 123T482 198Q482 279 432 325T292 372Q269 372 250 369T213 360T179 346T144 328L118 344L142 640H480V612H170L148
366Q180 382 213 392T294 402Q341 402 381 390T451 354T497 291T514 200Q514 149 495 110T445 43T372 2T288 -12Z" />
<glyph unicode="6" glyph-name="six" d="M324 -12Q214 -12 152 66T90 288Q90 390 111 459T169 572T253 633T352 652Q403 652 441 636T510 592L490 570Q433 624 350 624Q305 624 264 607T191 550T141 448T122 292Q165 334 215 359T324 384Q418 384 471 334T524
186Q524 143 508 107T465 45T401 3T324 -12ZM326 16Q362 16 392 29T445 66T479 120T492 186Q492 266 450 311T322 356Q277 356 226 333T123 254Q126 202 140 158T178 83T239 34T326 16Z" />
<glyph unicode="7" glyph-name="seven" d="M252 0Q256 100 270 181T313 335T383 474T484 612H76V640H526V622Q460 545 416 474T344 329T304 175T288 0H252Z" />
<glyph unicode="8" glyph-name="eight" d="M305 -12Q252 -12 209 1T136 38T90 94T74 164Q74 200 87 228T123 279T171 317T225 346V350Q185 372 155 409T124 498Q124 532 138 560T176 608T233 640T305 652Q351 652 387 640T447 605T483 552T496 486Q496 439 466
397T393 322V318Q420 304 444 290T486 258T514 214T524 154Q524 119 510 89T467 37T398 1T305 -12ZM359 330Q464 400 464 486Q464 514 454 539T424 583T374 613T305 624Q271 624 244 615T197 588T167 548T156 498Q156 462 172 436T216 391T280 357T359 330ZM305
16Q351 16 386 27T444 56T480 100T492 154Q492 197 473 224T421 271T345 305T254 334Q222 319 195 303T149 266T118 220T106 164Q106 133 119 106T158 59T221 28T305 16Z" />
<glyph unicode="9" glyph-name="nine" d="M280 284Q325 284 376 307T479 386Q476 438 462 482T424 557T362 606T276 624Q240 624 210 611T157 574T123 520T110 454Q110 374 152 329T280 284ZM250 -12Q199 -12 161 4T92 48L112 70Q169 16 252 16Q297 16 338 33T411
90T461 192T480 348Q437 306 387 281T278 256Q184 256 131 306T78 454Q78 497 94 533T137 595T201 637T278 652Q388 652 450 574T512 352Q512 250 491 181T433 68T349 7T250 -12Z" />
<glyph unicode=":" glyph-name="colon" d="M300 374Q280 374 264 388T248 432Q248 461 264 475T300 490Q320 490 336 476T352 432Q352 403 336 389T300 374ZM300 -12Q280 -12 264 2T248 46Q248 75 264 89T300 104Q320 104 336 90T352 46Q352 17 336 3T300 -12Z" />
<glyph unicode=";" glyph-name="semicolon" d="M300 374Q280 374 264 388T248 432Q248 461 264 475T300 490Q320 490 336 476T352 432Q352 403 336 389T300 374ZM221 -210L208 -185Q268 -154 298 -110T331 3Q320 -1 307 -1Q283 -1 268 11T253 52Q253 81 269 93T306
106Q337 106 353 81T369 13Q369 -69 328 -124T221 -210Z" />
<glyph unicode="&lt;" glyph-name="less" d="M486 62L124 316V348L486 602V566L156 334V330L486 98V62Z" />
<glyph unicode="=" glyph-name="equal" d="M98 416V444H502V416H98ZM98 473V501H502V473H98Z" />
<glyph unicode="&gt;" glyph-name="greater" d="M114 62V98L444 330V334L114 566V602L476 348V316L114 62Z" />
<glyph unicode="?" glyph-name="question" d="M262 214Q256 251 266 280T294 335T337 382T382 426T417 474T432 530Q432 555 424 577T399 617T356 644T292 654Q248 654 209 637T140 588L118 608Q150 640 193 661T294 682Q334 682 366 670T419 638T452 590T464
532Q464 497 450 470T414 419T369 374T326 328T295 277T290 214H262ZM286 -12Q266 -12 250 2T234 46Q234 75 250 89T286 104Q306 104 322 90T338 46Q338 17 322 3T286 -12Z" />
<glyph unicode="@" glyph-name="at" d="M342 -142Q284 -142 233 -116T145 -39T86 83T64 248Q64 338 85 409T145 528T237 602T352 628Q400 628 435 611T495 562T530 488T542 396V100H516L512 164H508Q496 150 480 136T444 112T405 95T366 88Q340 88 317 95T275
118T247 157T236 212Q236 284 304 324T512 382V395Q512 437 503 474T475 540T424 584T349 600Q295 600 249 576T169 506T116 395T96 246Q96 163 114 97T164 -16T242 -88T342 -114Q387 -114 423 -102T490 -64L506 -86Q435 -142 342 -142ZM370 116Q402 116 439 137T512
202V356Q382 338 325 303T268 212Q268 166 295 141T370 116Z" />
<glyph unicode="A" glyph-name="A" d="M222 396L175 264H424L378 396Q357 456 339 510T302 626H298Q280 564 262 510T222 396ZM50 0L286 660H314L550 0H516L434 236H165L82 0H50Z" />
<glyph unicode="B" glyph-name="B" d="M120 0V660H280Q383 660 437 621T492 500Q492 447 463 409T375 356V352Q449 341 491 301T534 192Q534 97 471 49T292 0H120ZM152 366H260Q368 366 414 400T460 500Q460 571 413 601T266 632H152V366ZM152 28H280Q387 28 444
66T502 190Q502 265 445 301T280 338H152V28Z" />
<glyph unicode="C" glyph-name="C" d="M347 -12Q286 -12 236 12T150 82T94 190T74 332Q74 410 94 473T150 580T238 648T353 672Q410 672 452 648T521 594L501 572Q474 604 437 623T353 642Q296 642 251 621T174 559T125 461T108 332Q108 261 125 203T173 104T248
41T349 18Q402 18 442 39T521 102L541 82Q503 38 458 13T347 -12Z" />
<glyph unicode="D" glyph-name="D" d="M100 0V660H248Q324 660 380 637T472 570T526 466T544 332Q544 258 527 197T473 93T380 25T248 0H100ZM132 28H244Q314 28 364 51T447 114T495 211T510 332Q510 397 495 452T448 547T365 609T244 632H132V28Z" />
<glyph unicode="E" glyph-name="E" d="M132 0V660H516V632H164V366H460V338H164V28H526V0H132Z" />
<glyph unicode="F" glyph-name="F" d="M156 0V660H534V632H188V354H479V326H188V0H156Z" />
<glyph unicode="G" glyph-name="G" d="M333 -12Q271 -12 221 12T136 82T81 190T61 332Q61 410 81 473T138 580T227 648T343 672Q375 672 401 665T449 647T486 621T516 594L496 572Q470 601 434 621T343 642Q285 642 239 621T161 559T112 461T95 332Q95 261 111
203T159 104T234 41T335 18Q383 18 423 32T489 72V290H329V318H522V62Q492 29 445 9T333 -12Z" />
<glyph unicode="H" glyph-name="H" d="M92 0V660H124V366H476V660H508V0H476V338H124V0H92Z" />
<glyph unicode="I" glyph-name="I" d="M112 0V28H284V632H112V660H488V632H316V28H488V0H112Z" />
<glyph unicode="J" glyph-name="J" d="M278 -12Q222 -12 174 16T98 98L124 116Q153 65 194 42T278 18Q366 18 404 64T443 204V634H152V661H475V201Q475 157 465 118T432 50T372 5T278 -12Z" />
<glyph unicode="K" glyph-name="K" d="M122 0V660H154V280H156L500 660H539L322 420L568 0H530L299 395L154 234V0H122Z" />
<glyph unicode="L" glyph-name="L" d="M156 0V660H186V28H538V0H156Z" />
<glyph unicode="M" glyph-name="M" d="M84 0V660H130L254 340L298 222H302L344 340L470 660H516V0H484V495Q484 526 485 559T487 623H484L448 516L313 176H286L152 516L113 623H111Q112 592 113 559T115 495V0H84Z" />
<glyph unicode="N" glyph-name="N" d="M96 0V660H129L403 174L476 46H478Q477 94 476 139T474 231V660H504V0H471L197 486L124 614H122Q123 566 124 523T126 433V0H96Z" />
<glyph unicode="O" glyph-name="O" d="M300 -12Q247 -12 202 12T125 82T74 190T56 332Q56 410 74 473T124 580T202 648T300 672Q353 672 398 648T475 580T526 473T544 332Q544 254 526 191T476 82T398 13T300 -12ZM300 18Q347 18 385 40T452 104T495 203T510 332Q510
403 495 460T452 558T386 620T300 642Q253 642 215 621T148 559T105 461T90 332Q90 261 105 203T148 104T214 41T300 18Z" />
<glyph unicode="P" glyph-name="P" d="M124 0V660H296Q407 660 467 620T528 480Q528 385 468 339T296 292H156V0H124ZM156 320H284Q391 320 442 357T494 480Q494 567 442 599T284 632H156V320Z" />
<glyph unicode="Q" glyph-name="Q" d="M300 16Q348 16 386 39T452 103T493 203T508 332Q508 403 494 461T452 560T387 623T300 645Q252 645 214 623T148 560T107 461T92 332Q92 261 106 203T148 104T213 39T300 16ZM475 -150Q435 -150 404 -140T348 -110T308 -66T281
-11Q231 -7 191 19T121 90T76 196T60 332Q60 410 77 473T126 580T202 649T300 673Q354 673 398 649T473 581T522 473T540 332Q540 257 524 196T479 90T408 19T317 -11Q334 -61 373 -89T479 -117Q494 -117 505 -115T525 -110L532 -142Q516 -146 503 -148T475 -150Z"
/>
<glyph unicode="R" glyph-name="R" d="M124 0V660H306Q355 660 394 651T460 621T503 568T518 490Q518 411 471 367T340 314L528 0H490L304 312H156V0H124ZM156 340H294Q386 340 435 376T484 490Q484 568 435 600T294 632H156V340Z" />
<glyph unicode="S" glyph-name="S" d="M310 -12Q233 -12 176 16T80 88L102 110Q140 68 193 43T310 18Q352 18 386 28T444 57T481 102T494 160Q494 193 484 215T455 254T413 283T362 306L260 352Q237 361 212 374T166 405T130 450T116 514Q116 549 131 578T172
628T234 660T312 672Q375 672 423 649T502 594L482 572Q452 604 409 623T312 642Q238 642 193 608T148 516Q148 485 160 464T192 427T233 401T274 382L376 336Q405 324 432 310T480 275T513 228T526 162Q526 124 511 93T467 38T399 1T310 -12Z" />
<glyph unicode="T" glyph-name="T" d="M284 0V632H50V660H550V632H316V0H284Z" />
<glyph unicode="U" glyph-name="U" d="M300 -12Q261 -12 224 -1T157 40T110 119T92 246V660H124V254Q124 186 138 141T177 68T233 30T300 18Q335 18 367 29T424 68T463 140T478 254V660H508V246Q508 169 490 120T443 41T377 0T300 -12Z" />
<glyph unicode="V" glyph-name="V" d="M285 0L65 660H99L227 264Q237 233 245 206T262 153T279 99T299 41H303Q313 71 322 98T339 152T356 206T375 264L503 660H535L317 0H285Z" />
<glyph unicode="W" glyph-name="W" d="M127 0L15 661H44L122 196Q127 156 133 117T145 38H147Q160 78 172 117T195 196L283 488H318L408 196Q419 156 430 117T454 38H458Q463 77 469 116T481 196L556 661H584L475 0H433L332 331Q324 360 317 388T302 445H299Q291
416 284 388T267 331L169 0H127Z" />
<glyph unicode="X" glyph-name="X" d="M83 0L283 342L97 660H131L247 456Q261 433 272 414T301 368H305Q320 395 330 414T355 456L471 660H503L317 340L517 0H483L361 212Q347 236 332 261T299 316H295Q278 286 265 261T237 212L115 0H83Z" />
<glyph unicode="Y" glyph-name="Y" d="M284 0V245L56 660H88L212 434Q235 396 256 357T300 278H304Q328 318 350 357T394 435L514 660H544L316 245V0H284Z" />
<glyph unicode="Z" glyph-name="Z" d="M72 0V19L488 634H107V661H526V642L109 28H533V0H72Z" />
<glyph unicode="[" glyph-name="bracketleft" d="M246 -152V708H506V686H274V-130H506V-152H246Z" />
<glyph unicode="\" glyph-name="backslash" d="M446 -160L120 710H154L480 -160H446Z" />
<glyph unicode="]" glyph-name="bracketright" d="M94 -152V-130H326V686H94V708H354V-152H94Z" />
<glyph unicode="^" glyph-name="asciicircum" d="M132 292L282 670H318L468 292H436L354 506L302 638H298L246 506L164 292H132Z" />
<glyph unicode="_" glyph-name="underscore" d="M60 -120V-82H540V-120H60Z" />
<glyph unicode="`" glyph-name="grave" d="M334 574L196 724L220 746L352 590L334 574Z" />
<glyph unicode="a" glyph-name="a" d="M264 -12Q232 -12 202 -5T149 18T111 58T96 117Q96 157 117 187T184 238T300 274T470 298Q470 329 463 359T440 411T394 448T322 462Q293 462 266 456T215 439T170 416T136 394L120 418Q133 428 154 440T202 464T260 482T324
490Q372 490 405 476T460 436T490 379T500 310V0H474L470 74H468Q447 57 423 42T372 14T319 -5T264 -12ZM266 16Q361 16 470 108V272Q373 263 308 250T202 217T145 174T128 118Q128 90 140 71T171 39T215 22T266 16Z" />
<glyph unicode="b" glyph-name="b" d="M306 -12Q269 -12 224 6T142 54H140L136 0H110V722H140V508L138 402H140Q178 441 228 465T326 490Q429 490 479 424T530 246Q530 185 512 137T463 56T392 6T306 -12ZM308 16Q349 16 384 33T444 80T484 153T498 246Q498 292
489 331T458 400T404 445T324 462Q284 462 236 439T140 368V92Q185 51 231 34T308 16Z" />
<glyph unicode="c" glyph-name="c" d="M348 -12Q292 -12 245 5T164 54T110 132T90 238Q90 298 110 345T166 424T248 473T348 490Q378 490 403 484T449 468T487 444T519 416L499 394Q468 424 432 443T348 462Q298 462 257 446T185 400T139 329T122 238Q122 188
138 148T184 78T255 32T348 16Q399 16 440 36T514 88L532 66Q496 31 451 10T348 -12Z" />
<glyph unicode="d" glyph-name="d" d="M282 -12Q235 -12 196 4T129 52T86 130T70 238Q70 296 88 342T138 422T211 472T298 490Q344 490 383 472T460 420H462L460 520V722H490V0H464L460 74H458Q426 40 381 14T282 -12ZM284 16Q329 16 373 40T460 110V386Q416 428
376 445T296 462Q255 462 220 445T159 397T117 325T102 238Q102 188 114 148T150 78T207 32T284 16Z" />
<glyph unicode="e" glyph-name="e" d="M330 -12Q279 -12 234 5T154 54T100 133T80 238Q80 296 99 343T152 422T228 472T318 490Q366 490 405 475T472 432T515 363T530 270Q530 262 530 255T528 238H112Q113 184 131 143T179 74T248 31T330 16Q381 16 421 31T496
70L510 44Q494 34 477 24T437 6T389 -7T330 -12ZM318 462Q282 462 247 449T184 411T136 349T113 266H502Q497 366 447 414T318 462Z" />
<glyph unicode="f" glyph-name="f" d="M266 0V450H120V474L266 478V542Q266 634 309 684T440 734Q471 734 502 728T572 704L560 680Q543 688 529 693T500 701T472 705T440 706Q400 706 373 694T328 661T302 611T294 546V478H524V450H294V0H266Z" />
<glyph unicode="g" glyph-name="g" d="M312 -234Q198 -234 143 -195T88 -93Q88 -65 109 -34T170 22V26Q152 34 136 53T120 102Q120 125 134 148T178 192V196Q155 216 139 246T122 320Q122 356 135 387T173 441T228 477T296 490Q333 490 360 478H560V450H408Q432
427 451 395T470 320Q470 284 457 253T419 200T364 165T296 152Q273 152 249 158T202 176Q179 162 166 144T152 105Q152 68 183 51T266 34H389Q480 34 520 10T560 -72Q560 -102 543 -131T493 -183T415 -220T312 -234ZM296 180Q325 180 351 190T396 219T427 263T438
320Q438 351 427 377T397 422T351 451T296 462Q267 462 241 452T196 422T165 377T154 320Q154 289 165 264T195 220T241 191T296 180ZM306 -206Q358 -206 399 -195T469 -164T513 -122T528 -74Q528 -31 496 -15T397 2H276Q259 2 240 4T203 11Q156 -14 138 -41T120
-97Q120 -143 165 -174T306 -206Z" />
<glyph unicode="h" glyph-name="h" d="M110 0V722H140V508L138 378H140Q185 428 231 459T336 490Q424 490 467 444T510 298V0H480V294Q480 379 446 420T336 462Q309 462 286 455T239 434T192 397T140 346V0H110Z" />
<glyph unicode="i" glyph-name="i" d="M346 0V450H100V478H376V0H346ZM350 600Q333 600 322 611T310 642Q310 662 321 673T350 684Q367 684 378 673T390 642Q390 622 379 611T350 600Z" />
<glyph unicode="j" glyph-name="j" d="M194 -234Q162 -234 127 -225T66 -202L80 -176Q103 -188 135 -197T199 -206Q243 -206 271 -195T316 -163T339 -115T346 -52V450H100V478H376V-46Q376 -90 367 -125T337 -184T281 -221T194 -234ZM350 600Q333 600 322 611T310
642Q310 662 321 673T350 684Q367 684 378 673T390 642Q390 622 379 611T350 600Z" />
<glyph unicode="k" glyph-name="k" d="M130 0V722H160V176H164L490 478H530L332 296L564 0H528L309 275L160 138V0H130Z" />
<glyph unicode="l" glyph-name="l" d="M416 -12Q351 -12 316 22T280 138V694H94V722H310V132Q310 16 418 16Q468 16 520 42L532 18Q502 3 477 -4T416 -12Z" />
<glyph unicode="m" glyph-name="m" d="M80 0V478H106L110 412H112Q134 448 158 469T223 490Q264 490 287 469T320 404Q348 446 373 468T439 490Q489 490 515 455T542 348V0H512V344Q512 462 437 462Q402 462 377 438T326 366V0H296V344Q296 462 221 462Q186 462
161 438T110 366V0H80Z" />
<glyph unicode="n" glyph-name="n" d="M110 0V478H136L140 382H144Q165 405 187 425T232 459T281 482T336 490Q424 490 467 444T510 298V0H480V294Q480 379 446 420T336 462Q309 462 286 455T239 434T192 397T140 346V0H110Z" />
<glyph unicode="o" glyph-name="o" d="M300 -12Q253 -12 212 5T139 54T89 132T70 238Q70 298 88 345T138 424T211 473T300 490Q347 490 388 473T461 424T511 345T530 238Q530 179 512 133T462 54T389 5T300 -12ZM300 16Q343 16 379 32T441 77T483 147T498 238Q498
287 483 328T442 399T379 445T300 462Q257 462 221 446T159 400T117 329T102 238Q102 188 117 148T158 78T221 32T300 16Z" />
<glyph unicode="p" glyph-name="p" d="M110 -222V478H136L140 406H142Q179 442 228 466T326 490Q429 490 479 424T530 246Q530 185 512 137T462 56T390 6T304 -12Q269 -12 224 6T140 58H138L140 -42V-222H110ZM306 16Q348 16 383 33T443 80T483 153T498 246Q498
292 489 331T458 400T404 445T324 462Q284 462 236 439T140 368V92Q185 51 231 34T306 16Z" />
<glyph unicode="q" glyph-name="q" d="M460 -222V-22L462 76H460Q425 40 380 14T282 -12Q235 -12 196 4T129 52T86 130T70 238Q70 296 88 342T138 422T211 472T298 490Q345 490 383 472T458 422H460L464 478H490V-222H460ZM284 16Q329 16 373 40T460 110V386Q416
428 376 445T296 462Q255 462 220 445T159 397T117 325T102 238Q102 188 114 148T150 78T207 32T284 16Z" />
<glyph unicode="r" glyph-name="r" d="M170 0V478H196L200 358H202Q241 415 299 452T431 490Q454 490 479 486T528 470L518 442Q491 452 473 456T427 460Q365 460 309 425T200 306V0H170Z" />
<glyph unicode="s" glyph-name="s" d="M322 -12Q247 -12 188 11T86 64L104 88Q143 56 194 36T324 16Q363 16 392 24T442 47T472 79T482 118Q482 135 477 151T454 181T401 209T306 234Q215 252 165 282T114 366Q114 391 124 413T157 453T214 480T296 490Q342 490
392 474T476 432L458 408Q426 432 386 447T294 462Q252 462 224 454T178 433T153 403T146 368Q146 327 185 304T310 263Q373 250 412 236T474 205T505 167T514 120Q514 94 501 70T464 28T404 -1T322 -12Z" />
<glyph unicode="t" glyph-name="t" d="M398 -12Q350 -12 318 1T267 40T240 99T232 176V450H84V474L232 478L236 638H262V478H524V450H262V172Q262 136 268 107T289 58T331 27T400 16Q439 16 470 23T532 42L542 18Q509 4 476 -4T398 -12Z" />
<glyph unicode="u" glyph-name="u" d="M264 -12Q176 -12 133 34T90 180V478H120V184Q120 99 154 58T264 16Q291 16 315 23T362 44T410 80T460 132V478H490V0H464L460 96H456Q416 49 370 19T264 -12Z" />
<glyph unicode="v" glyph-name="v" d="M286 0L66 478H98L238 168Q255 132 270 98T300 32H304Q318 64 332 98T364 168L504 478H534L316 0H286Z" />
<glyph unicode="w" glyph-name="w" d="M142 0L12 478H46L129 156Q137 123 145 93T160 30H164Q172 62 180 92T197 156L280 478H322L405 156Q413 123 421 93T438 30H442Q450 62 458 92T474 156L556 478H588L460 0H418L336 312Q327 347 320 380T302 448H298Q290 413
283 379T264 310L184 0H142Z" />
<glyph unicode="x" glyph-name="x" d="M86 0L281 248L102 478H138L236 350Q251 330 266 310T298 270H302Q319 290 336 311T368 352L464 478H498L317 248L514 0H478L370 137Q353 157 336 181T300 226H296Q278 203 261 182T226 136L120 0H86Z" />
<glyph unicode="y" glyph-name="y" d="M122 -222Q108 -222 93 -220T67 -212L77 -184Q86 -187 98 -189T125 -192Q154 -192 177 -182T220 -153T255 -110T282 -56L300 -12L64 478H96L244 164Q258 134 276 98T312 30H316Q331 62 346 98T374 164L506 478H536L306 -68Q296
-96 280 -123T241 -173T189 -208T122 -222Z" />
<glyph unicode="z" glyph-name="z" d="M72 0V16L464 450H114V478H512V462L120 28H524V0H72Z" />
<glyph unicode="{" glyph-name="braceleft" d="M458 -152Q412 -152 378 -146T320 -126T286 -88T274 -26Q274 30 278 80T283 185Q283 200 277 215T255 241T209 259T132 266V290Q179 290 208 297T254 315T277 341T283 371Q283 419 279 475T274 582Q274 619 285 643T320
682T377 702T458 708H506V686H446Q402 686 375 680T331 660T310 626T304 578Q304 532 307 482T311 382Q311 340 295 315T228 280V276Q278 267 294 242T311 174Q311 146 310 122T308 74T305 27T304 -22Q304 -49 309 -69T331 -103T374 -123T446 -130H506V-152H458Z"
/>
<glyph unicode="|" glyph-name="bar" d="M286 -250V750H314V-250H286Z" />
<glyph unicode="}" glyph-name="braceright" d="M94 -152V-130H154Q198 -130 226 -124T270 -104T292 -70T298 -22Q298 3 297 26T294 73T291 121T290 174Q290 215 306 241T372 276V280Q322 289 306 315T290 382Q290 431 294 481T298 578Q298 605 292 625T270 659T226
679T154 686H94V708H142Q188 708 222 702T279 682T313 644T325 582Q325 531 321 475T317 371Q317 356 323 341T345 315T391 297T467 290V266Q420 266 391 259T346 241T323 215T317 185Q317 131 321 81T325 -26Q325 -63 314 -87T280 -126T223 -146T142 -152H94Z"
/>
<glyph unicode="~" glyph-name="asciitilde" d="M390 270Q361 270 338 284T293 316T251 347T208 362Q195 362 184 359T161 347T140 320T120 272L96 280Q117 344 147 367T210 390Q238 390 262 376T307 344T349 313T392 298Q405 298 416 300T439 312T460 339T480
388L504 378Q483 315 453 293T390 270Z" />
<glyph unicode="&#xa0;" glyph-name="uni00A0" />
<glyph unicode="&#xa1;" glyph-name="exclamdown" d="M286 -192V-130L288 264H312L314 -130V-192H286ZM300 374Q280 374 264 388T248 432Q248 461 264 475T300 490Q320 490 336 476T352 432Q352 403 336 389T300 374Z" />
<glyph unicode="&#xa2;" glyph-name="cent" d="M158 312Q158 270 169 236T201 175T251 133T316 113V510Q282 506 253 490T203 448T170 388T158 312ZM316 -26V85Q275 89 240 105T180 151T140 220T126 312Q126 364 141 404T182 473T242 518T316 539V652H344V540Q392
539 424 521T480 480L462 460Q438 483 409 497T344 512V112Q383 113 416 129T474 168L492 148Q462 121 425 103T344 84V-26H316Z" />
<glyph unicode="&#xa3;" glyph-name="sterling" d="M87 0V18Q157 51 186 105T216 218Q216 238 213 257T203 296H82V322L194 324Q180 365 166 404T152 486Q152 563 203 607T347 652Q409 652 449 631T514 582L492 562Q466 588 431 606T343 624Q303 624 273 613T222
584T192 541T181 488Q181 445 196 406T225 324H430V296H233Q244 258 244 218Q244 152 222 110T157 32V28H516V0H87Z" />
<glyph unicode="&#xa4;" glyph-name="currency" d="M96 98L76 120L162 208Q144 232 134 262T124 328Q124 365 134 396T162 451L76 540L96 562L182 473Q205 496 235 508T300 520Q333 520 363 508T418 473L504 562L524 540L437 451Q455 427 465 396T476 328Q476
293 466 263T438 208L524 120L504 98L418 186Q395 163 364 151T300 138Q231 138 181 186L96 98ZM300 166Q329 166 355 178T401 211T432 262T444 328Q444 364 433 394T402 446T356 480T300 492Q271 492 245 480T199 446T168 394T156 328Q156 292 167 262T198 211T244
178T300 166Z" />
<glyph unicode="&#xa5;" glyph-name="yen" d="M284 0V168H92V196H284V270H92V298H273L70 640H102L219 438Q239 405 258 372T298 300H302Q323 338 342 371T383 438L500 640H530L325 298H508V270H314V196H508V168H314V0H284Z" />
<glyph unicode="&#xa6;" glyph-name="brokenbar" d="M286 -250V190H314V-250H286ZM286 310V750H314V310H286Z" />
<glyph unicode="&#xa7;" glyph-name="section" d="M296 -48Q242 -48 201 -31T130 12L152 34Q180 10 212 -5T296 -20Q344 -20 373 7T402 70Q402 106 380 128T325 167T254 198T183 233T128 281T106 356Q106 381 114 401T135 436T167 464T206 488Q190 503 181 522T172
568Q172 587 179 607T203 643T243 670T302 680Q344 680 380 666T446 628L428 606Q402 626 373 639T302 652Q275 652 256 645T225 626T208 600T202 570Q202 535 223 514T277 476T348 445T418 410T472 360T494 284Q494 258 487 239T467 204T436 177T397 155Q413 140
422 120T432 72Q432 46 421 24T390 -14T347 -39T296 -48ZM136 358Q136 330 147 310T178 274T221 247T272 224T324 202T372 176Q394 185 411 194T440 216T458 244T464 282Q464 325 440 351T379 397T303 431T230 469Q189 448 163 424T136 358Z" />
<glyph unicode="&#xa8;" glyph-name="dieresis" d="M214 602Q199 602 190 612T180 638Q180 653 189 663T214 674Q229 674 238 664T248 638Q248 623 239 613T214 602ZM386 602Q371 602 362 612T352 638Q352 653 361 663T386 674Q401 674 410 664T420 638Q420 623
411 613T386 602Z" />
<glyph unicode="&#xa9;" glyph-name="copyright" d="M300 -12Q242 -12 195 12T113 79T59 184T40 322Q40 397 59 458T112 562T194 628T300 652Q358 652 405 629T487 562T541 458T560 322Q560 246 541 185T488 80T406 12T300 -12ZM300 14Q352 14 394 36T467 98T513
196T530 322Q530 391 514 447T467 542T395 604T300 626Q248 626 206 604T133 543T87 447T70 322Q70 253 86 196T133 99T205 36T300 14ZM304 124Q273 124 246 137T197 175T164 238T152 322Q152 365 165 399T199 458T249 495T310 508Q343 508 365 496T408 464L390
442Q370 459 352 468T308 478Q255 478 221 436T186 322Q186 244 219 199T306 154Q338 154 361 166T404 196L420 174Q397 153 372 139T304 124Z" />
<glyph unicode="&#xaa;" glyph-name="ordfeminine" d="M280 402Q260 402 242 407T209 423T187 450T178 489Q178 543 233 569T402 608Q402 627 399 645T386 676T360 698T319 707Q284 707 256 695T208 670L193 693Q212 705 246 719T322 734Q383 734 408 699T434
612V410H407L404 451H403Q377 431 346 417T280 402ZM286 429Q315 429 343 442T402 479V584Q298 573 254 551T210 491Q210 458 233 444T286 429Z" />
<glyph unicode="&#xab;" glyph-name="guillemotleft" d="M510 74L372 238V266L510 430L530 412L404 252L530 90L510 74ZM453 74L315 238V266L453 430L473 412L347 252L473 90L453 74Z" />
<glyph unicode="&#xac;" glyph-name="logicalnot" d="M470 112V316H98V344H502V112H470Z" />
<glyph unicode="&#xad;" glyph-name="uni00AD" d="M98 316V344H502V316H98Z" />
<glyph unicode="&#xae;" glyph-name="registered" d="M300 326Q263 326 231 339T174 378T135 439T120 518Q120 561 134 597T173 658T230 698T300 712Q337 712 369 698T426 659T465 597T480 518Q480 474 466 439T427 379T370 340T300 326ZM300 352Q331 352 359
364T407 399T440 451T452 518Q452 554 440 584T408 637T359 673T300 686Q268 686 241 673T193 638T160 585T148 518Q148 482 160 452T192 399T240 365T300 352ZM234 418V626H300Q314 626 328 623T352 613T369 593T376 562Q376 542 365 527T336 506L386 418H352L312
496H262V418H234ZM262 522H292Q316 522 331 530T346 560Q346 578 336 589T296 600H262V522Z" />
<glyph unicode="&#xaf;" glyph-name="overscore" d="M180 608V636H420V608H180Z" />
<glyph unicode="&#xb0;" glyph-name="degree" d="M300 454Q279 454 259 461T224 484T200 520T190 568Q190 596 199 617T224 654T259 676T300 684Q321 684 341 677T376 654T400 618T410 568Q410 541 401 520T376 484T341 462T300 454ZM300 480Q336 480 359 505T382
568Q382 607 359 632T300 658Q264 658 241 633T218 568Q218 530 241 505T300 480Z" />
<glyph unicode="&#xb1;" glyph-name="plusminus" d="M284 102V312H98V340H284V548H316V340H502V312H316V102H284ZM98 0V28H502V0H98Z" />
<glyph unicode="&#xb2;" glyph-name="two.sups" d="M168 410V430Q223 481 263 518T331 585T371 638T384 688Q384 733 357 759T284 786Q252 786 225 767T180 722L160 740Q177 769 212 790T286 812Q343 812 378 782T414 690Q414 658 399 630T357 573T294 510T216
436H438V410H168Z" />
<glyph unicode="&#xb3;" glyph-name="three.sups" d="M296 398Q248 398 210 420T152 472L176 490Q195 461 227 443T298 424Q341 424 372 447T404 512Q404 553 366 574T250 596V620Q323 620 355 646T388 708Q388 743 362 764T290 786Q264 786 236 772T188 732L168
750Q188 776 220 794T292 812Q318 812 341 805T381 785T408 753T418 710Q418 637 330 610Q377 604 405 579T434 512Q434 485 424 464T395 428T351 406T296 398Z" />
<glyph unicode="&#xb4;" glyph-name="acute" d="M266 574L248 590L380 746L404 724L266 574Z" />
<glyph unicode="&#xb5;" glyph-name="uni00B5" d="M100 -180V478H130V184Q130 106 160 61T262 16Q284 16 306 20T352 37T400 75T450 144V478H480Q479 369 479 262T478 46Q478 31 484 24T500 16Q503 16 506 16T518 18L524 -8Q518 -10 512 -11T498 -12Q483 -12 473
-7T457 10T450 45T450 102H448Q411 42 364 15T266 -12Q221 -12 186 3T126 64Q126 19 126 -12T126 -70T127 -122T130 -180H100Z" />
<glyph unicode="&#xb6;" glyph-name="paragraph" d="M342 250Q286 250 240 261T161 296T110 359T92 454Q92 509 109 548T156 612T229 648T324 660H368V250H342ZM424 -80V660H452V-80H424Z" />
<glyph unicode="&#xb7;" glyph-name="middot" d="M300 284Q280 284 264 298T248 342Q248 371 264 385T300 400Q320 400 336 386T352 342Q352 313 336 299T300 284Z" />
<glyph unicode="&#xb8;" glyph-name="cedilla" d="M226 -216L220 -190Q286 -185 310 -172T334 -136Q334 -113 316 -102T256 -84L288 6H316L294 -66Q326 -74 345 -89T364 -134Q364 -172 329 -191T226 -216Z" />
<glyph unicode="&#xb9;" glyph-name="one.sups" d="M182 410V436H308V740H206V762Q241 767 265 776T310 800H336V436H456V410H182Z" />
<glyph unicode="&#xba;" glyph-name="ordmasculine" d="M300 402Q270 402 243 413T195 445T162 498T150 568Q150 608 162 639T194 691T242 723T300 734Q331 734 358 723T405 691T438 639T450 568Q450 529 438 498T406 446T358 413T300 402ZM300 430Q325 430 346
440T384 468T408 511T417 568Q417 599 409 624T384 668T347 697T300 707Q274 707 253 697T216 669T192 625T183 568Q183 537 191 512T216 468T253 440T300 430Z" />
<glyph unicode="&#xbb;" glyph-name="guillemotright" d="M404 74L384 90L510 252L384 412L404 430L542 266V238L404 74ZM347 74L327 90L453 252L327 412L347 430L485 266V238L347 74Z" />
<glyph unicode="&#xbc;" glyph-name="onequarter" d="M161 340V585H79V609Q108 614 127 621T165 640H189V340H161ZM64 36L38 58L218 258L236 242L64 36ZM382 402L364 418L536 624L562 602L382 402ZM484 0V84H320V99L448 312L470 298L356 108H484V212H512V108H561V84H512V0H484Z"
/>
<glyph unicode="&#xbd;" glyph-name="onehalf" d="M161 340V585H79V609Q108 614 127 621T165 640H189V340H161ZM64 36L38 58L218 258L236 242L64 36ZM382 402L364 418L536 624L562 602L382 402ZM333 0V20Q378 57 411 85T465 135T496 175T506 214Q506 248 487 267T432
286Q406 286 385 273T348 238L326 254Q344 278 372 295T432 312Q482 312 509 287T536 213Q536 190 525 169T493 125T444 79T383 26H554V0H333Z" />
<glyph unicode="&#xbe;" glyph-name="threequarters" d="M159 328Q121 328 89 347T39 392L63 410Q78 386 103 370T161 354Q196 354 217 368T239 416Q239 480 125 480V504Q177 504 200 523T223 570Q223 596 207 611T155 626Q136 626 113 616T75 586L55 604Q72 626
99 639T157 652Q201 652 227 632T253 572Q253 542 239 524T195 494Q225 488 247 469T269 416Q269 371 238 350T159 328ZM104 36L78 58L258 258L276 242L104 36ZM422 402L404 418L576 624L602 602L422 402ZM484 0V84H320V99L448 312L470 298L356 108H484V212H512V108H561V84H512V0H484Z"
/>
<glyph unicode="&#xbf;" glyph-name="questiondown" d="M306 -204Q265 -204 234 -192T181 -160T148 -112T136 -54Q136 -19 150 8T186 59T231 104T274 150T304 201T310 264H338Q344 226 334 197T306 143T263 96T218 52T183 4T168 -52Q168 -77 176 -99T201 -139T244
-166T308 -176Q352 -176 391 -159T460 -110L482 -130Q450 -162 407 -183T306 -204ZM314 374Q294 374 278 388T262 432Q262 461 278 475T314 490Q334 490 350 476T366 432Q366 403 350 389T314 374Z" />
<glyph unicode="&#xc0;" glyph-name="Agrave" d="M222 396L175 264H424L378 396Q357 456 339 510T302 626H298Q280 564 262 510T222 396ZM50 0L286 660H314L550 0H516L434 236H165L82 0H50ZM322 710L196 822L218 846L336 726L322 710Z" />
<glyph unicode="&#xc1;" glyph-name="Aacute" d="M222 396L175 264H424L378 396Q357 456 339 510T302 626H298Q280 564 262 510T222 396ZM50 0L286 660H314L550 0H516L434 236H165L82 0H50ZM278 710L264 726L382 846L404 822L278 710Z" />
<glyph unicode="&#xc2;" glyph-name="Acircumflex" d="M222 396L175 264H424L378 396Q357 456 339 510T302 626H298Q280 564 262 510T222 396ZM50 0L286 660H314L550 0H516L434 236H165L82 0H50ZM184 710L170 726L286 840H314L430 726L416 710L302 810H298L184 710Z" />
<glyph unicode="&#xc3;" glyph-name="Atilde" d="M222 396L175 264H424L378 396Q357 456 339 510T302 626H298Q280 564 262 510T222 396ZM50 0L286 660H314L550 0H516L434 236H165L82 0H50ZM378 722Q349 722 329 735T293 763T260 791T222 804Q199 804 183 782T164
724L140 726Q142 769 162 800T222 832Q251 832 271 819T307 791T340 763T378 750Q401 750 416 772T436 830L460 828Q458 785 438 754T378 722Z" />
<glyph unicode="&#xc4;" glyph-name="Adieresis" d="M222 396L175 264H424L378 396Q357 456 339 510T302 626H298Q280 564 262 510T222 396ZM50 0L286 660H314L550 0H516L434 236H165L82 0H50ZM224 728Q210 728 201 736T192 760Q192 775 201 783T224 792Q238 792
247 784T256 760Q256 745 247 737T224 728ZM376 728Q362 728 353 736T344 760Q344 775 353 783T376 792Q390 792 399 784T408 760Q408 745 399 737T376 728Z" />
<glyph unicode="&#xc5;" glyph-name="Aring" d="M222 396L175 264H424L378 396Q357 456 339 510T302 626H298Q280 564 262 510T222 396ZM50 0L286 660H314L550 0H516L434 236H165L82 0H50ZM300 700Q265 700 241 723T216 784Q216 822 240 845T300 868Q334 868 359
845T384 784Q384 746 359 723T300 700ZM300 722Q323 722 340 737T358 784Q358 813 341 829T300 846Q275 846 258 830T240 784Q240 753 257 738T300 722Z" />
<glyph unicode="&#xc6;" glyph-name="AE" d="M212 394L149 254H322V630H318Q292 571 266 514T212 394ZM0 0L302 660H578V632H354V366H524V338H354V28H588V0H322V226H137L36 0H0Z" />
<glyph unicode="&#xc7;" glyph-name="Ccedilla" d="M347 -12Q286 -12 236 12T150 82T94 190T74 332Q74 410 94 473T150 580T238 648T353 672Q410 672 452 648T521 594L501 572Q474 604 437 623T353 642Q296 642 251 621T174 559T125 461T108 332Q108 261 125 203T173
104T248 41T349 18Q402 18 442 39T521 102L541 82Q503 38 458 13T347 -12ZM282 -216L276 -190Q342 -185 366 -172T390 -136Q390 -113 372 -102T312 -84L344 6H372L350 -66Q382 -74 401 -89T420 -134Q420 -172 385 -191T282 -216Z" />
<glyph unicode="&#xc8;" glyph-name="Egrave" d="M132 0V660H516V632H164V366H460V338H164V28H526V0H132ZM360 710L234 822L256 846L374 726L360 710Z" />
<glyph unicode="&#xc9;" glyph-name="Eacute" d="M132 0V660H516V632H164V366H460V338H164V28H526V0H132ZM316 710L302 726L420 846L442 822L316 710Z" />
<glyph unicode="&#xca;" glyph-name="Ecircumflex" d="M132 0V660H516V632H164V366H460V338H164V28H526V0H132ZM222 710L208 726L324 840H352L468 726L454 710L340 810H336L222 710Z" />
<glyph unicode="&#xcb;" glyph-name="Edieresis" d="M132 0V660H516V632H164V366H460V338H164V28H526V0H132ZM262 728Q248 728 239 736T230 760Q230 775 239 783T262 792Q276 792 285 784T294 760Q294 745 285 737T262 728ZM414 728Q400 728 391 736T382 760Q382
775 391 783T414 792Q428 792 437 784T446 760Q446 745 437 737T414 728Z" />
<glyph unicode="&#xcc;" glyph-name="Igrave" d="M112 0V28H284V632H112V660H488V632H316V28H488V0H112ZM322 710L196 822L218 846L336 726L322 710Z" />
<glyph unicode="&#xcd;" glyph-name="Iacute" d="M112 0V28H284V632H112V660H488V632H316V28H488V0H112ZM278 710L264 726L382 846L404 822L278 710Z" />
<glyph unicode="&#xce;" glyph-name="Icircumflex" d="M112 0V28H284V632H112V660H488V632H316V28H488V0H112ZM184 710L170 726L286 840H314L430 726L416 710L302 810H298L184 710Z" />
<glyph unicode="&#xcf;" glyph-name="Idieresis" d="M112 0V28H284V632H112V660H488V632H316V28H488V0H112ZM224 728Q210 728 201 736T192 760Q192 775 201 783T224 792Q238 792 247 784T256 760Q256 745 247 737T224 728ZM376 728Q362 728 353 736T344 760Q344
775 353 783T376 792Q390 792 399 784T408 760Q408 745 399 737T376 728Z" />
<glyph unicode="&#xd0;" glyph-name="Eth" d="M100 0V338H22V362L100 366V660H248Q324 660 380 637T472 570T526 466T544 332Q544 258 527 197T473 93T380 25T248 0H100ZM132 28H244Q314 28 364 51T447 114T495 211T510 332Q510 397 495 452T448 547T365 609T244
632H132V366H304V338H132V28Z" />
<glyph unicode="&#xd1;" glyph-name="Ntilde" d="M96 0V660H129L403 174L476 46H478Q477 94 476 139T474 231V660H504V0H471L197 486L124 614H122Q123 566 124 523T126 433V0H96ZM388 722Q359 722 339 735T303 763T270 791T232 804Q209 804 193 782T174 724L150
726Q152 769 172 800T232 832Q261 832 281 819T317 791T350 763T388 750Q411 750 426 772T446 830L470 828Q468 785 448 754T388 722Z" />
<glyph unicode="&#xd2;" glyph-name="Ograve" d="M300 -12Q247 -12 202 12T125 82T74 190T56 332Q56 410 74 473T124 580T202 648T300 672Q353 672 398 648T475 580T526 473T544 332Q544 254 526 191T476 82T398 13T300 -12ZM300 18Q347 18 385 40T452 104T495
203T510 332Q510 403 495 460T452 558T386 620T300 642Q253 642 215 621T148 559T105 461T90 332Q90 261 105 203T148 104T214 41T300 18ZM322 710L196 822L218 846L336 726L322 710Z" />
<glyph unicode="&#xd3;" glyph-name="Oacute" d="M300 -12Q247 -12 202 12T125 82T74 190T56 332Q56 410 74 473T124 580T202 648T300 672Q353 672 398 648T475 580T526 473T544 332Q544 254 526 191T476 82T398 13T300 -12ZM300 18Q347 18 385 40T452 104T495
203T510 332Q510 403 495 460T452 558T386 620T300 642Q253 642 215 621T148 559T105 461T90 332Q90 261 105 203T148 104T214 41T300 18ZM278 710L264 726L382 846L404 822L278 710Z" />
<glyph unicode="&#xd4;" glyph-name="Ocircumflex" d="M300 -12Q247 -12 202 12T125 82T74 190T56 332Q56 410 74 473T124 580T202 648T300 672Q353 672 398 648T475 580T526 473T544 332Q544 254 526 191T476 82T398 13T300 -12ZM300 18Q347 18 385 40T452 104T495
203T510 332Q510 403 495 460T452 558T386 620T300 642Q253 642 215 621T148 559T105 461T90 332Q90 261 105 203T148 104T214 41T300 18ZM184 710L170 726L286 840H314L430 726L416 710L302 810H298L184 710Z" />
<glyph unicode="&#xd5;" glyph-name="Otilde" d="M300 -12Q247 -12 202 12T125 82T74 190T56 332Q56 410 74 473T124 580T202 648T300 672Q353 672 398 648T475 580T526 473T544 332Q544 254 526 191T476 82T398 13T300 -12ZM300 18Q347 18 385 40T452 104T495
203T510 332Q510 403 495 460T452 558T386 620T300 642Q253 642 215 621T148 559T105 461T90 332Q90 261 105 203T148 104T214 41T300 18ZM378 722Q349 722 329 735T293 763T260 791T222 804Q199 804 183 782T164 724L140 726Q142 769 162 800T222 832Q251 832
271 819T307 791T340 763T378 750Q401 750 416 772T436 830L460 828Q458 785 438 754T378 722Z" />
<glyph unicode="&#xd6;" glyph-name="Odieresis" d="M300 -12Q247 -12 202 12T125 82T74 190T56 332Q56 410 74 473T124 580T202 648T300 672Q353 672 398 648T475 580T526 473T544 332Q544 254 526 191T476 82T398 13T300 -12ZM300 18Q347 18 385 40T452 104T495
203T510 332Q510 403 495 460T452 558T386 620T300 642Q253 642 215 621T148 559T105 461T90 332Q90 261 105 203T148 104T214 41T300 18ZM224 728Q210 728 201 736T192 760Q192 775 201 783T224 792Q238 792 247 784T256 760Q256 745 247 737T224 728ZM376 728Q362
728 353 736T344 760Q344 775 353 783T376 792Q390 792 399 784T408 760Q408 745 399 737T376 728Z" />
<glyph unicode="&#xd7;" glyph-name="multiply" d="M136 138L116 160L280 330L116 500L136 522L300 350L464 522L484 500L320 330L484 160L464 138L300 310L136 138Z" />
<glyph unicode="&#xd8;" glyph-name="Oslash" d="M300 -12Q252 -12 211 8T137 66L80 -20L58 -4L120 89Q90 134 73 195T56 332Q56 410 74 473T124 580T202 648T300 672Q396 672 461 598L516 680L538 664L479 575Q510 531 527 470T544 332Q544 254 526 191T476 82T398
13T300 -12ZM90 332Q90 266 103 212T139 118L443 571Q387 642 300 642Q253 642 215 621T148 559T105 461T90 332ZM300 18Q347 18 385 40T452 104T495 203T510 332Q510 398 497 452T459 547L156 93Q183 57 219 38T300 18Z" />
<glyph unicode="&#xd9;" glyph-name="Ugrave" d="M300 -12Q261 -12 224 -1T157 40T110 119T92 246V660H124V254Q124 186 138 141T177 68T233 30T300 18Q335 18 367 29T424 68T463 140T478 254V660H508V246Q508 169 490 120T443 41T377 0T300 -12ZM322 710L196
822L218 846L336 726L322 710Z" />
<glyph unicode="&#xda;" glyph-name="Uacute" d="M300 -12Q261 -12 224 -1T157 40T110 119T92 246V660H124V254Q124 186 138 141T177 68T233 30T300 18Q335 18 367 29T424 68T463 140T478 254V660H508V246Q508 169 490 120T443 41T377 0T300 -12ZM278 710L264
726L382 846L404 822L278 710Z" />
<glyph unicode="&#xdb;" glyph-name="Ucircumflex" d="M300 -12Q261 -12 224 -1T157 40T110 119T92 246V660H124V254Q124 186 138 141T177 68T233 30T300 18Q335 18 367 29T424 68T463 140T478 254V660H508V246Q508 169 490 120T443 41T377 0T300 -12ZM184 710L170
726L286 840H314L430 726L416 710L302 810H298L184 710Z" />
<glyph unicode="&#xdc;" glyph-name="Udieresis" d="M300 -12Q261 -12 224 -1T157 40T110 119T92 246V660H124V254Q124 186 138 141T177 68T233 30T300 18Q335 18 367 29T424 68T463 140T478 254V660H508V246Q508 169 490 120T443 41T377 0T300 -12ZM224 728Q210
728 201 736T192 760Q192 775 201 783T224 792Q238 792 247 784T256 760Q256 745 247 737T224 728ZM376 728Q362 728 353 736T344 760Q344 775 353 783T376 792Q390 792 399 784T408 760Q408 745 399 737T376 728Z" />
<glyph unicode="&#xdd;" glyph-name="Yacute" d="M284 0V245L56 660H88L212 434Q235 396 256 357T300 278H304Q328 318 350 357T394 435L514 660H544L316 245V0H284ZM278 710L264 726L382 846L404 822L278 710Z" />
<glyph unicode="&#xde;" glyph-name="Thorn" d="M124 0V660H156V540H296Q407 540 467 500T528 360Q528 265 468 219T296 172H156V0H124ZM156 200H284Q391 200 442 237T494 360Q494 447 442 479T284 512H156V200Z" />
<glyph unicode="&#xdf;" glyph-name="germandbls" d="M404 -12Q361 -12 324 2T257 40L276 64Q308 40 338 28T405 16Q435 16 458 25T496 49T518 83T526 122Q526 159 509 182T465 221T407 249T350 278T306 316T288 376Q288 413 306 440T345 491T384 540T402 600Q402
645 373 675T288 706Q223 706 182 662T140 524V0H110V538Q110 584 123 620T161 681T218 720T290 734Q323 734 349 724T394 696T423 654T434 602Q434 563 416 535T377 483T338 434T320 378Q320 348 337 329T381 296T439 269T496 238T540 193T558 124Q558 95 546
70T514 27T465 -1T404 -12Z" />
<glyph unicode="&#xe0;" glyph-name="agrave" d="M264 -12Q232 -12 202 -5T149 18T111 58T96 117Q96 157 117 187T184 238T300 274T470 298Q470 329 463 359T440 411T394 448T322 462Q293 462 266 456T215 439T170 416T136 394L120 418Q133 428 154 440T202 464T260
482T324 490Q372 490 405 476T460 436T490 379T500 310V0H474L470 74H468Q447 57 423 42T372 14T319 -5T264 -12ZM266 16Q361 16 470 108V272Q373 263 308 250T202 217T145 174T128 118Q128 90 140 71T171 39T215 22T266 16ZM354 574L216 724L240 746L372 590L354
574Z" />
<glyph unicode="&#xe1;" glyph-name="aacute" d="M264 -12Q232 -12 202 -5T149 18T111 58T96 117Q96 157 117 187T184 238T300 274T470 298Q470 329 463 359T440 411T394 448T322 462Q293 462 266 456T215 439T170 416T136 394L120 418Q133 428 154 440T202 464T260
482T324 490Q372 490 405 476T460 436T490 379T500 310V0H474L470 74H468Q447 57 423 42T372 14T319 -5T264 -12ZM266 16Q361 16 470 108V272Q373 263 308 250T202 217T145 174T128 118Q128 90 140 71T171 39T215 22T266 16ZM286 574L268 590L400 746L424 724L286
574Z" />
<glyph unicode="&#xe2;" glyph-name="acircumflex" d="M264 -12Q232 -12 202 -5T149 18T111 58T96 117Q96 157 117 187T184 238T300 274T470 298Q470 329 463 359T440 411T394 448T322 462Q293 462 266 456T215 439T170 416T136 394L120 418Q133 428 154 440T202
464T260 482T324 490Q372 490 405 476T460 436T490 379T500 310V0H474L470 74H468Q447 57 423 42T372 14T319 -5T264 -12ZM266 16Q361 16 470 108V272Q373 263 308 250T202 217T145 174T128 118Q128 90 140 71T171 39T215 22T266 16ZM206 574L188 590L306 736H334L452
590L434 574L322 704H318L206 574Z" />
<glyph unicode="&#xe3;" glyph-name="atilde" d="M264 -12Q232 -12 202 -5T149 18T111 58T96 117Q96 157 117 187T184 238T300 274T470 298Q470 329 463 359T440 411T394 448T322 462Q293 462 266 456T215 439T170 416T136 394L120 418Q133 428 154 440T202 464T260
482T324 490Q372 490 405 476T460 436T490 379T500 310V0H474L470 74H468Q447 57 423 42T372 14T319 -5T264 -12ZM266 16Q361 16 470 108V272Q373 263 308 250T202 217T145 174T128 118Q128 90 140 71T171 39T215 22T266 16ZM397 580Q368 580 349 595T313 630T280
664T242 680Q213 680 201 652T186 582L160 584Q161 605 165 627T179 666T204 695T244 706Q272 706 291 691T327 656T360 622T399 606Q427 606 439 635T454 704L480 702Q478 681 474 660T461 620T436 591T397 580Z" />
<glyph unicode="&#xe4;" glyph-name="adieresis" d="M264 -12Q232 -12 202 -5T149 18T111 58T96 117Q96 157 117 187T184 238T300 274T470 298Q470 329 463 359T440 411T394 448T322 462Q293 462 266 456T215 439T170 416T136 394L120 418Q133 428 154 440T202
464T260 482T324 490Q372 490 405 476T460 436T490 379T500 310V0H474L470 74H468Q447 57 423 42T372 14T319 -5T264 -12ZM266 16Q361 16 470 108V272Q373 263 308 250T202 217T145 174T128 118Q128 90 140 71T171 39T215 22T266 16ZM234 602Q219 602 210 612T200
638Q200 653 209 663T234 674Q249 674 258 664T268 638Q268 623 259 613T234 602ZM406 602Q391 602 382 612T372 638Q372 653 381 663T406 674Q421 674 430 664T440 638Q440 623 431 613T406 602Z" />
<glyph unicode="&#xe5;" glyph-name="aring" d="M264 -12Q232 -12 202 -5T149 18T111 58T96 117Q96 157 117 187T184 238T300 274T470 298Q470 329 463 359T440 411T394 448T322 462Q293 462 266 456T215 439T170 416T136 394L120 418Q133 428 154 440T202 464T260
482T324 490Q372 490 405 476T460 436T490 379T500 310V0H474L470 74H468Q447 57 423 42T372 14T319 -5T264 -12ZM266 16Q361 16 470 108V272Q373 263 308 250T202 217T145 174T128 118Q128 90 140 71T171 39T215 22T266 16ZM320 570Q279 570 254 595T228 660Q228
699 253 724T320 750Q361 750 386 725T412 660Q412 621 387 596T320 570ZM320 592Q349 592 368 611T388 660Q388 689 369 708T320 728Q291 728 272 709T252 660Q252 631 271 612T320 592Z" />
<glyph unicode="&#xe6;" glyph-name="ae" d="M142 -12Q89 -12 54 19T18 112Q18 147 32 176T78 228T160 267T284 292Q285 384 256 423T176 462Q159 462 142 458T107 448T75 433T50 417L36 440Q47 447 62 456T96 472T136 485T180 490Q228 490 261 461T307 366Q329
431 370 460T458 490Q495 490 521 473T565 428T591 361T600 282Q600 273 600 263T598 238H314Q314 189 323 149T350 79T396 33T462 16Q497 16 524 27T572 52L586 28Q563 13 534 1T461 -12Q410 -12 374 14T315 87Q280 45 237 17T142 -12ZM145 16Q165 16 187 23T230
43T269 74T303 115Q294 143 289 175T284 244V266Q215 256 170 242T98 209T61 165T50 112Q50 66 76 41T145 16ZM458 462Q432 462 408 452T364 418T331 357T315 266H572Q570 363 543 412T458 462Z" />
<glyph unicode="&#xe7;" glyph-name="ccedilla" d="M348 -12Q292 -12 245 5T164 54T110 132T90 238Q90 298 110 345T166 424T248 473T348 490Q378 490 403 484T449 468T487 444T519 416L499 394Q468 424 432 443T348 462Q298 462 257 446T185 400T139 329T122
238Q122 188 138 148T184 78T255 32T348 16Q399 16 440 36T514 88L532 66Q496 31 451 10T348 -12ZM276 -216L270 -190Q336 -185 360 -172T384 -136Q384 -113 366 -102T306 -84L338 6H366L344 -66Q376 -74 395 -89T414 -134Q414 -172 379 -191T276 -216Z" />
<glyph unicode="&#xe8;" glyph-name="egrave" d="M330 -12Q279 -12 234 5T154 54T100 133T80 238Q80 296 99 343T152 422T228 472T318 490Q366 490 405 475T472 432T515 363T530 270Q530 262 530 255T528 238H112Q113 184 131 143T179 74T248 31T330 16Q381 16
421 31T496 70L510 44Q494 34 477 24T437 6T389 -7T330 -12ZM318 462Q282 462 247 449T184 411T136 349T113 266H502Q497 366 447 414T318 462ZM354 574L216 724L240 746L372 590L354 574Z" />
<glyph unicode="&#xe9;" glyph-name="eacute" d="M330 -12Q279 -12 234 5T154 54T100 133T80 238Q80 296 99 343T152 422T228 472T318 490Q366 490 405 475T472 432T515 363T530 270Q530 262 530 255T528 238H112Q113 184 131 143T179 74T248 31T330 16Q381 16
421 31T496 70L510 44Q494 34 477 24T437 6T389 -7T330 -12ZM318 462Q282 462 247 449T184 411T136 349T113 266H502Q497 366 447 414T318 462ZM286 574L268 590L400 746L424 724L286 574Z" />
<glyph unicode="&#xea;" glyph-name="ecircumflex" d="M330 -12Q279 -12 234 5T154 54T100 133T80 238Q80 296 99 343T152 422T228 472T318 490Q366 490 405 475T472 432T515 363T530 270Q530 262 530 255T528 238H112Q113 184 131 143T179 74T248 31T330 16Q381
16 421 31T496 70L510 44Q494 34 477 24T437 6T389 -7T330 -12ZM318 462Q282 462 247 449T184 411T136 349T113 266H502Q497 366 447 414T318 462ZM206 574L188 590L306 736H334L452 590L434 574L322 704H318L206 574Z" />
<glyph unicode="&#xeb;" glyph-name="edieresis" d="M330 -12Q279 -12 234 5T154 54T100 133T80 238Q80 296 99 343T152 422T228 472T318 490Q366 490 405 475T472 432T515 363T530 270Q530 262 530 255T528 238H112Q113 184 131 143T179 74T248 31T330 16Q381
16 421 31T496 70L510 44Q494 34 477 24T437 6T389 -7T330 -12ZM318 462Q282 462 247 449T184 411T136 349T113 266H502Q497 366 447 414T318 462ZM234 602Q219 602 210 612T200 638Q200 653 209 663T234 674Q249 674 258 664T268 638Q268 623 259 613T234 602ZM406
602Q391 602 382 612T372 638Q372 653 381 663T406 674Q421 674 430 664T440 638Q440 623 431 613T406 602Z" />
<glyph unicode="&#xec;" glyph-name="igrave" d="M346 0V450H100V478H376V0H346ZM384 574L246 724L270 746L402 590L384 574Z" />
<glyph unicode="&#xed;" glyph-name="iacute" d="M346 0V450H100V478H376V0H346ZM316 574L298 590L430 746L454 724L316 574Z" />
<glyph unicode="&#xee;" glyph-name="icircumflex" d="M346 0V450H100V478H376V0H346ZM236 574L218 590L336 736H364L482 590L464 574L352 704H348L236 574Z" />
<glyph unicode="&#xef;" glyph-name="idieresis" d="M346 0V450H100V478H376V0H346ZM264 602Q249 602 240 612T230 638Q230 653 239 663T264 674Q279 674 288 664T298 638Q298 623 289 613T264 602ZM436 602Q421 602 412 612T402 638Q402 653 411 663T436 674Q451
674 460 664T470 638Q470 623 461 613T436 602Z" />
<glyph unicode="&#xf0;" glyph-name="eth" d="M300 -12Q255 -12 214 3T140 49T89 121T70 218Q70 267 86 307T133 377T206 423T304 440Q358 440 405 414T485 348Q472 434 437 494T350 599L200 520L188 542L329 616Q298 640 263 660T190 700L206 722Q248 702 285
680T357 630L490 700L502 678L377 613Q444 551 484 464T524 250Q524 190 508 142T463 59T392 7T300 -12ZM300 16Q351 16 387 34T447 85T481 159T492 250Q492 264 492 277T490 304Q448 364 398 388T302 412Q251 412 214 396T151 353T114 291T102 218Q102 174 117
137T160 73T223 31T300 16Z" />
<glyph unicode="&#xf1;" glyph-name="ntilde" d="M110 0V478H136L140 382H144Q165 405 187 425T232 459T281 482T336 490Q424 490 467 444T510 298V0H480V294Q480 379 446 420T336 462Q309 462 286 455T239 434T192 397T140 346V0H110ZM397 580Q368 580 349 595T313
630T280 664T242 680Q213 680 201 652T186 582L160 584Q161 605 165 627T179 666T204 695T244 706Q272 706 291 691T327 656T360 622T399 606Q427 606 439 635T454 704L480 702Q478 681 474 660T461 620T436 591T397 580Z" />
<glyph unicode="&#xf2;" glyph-name="ograve" d="M300 -12Q253 -12 212 5T139 54T89 132T70 238Q70 298 88 345T138 424T211 473T300 490Q347 490 388 473T461 424T511 345T530 238Q530 179 512 133T462 54T389 5T300 -12ZM300 16Q343 16 379 32T441 77T483 147T498
238Q498 287 483 328T442 399T379 445T300 462Q257 462 221 446T159 400T117 329T102 238Q102 188 117 148T158 78T221 32T300 16ZM334 574L196 724L220 746L352 590L334 574Z" />
<glyph unicode="&#xf3;" glyph-name="oacute" d="M300 -12Q253 -12 212 5T139 54T89 132T70 238Q70 298 88 345T138 424T211 473T300 490Q347 490 388 473T461 424T511 345T530 238Q530 179 512 133T462 54T389 5T300 -12ZM300 16Q343 16 379 32T441 77T483 147T498
238Q498 287 483 328T442 399T379 445T300 462Q257 462 221 446T159 400T117 329T102 238Q102 188 117 148T158 78T221 32T300 16ZM266 574L248 590L380 746L404 724L266 574Z" />
<glyph unicode="&#xf4;" glyph-name="ocircumflex" d="M300 -12Q253 -12 212 5T139 54T89 132T70 238Q70 298 88 345T138 424T211 473T300 490Q347 490 388 473T461 424T511 345T530 238Q530 179 512 133T462 54T389 5T300 -12ZM300 16Q343 16 379 32T441 77T483
147T498 238Q498 287 483 328T442 399T379 445T300 462Q257 462 221 446T159 400T117 329T102 238Q102 188 117 148T158 78T221 32T300 16ZM186 574L168 590L286 736H314L432 590L414 574L302 704H298L186 574Z" />
<glyph unicode="&#xf5;" glyph-name="otilde" d="M300 -12Q253 -12 212 5T139 54T89 132T70 238Q70 298 88 345T138 424T211 473T300 490Q347 490 388 473T461 424T511 345T530 238Q530 179 512 133T462 54T389 5T300 -12ZM300 16Q343 16 379 32T441 77T483 147T498
238Q498 287 483 328T442 399T379 445T300 462Q257 462 221 446T159 400T117 329T102 238Q102 188 117 148T158 78T221 32T300 16ZM377 580Q348 580 329 595T293 630T260 664T222 680Q193 680 181 652T166 582L140 584Q141 605 145 627T159 666T184 695T224 706Q252
706 271 691T307 656T340 622T379 606Q407 606 419 635T434 704L460 702Q458 681 454 660T441 620T416 591T377 580Z" />
<glyph unicode="&#xf6;" glyph-name="odieresis" d="M300 -12Q253 -12 212 5T139 54T89 132T70 238Q70 298 88 345T138 424T211 473T300 490Q347 490 388 473T461 424T511 345T530 238Q530 179 512 133T462 54T389 5T300 -12ZM300 16Q343 16 379 32T441 77T483
147T498 238Q498 287 483 328T442 399T379 445T300 462Q257 462 221 446T159 400T117 329T102 238Q102 188 117 148T158 78T221 32T300 16ZM214 602Q199 602 190 612T180 638Q180 653 189 663T214 674Q229 674 238 664T248 638Q248 623 239 613T214 602ZM386 602Q371
602 362 612T352 638Q352 653 361 663T386 674Q401 674 410 664T420 638Q420 623 411 613T386 602Z" />
<glyph unicode="&#xf7;" glyph-name="divide" d="M300 474Q286 474 277 483T268 510Q268 525 277 534T300 544Q314 544 323 535T332 510Q332 493 323 484T300 474ZM300 114Q286 114 277 123T268 150Q268 165 277 174T300 184Q314 184 323 175T332 150Q332 133
323 124T300 114ZM98 316V344H502V316H98Z" />
<glyph unicode="&#xf8;" glyph-name="oslash" d="M300 -12Q212 -12 149 43L92 -22L70 -4L129 64Q101 96 86 139T70 238Q70 298 88 345T138 424T211 473T300 490Q344 490 382 476T452 434L508 498L530 480L472 413Q499 381 514 338T530 238Q530 179 512 133T462
54T389 5T300 -12ZM102 238Q102 192 114 154T150 87L431 410Q405 435 372 448T300 462Q257 462 221 446T159 400T117 329T102 238ZM300 16Q343 16 379 32T441 77T483 147T498 238Q498 283 486 321T451 389L169 66Q222 16 300 16Z" />
<glyph unicode="&#xf9;" glyph-name="ugrave" d="M264 -12Q176 -12 133 34T90 180V478H120V184Q120 99 154 58T264 16Q291 16 315 23T362 44T410 80T460 132V478H490V0H464L460 96H456Q416 49 370 19T264 -12ZM585 574L447 724L471 746L603 590L585 574Z" />
<glyph unicode="&#xfa;" glyph-name="uacute" d="M264 -12Q176 -12 133 34T90 180V478H120V184Q120 99 154 58T264 16Q291 16 315 23T362 44T410 80T460 132V478H490V0H464L460 96H456Q416 49 370 19T264 -12ZM517 574L499 590L631 746L655 724L517 574Z" />
<glyph unicode="&#xfb;" glyph-name="ucircumflex" d="M264 -12Q176 -12 133 34T90 180V478H120V184Q120 99 154 58T264 16Q291 16 315 23T362 44T410 80T460 132V478H490V0H464L460 96H456Q416 49 370 19T264 -12ZM437 574L419 590L537 736H565L683 590L665 574L553
704H549L437 574Z" />
<glyph unicode="&#xfc;" glyph-name="udieresis" d="M264 -12Q176 -12 133 34T90 180V478H120V184Q120 99 154 58T264 16Q291 16 315 23T362 44T410 80T460 132V478H490V0H464L460 96H456Q416 49 370 19T264 -12ZM465 602Q450 602 441 612T431 638Q431 653 440
663T465 674Q480 674 489 664T499 638Q499 623 490 613T465 602ZM637 602Q622 602 613 612T603 638Q603 653 612 663T637 674Q652 674 661 664T671 638Q671 623 662 613T637 602Z" />
<glyph unicode="&#xfd;" glyph-name="yacute" d="M122 -222Q108 -222 93 -220T67 -212L77 -184Q86 -187 98 -189T125 -192Q154 -192 177 -182T220 -153T255 -110T282 -56L300 -12L64 478H96L244 164Q258 134 276 98T312 30H316Q331 62 346 98T374 164L506 478H536L306
-68Q296 -96 280 -123T241 -173T189 -208T122 -222ZM266 574L248 590L380 746L404 724L266 574Z" />
<glyph unicode="&#xfe;" glyph-name="thorn" d="M110 -222V722H140V498L138 402H140Q179 441 227 465T324 490Q427 490 478 424T530 246Q530 185 512 137T462 56T390 6T304 -12Q267 -12 223 6T140 58H138L140 -42V-222H110ZM306 16Q347 16 382 33T443 80T483 153T498
246Q498 292 488 331T457 400T403 445T322 462Q282 462 235 439T140 368V92Q185 50 230 33T306 16Z" />
<glyph unicode="&#xff;" glyph-name="ydieresis" d="M122 -222Q108 -222 93 -220T67 -212L77 -184Q86 -187 98 -189T125 -192Q154 -192 177 -182T220 -153T255 -110T282 -56L300 -12L64 478H96L244 164Q258 134 276 98T312 30H316Q331 62 346 98T374 164L506 478H536L306
-68Q296 -96 280 -123T241 -173T189 -208T122 -222ZM214 602Q199 602 190 612T180 638Q180 653 189 663T214 674Q229 674 238 664T248 638Q248 623 239 613T214 602ZM386 602Q371 602 362 612T352 638Q352 653 361 663T386 674Q401 674 410 664T420 638Q420 623
411 613T386 602Z" />
<glyph unicode="&#x100;" glyph-name="Amacron" d="M222 396L175 264H424L378 396Q357 456 339 510T302 626H298Q280 564 262 510T222 396ZM50 0L286 660H314L550 0H516L434 236H165L82 0H50ZM180 746V774H420V746H180Z" />
<glyph unicode="&#x101;" glyph-name="amacron" d="M264 -12Q232 -12 202 -5T149 18T111 58T96 117Q96 157 117 187T184 238T300 274T470 298Q470 329 463 359T440 411T394 448T322 462Q293 462 266 456T215 439T170 416T136 394L120 418Q133 428 154 440T202
464T260 482T324 490Q372 490 405 476T460 436T490 379T500 310V0H474L470 74H468Q447 57 423 42T372 14T319 -5T264 -12ZM266 16Q361 16 470 108V272Q373 263 308 250T202 217T145 174T128 118Q128 90 140 71T171 39T215 22T266 16ZM200 608V636H440V608H200Z"
/>
<glyph unicode="&#x102;" glyph-name="Abreve" d="M222 396L175 264H424L378 396Q357 456 339 510T302 626H298Q280 564 262 510T222 396ZM50 0L286 660H314L550 0H516L434 236H165L82 0H50ZM300 712Q267 712 244 723T204 752T180 791T168 834L194 838Q199 799
224 769T300 738Q350 738 375 768T406 838L432 834Q429 813 421 792T396 753T357 724T300 712Z" />
<glyph unicode="&#x103;" glyph-name="abreve" d="M264 -12Q232 -12 202 -5T149 18T111 58T96 117Q96 157 117 187T184 238T300 274T470 298Q470 329 463 359T440 411T394 448T322 462Q293 462 266 456T215 439T170 416T136 394L120 418Q133 428 154 440T202 464T260
482T324 490Q372 490 405 476T460 436T490 379T500 310V0H474L470 74H468Q447 57 423 42T372 14T319 -5T264 -12ZM266 16Q361 16 470 108V272Q373 263 308 250T202 217T145 174T128 118Q128 90 140 71T171 39T215 22T266 16ZM320 570Q282 570 256 584T212 619T186
667T174 716L200 720Q203 698 211 676T235 636T271 607T320 596Q348 596 369 607T405 636T428 676T440 720L466 716Q463 693 454 667T428 620T385 584T320 570Z" />
<glyph unicode="&#x104;" glyph-name="Aogonek" d="M522 -224Q482 -224 456 -203T430 -136Q430 -91 457 -58T518 0H516L434 236H165L82 0H50L286 660H314L550 0Q514 -27 487 -60T460 -134Q460 -166 479 -181T524 -196Q544 -196 557 -189T582 -170L600 -188Q585
-203 568 -213T522 -224ZM222 396L175 264H424L378 396Q357 456 339 510T302 626H298Q280 564 262 510T222 396Z" />
<glyph unicode="&#x105;" glyph-name="aogonek" d="M464 -224Q424 -224 398 -203T372 -136Q372 -92 399 -56T474 10L470 74H468Q447 57 423 42T372 14T319 -5T264 -12Q232 -12 202 -5T149 18T111 58T96 117Q96 157 117 187T184 238T300 274T470 298Q470 329 463
359T440 411T394 448T322 462Q293 462 266 456T215 439T170 416T136 394L120 418Q133 428 154 440T202 464T260 482T324 490Q372 490 405 476T460 436T490 379T500 310V0Q447 -30 425 -64T402 -134Q402 -166 421 -181T466 -196Q486 -196 499 -189T524 -170L542
-188Q527 -203 510 -213T464 -224ZM266 16Q361 16 470 108V272Q373 263 308 250T202 217T145 174T128 118Q128 90 140 71T171 39T215 22T266 16Z" />
<glyph unicode="&#x106;" glyph-name="Cacute" d="M347 -12Q286 -12 236 12T150 82T94 190T74 332Q74 410 94 473T150 580T238 648T353 672Q410 672 452 648T521 594L501 572Q474 604 437 623T353 642Q296 642 251 621T174 559T125 461T108 332Q108 261 125 203T173
104T248 41T349 18Q402 18 442 39T521 102L541 82Q503 38 458 13T347 -12ZM318 710L304 726L422 846L444 822L318 710Z" />
<glyph unicode="&#x107;" glyph-name="cacute" d="M348 -12Q292 -12 245 5T164 54T110 132T90 238Q90 298 110 345T166 424T248 473T348 490Q378 490 403 484T449 468T487 444T519 416L499 394Q468 424 432 443T348 462Q298 462 257 446T185 400T139 329T122 238Q122
188 138 148T184 78T255 32T348 16Q399 16 440 36T514 88L532 66Q496 31 451 10T348 -12ZM316 574L298 590L430 746L454 724L316 574Z" />
<glyph unicode="&#x108;" glyph-name="Ccircumflex" d="M347 -12Q286 -12 236 12T150 82T94 190T74 332Q74 410 94 473T150 580T238 648T353 672Q410 672 452 648T521 594L501 572Q474 604 437 623T353 642Q296 642 251 621T174 559T125 461T108 332Q108 261 125
203T173 104T248 41T349 18Q402 18 442 39T521 102L541 82Q503 38 458 13T347 -12ZM224 710L210 726L326 840H354L470 726L456 710L342 810H338L224 710Z" />
<glyph unicode="&#x109;" glyph-name="ccircumflex" d="M348 -12Q292 -12 245 5T164 54T110 132T90 238Q90 298 110 345T166 424T248 473T348 490Q378 490 403 484T449 468T487 444T519 416L499 394Q468 424 432 443T348 462Q298 462 257 446T185 400T139 329T122
238Q122 188 138 148T184 78T255 32T348 16Q399 16 440 36T514 88L532 66Q496 31 451 10T348 -12ZM236 574L218 590L336 736H364L482 590L464 574L352 704H348L236 574Z" />
<glyph unicode="&#x10a;" glyph-name="Cdotaccent" d="M347 -12Q286 -12 236 12T150 82T94 190T74 332Q74 410 94 473T150 580T238 648T353 672Q410 672 452 648T521 594L501 572Q474 604 437 623T353 642Q296 642 251 621T174 559T125 461T108 332Q108 261 125
203T173 104T248 41T349 18Q402 18 442 39T521 102L541 82Q503 38 458 13T347 -12ZM340 724Q326 724 316 733T306 760Q306 775 316 784T340 794Q354 794 364 785T374 760Q374 743 364 734T340 724Z" />
<glyph unicode="&#x10b;" glyph-name="cdotaccent" d="M348 -12Q292 -12 245 5T164 54T110 132T90 238Q90 298 110 345T166 424T248 473T348 490Q378 490 403 484T449 468T487 444T519 416L499 394Q468 424 432 443T348 462Q298 462 257 446T185 400T139 329T122
238Q122 188 138 148T184 78T255 32T348 16Q399 16 440 36T514 88L532 66Q496 31 451 10T348 -12ZM350 600Q333 600 322 611T310 642Q310 662 321 673T350 684Q367 684 378 673T390 642Q390 622 379 611T350 600Z" />
<glyph unicode="&#x10c;" glyph-name="Ccaron" d="M347 -12Q286 -12 236 12T150 82T94 190T74 332Q74 410 94 473T150 580T238 648T353 672Q410 672 452 648T521 594L501 572Q474 604 437 623T353 642Q296 642 251 621T174 559T125 461T108 332Q108 261 125 203T173
104T248 41T349 18Q402 18 442 39T521 102L541 82Q503 38 458 13T347 -12ZM326 710L210 824L224 840L338 740H342L456 840L470 824L354 710H326Z" />
<glyph unicode="&#x10d;" glyph-name="ccaron" d="M348 -12Q292 -12 245 5T164 54T110 132T90 238Q90 298 110 345T166 424T248 473T348 490Q378 490 403 484T449 468T487 444T519 416L499 394Q468 424 432 443T348 462Q298 462 257 446T185 400T139 329T122 238Q122
188 138 148T184 78T255 32T348 16Q399 16 440 36T514 88L532 66Q496 31 451 10T348 -12ZM336 572L218 718L236 734L348 604H352L464 734L482 718L364 572H336Z" />
<glyph unicode="&#x10e;" glyph-name="Dcaron" d="M100 0V660H248Q324 660 380 637T472 570T526 466T544 332Q544 258 527 197T473 93T380 25T248 0H100ZM132 28H244Q314 28 364 51T447 114T495 211T510 332Q510 397 495 452T448 547T365 609T244 632H132V28ZM286
710L170 824L184 840L298 740H302L416 840L430 824L314 710H286Z" />
<glyph unicode="&#x10f;" glyph-name="dcaron" d="M282 -12Q235 -12 196 4T129 52T86 130T70 238Q70 296 88 342T138 422T211 472T298 490Q344 490 383 472T460 420H462L460 520V722H490V0H464L460 74H458Q426 40 381 14T282 -12ZM284 16Q329 16 373 40T460 110V386Q416
428 376 445T296 462Q255 462 220 445T159 397T117 325T102 238Q102 188 114 148T150 78T207 32T284 16ZM580 548L578 812H608V744L602 548H580Z" />
<glyph unicode="&#x110;" glyph-name="Dcroat" d="M100 0V338H22V362L100 366V660H248Q324 660 380 637T472 570T526 466T544 332Q544 258 527 197T473 93T380 25T248 0H100ZM132 28H244Q314 28 364 51T447 114T495 211T510 332Q510 397 495 452T448 547T365 609T244
632H132V366H304V338H132V28Z" />
<glyph unicode="&#x111;" glyph-name="" d="M282 -12Q235 -12 196 3T129 49T86 124T70 228Q70 283 88 328T138 404T211 453T298 470Q345 470 383 452T460 400H462L460 500V584H272V612H460V722H490V612H566V588L490 584V0H464L460 74H458Q426 40 381 14T282 -12ZM284
16Q329 16 373 40T460 110V366Q416 408 376 425T296 442Q255 442 220 425T159 379T117 311T102 228Q102 181 114 142T150 75T207 32T284 16Z" />
<glyph unicode="&#x112;" glyph-name="Emacron" d="M132 0V660H516V632H164V366H460V338H164V28H526V0H132ZM218 746V774H458V746H218Z" />
<glyph unicode="&#x113;" glyph-name="emacron" d="M330 -12Q279 -12 234 5T154 54T100 133T80 238Q80 296 99 343T152 422T228 472T318 490Q366 490 405 475T472 432T515 363T530 270Q530 262 530 255T528 238H112Q113 184 131 143T179 74T248 31T330 16Q381
16 421 31T496 70L510 44Q494 34 477 24T437 6T389 -7T330 -12ZM318 462Q282 462 247 449T184 411T136 349T113 266H502Q497 366 447 414T318 462ZM200 608V636H440V608H200Z" />
<glyph unicode="&#x114;" glyph-name="Ebreve" d="M132 0V660H516V632H164V366H460V338H164V28H526V0H132ZM338 712Q305 712 282 723T242 752T218 791T206 834L232 838Q237 799 262 769T338 738Q388 738 413 768T444 838L470 834Q467 813 459 792T434 753T395
724T338 712Z" />
<glyph unicode="&#x115;" glyph-name="ebreve" d="M330 -12Q279 -12 234 5T154 54T100 133T80 238Q80 296 99 343T152 422T228 472T318 490Q366 490 405 475T472 432T515 363T530 270Q530 262 530 255T528 238H112Q113 184 131 143T179 74T248 31T330 16Q381 16
421 31T496 70L510 44Q494 34 477 24T437 6T389 -7T330 -12ZM318 462Q282 462 247 449T184 411T136 349T113 266H502Q497 366 447 414T318 462ZM320 570Q282 570 256 584T212 619T186 667T174 716L200 720Q203 698 211 676T235 636T271 607T320 596Q348 596 369
607T405 636T428 676T440 720L466 716Q463 693 454 667T428 620T385 584T320 570Z" />
<glyph unicode="&#x116;" glyph-name="Edotaccent" d="M132 0V660H516V632H164V366H460V338H164V28H526V0H132ZM338 724Q324 724 314 733T304 760Q304 775 314 784T338 794Q352 794 362 785T372 760Q372 743 362 734T338 724Z" />
<glyph unicode="&#x117;" glyph-name="edotaccent" d="M330 -12Q279 -12 234 5T154 54T100 133T80 238Q80 296 99 343T152 422T228 472T318 490Q366 490 405 475T472 432T515 363T530 270Q530 262 530 255T528 238H112Q113 184 131 143T179 74T248 31T330 16Q381
16 421 31T496 70L510 44Q494 34 477 24T437 6T389 -7T330 -12ZM318 462Q282 462 247 449T184 411T136 349T113 266H502Q497 366 447 414T318 462ZM320 600Q303 600 292 611T280 642Q280 662 291 673T320 684Q337 684 348 673T360 642Q360 622 349 611T320 600Z"
/>
<glyph unicode="&#x118;" glyph-name="Eogonek" d="M472 -224Q432 -224 406 -203T380 -136Q380 -92 406 -58T470 0H132V660H516V632H164V366H460V338H164V28H526V0H524Q504 -5 484 -18T447 -49T420 -89T410 -134Q410 -166 429 -181T474 -196Q494 -196 507 -189T532
-170L550 -188Q535 -203 518 -213T472 -224Z" />
<glyph unicode="&#x119;" glyph-name="eogonek" d="M428 -224Q390 -224 363 -203T336 -136Q336 -94 359 -60T419 1Q391 -10 371 -11T330 -12Q279 -12 234 5T154 54T100 133T80 238Q80 296 99 343T152 422T228 472T318 490Q366 490 405 475T472 432T515 363T530
270Q530 262 530 255T528 238H112Q113 184 131 143T179 74T248 31T330 16Q383 16 423 31T496 70L510 44Q472 16 445 -6T400 -50T374 -91T366 -134Q366 -166 386 -181T430 -196Q451 -196 465 -189T488 -170L506 -188Q492 -203 475 -213T428 -224ZM318 462Q282 462
247 449T184 411T136 349T113 266H502Q497 366 447 414T318 462Z" />
<glyph unicode="&#x11a;" glyph-name="Ecaron" d="M132 0V660H516V632H164V366H460V338H164V28H526V0H132ZM324 710L208 824L222 840L336 740H340L454 840L468 824L352 710H324Z" />
<glyph unicode="&#x11b;" glyph-name="ecaron" d="M330 -12Q279 -12 234 5T154 54T100 133T80 238Q80 296 99 343T152 422T228 472T318 490Q366 490 405 475T472 432T515 363T530 270Q530 262 530 255T528 238H112Q113 184 131 143T179 74T248 31T330 16Q381 16
421 31T496 70L510 44Q494 34 477 24T437 6T389 -7T330 -12ZM318 462Q282 462 247 449T184 411T136 349T113 266H502Q497 366 447 414T318 462ZM306 572L188 718L206 734L318 604H322L434 734L452 718L334 572H306Z" />
<glyph unicode="&#x11c;" glyph-name="Gcircumflex" d="M333 -12Q271 -12 221 12T136 82T81 190T61 332Q61 410 81 473T138 580T227 648T343 672Q375 672 401 665T449 647T486 621T516 594L496 572Q470 601 434 621T343 642Q285 642 239 621T161 559T112 461T95
332Q95 261 111 203T159 104T234 41T335 18Q383 18 423 32T489 72V290H329V318H522V62Q492 29 445 9T333 -12ZM214 710L200 726L316 840H344L460 726L446 710L332 810H328L214 710Z" />
<glyph unicode="&#x11d;" glyph-name="gcircumflex" d="M312 -234Q198 -234 143 -195T88 -93Q88 -65 109 -34T170 22V26Q152 34 136 53T120 102Q120 125 134 148T178 192V196Q155 216 139 246T122 320Q122 356 135 387T173 441T228 477T296 490Q333 490 360 478H560V450H408Q432
427 451 395T470 320Q470 284 457 253T419 200T364 165T296 152Q273 152 249 158T202 176Q179 162 166 144T152 105Q152 68 183 51T266 34H389Q480 34 520 10T560 -72Q560 -102 543 -131T493 -183T415 -220T312 -234ZM296 180Q325 180 351 190T396 219T427 263T438
320Q438 351 427 377T397 422T351 451T296 462Q267 462 241 452T196 422T165 377T154 320Q154 289 165 264T195 220T241 191T296 180ZM306 -206Q358 -206 399 -195T469 -164T513 -122T528 -74Q528 -31 496 -15T397 2H276Q259 2 240 4T203 11Q156 -14 138 -41T120
-97Q120 -143 165 -174T306 -206ZM196 574L178 590L296 736H324L442 590L424 574L312 704H308L196 574Z" />
<glyph unicode="&#x11e;" glyph-name="Gbreve" d="M333 -12Q271 -12 221 12T136 82T81 190T61 332Q61 410 81 473T138 580T227 648T343 672Q375 672 401 665T449 647T486 621T516 594L496 572Q470 601 434 621T343 642Q285 642 239 621T161 559T112 461T95 332Q95
261 111 203T159 104T234 41T335 18Q383 18 423 32T489 72V290H329V318H522V62Q492 29 445 9T333 -12ZM330 712Q297 712 274 723T234 752T210 791T198 834L224 838Q229 799 254 769T330 738Q380 738 405 768T436 838L462 834Q459 813 451 792T426 753T387 724T330
712Z" />
<glyph unicode="&#x11f;" glyph-name="gbreve" d="M312 -234Q198 -234 143 -195T88 -93Q88 -65 109 -34T170 22V26Q152 34 136 53T120 102Q120 125 134 148T178 192V196Q155 216 139 246T122 320Q122 356 135 387T173 441T228 477T296 490Q333 490 360 478H560V450H408Q432
427 451 395T470 320Q470 284 457 253T419 200T364 165T296 152Q273 152 249 158T202 176Q179 162 166 144T152 105Q152 68 183 51T266 34H389Q480 34 520 10T560 -72Q560 -102 543 -131T493 -183T415 -220T312 -234ZM296 180Q325 180 351 190T396 219T427 263T438
320Q438 351 427 377T397 422T351 451T296 462Q267 462 241 452T196 422T165 377T154 320Q154 289 165 264T195 220T241 191T296 180ZM306 -206Q358 -206 399 -195T469 -164T513 -122T528 -74Q528 -31 496 -15T397 2H276Q259 2 240 4T203 11Q156 -14 138 -41T120
-97Q120 -143 165 -174T306 -206ZM310 570Q272 570 246 584T202 619T176 667T164 716L190 720Q193 698 201 676T225 636T261 607T310 596Q338 596 359 607T395 636T418 676T430 720L456 716Q453 693 444 667T418 620T375 584T310 570Z" />
<glyph unicode="&#x120;" glyph-name="Gdotaccent" d="M333 -12Q271 -12 221 12T136 82T81 190T61 332Q61 410 81 473T138 580T227 648T343 672Q375 672 401 665T449 647T486 621T516 594L496 572Q470 601 434 621T343 642Q285 642 239 621T161 559T112 461T95
332Q95 261 111 203T159 104T234 41T335 18Q383 18 423 32T489 72V290H329V318H522V62Q492 29 445 9T333 -12ZM330 724Q316 724 306 733T296 760Q296 775 306 784T330 794Q344 794 354 785T364 760Q364 743 354 734T330 724Z" />
<glyph unicode="&#x121;" glyph-name="gdotaccent" d="M312 -234Q198 -234 143 -195T88 -93Q88 -65 109 -34T170 22V26Q152 34 136 53T120 102Q120 125 134 148T178 192V196Q155 216 139 246T122 320Q122 356 135 387T173 441T228 477T296 490Q333 490 360 478H560V450H408Q432
427 451 395T470 320Q470 284 457 253T419 200T364 165T296 152Q273 152 249 158T202 176Q179 162 166 144T152 105Q152 68 183 51T266 34H389Q480 34 520 10T560 -72Q560 -102 543 -131T493 -183T415 -220T312 -234ZM296 180Q325 180 351 190T396 219T427 263T438
320Q438 351 427 377T397 422T351 451T296 462Q267 462 241 452T196 422T165 377T154 320Q154 289 165 264T195 220T241 191T296 180ZM306 -206Q358 -206 399 -195T469 -164T513 -122T528 -74Q528 -31 496 -15T397 2H276Q259 2 240 4T203 11Q156 -14 138 -41T120
-97Q120 -143 165 -174T306 -206ZM310 600Q293 600 282 611T270 642Q270 662 281 673T310 684Q327 684 338 673T350 642Q350 622 339 611T310 600Z" />
<glyph unicode="&#x122;" glyph-name="uni0122" d="M333 -12Q271 -12 221 12T136 82T81 190T61 332Q61 410 81 473T138 580T227 648T343 672Q375 672 401 665T449 647T486 621T516 594L496 572Q470 601 434 621T343 642Q285 642 239 621T161 559T112 461T95 332Q95
261 111 203T159 104T234 41T335 18Q383 18 423 32T489 72V290H329V318H522V62Q492 29 445 9T333 -12ZM262 -216L256 -190Q322 -185 346 -172T370 -136Q370 -112 349 -102T292 -88L302 -62Q356 -71 378 -86T400 -134Q400 -172 365 -191T262 -216Z" />
<glyph unicode="&#x123;" glyph-name="uni0123" d="M312 -234Q198 -234 143 -195T88 -93Q88 -65 109 -34T170 22V26Q152 34 136 53T120 102Q120 125 134 148T178 192V196Q155 216 139 246T122 320Q122 356 135 387T173 441T228 477T296 490Q333 490 360 478H560V450H408Q432
427 451 395T470 320Q470 284 457 253T419 200T364 165T296 152Q273 152 249 158T202 176Q179 162 166 144T152 105Q152 68 183 51T266 34H389Q480 34 520 10T560 -72Q560 -102 543 -131T493 -183T415 -220T312 -234ZM296 180Q325 180 351 190T396 219T427 263T438
320Q438 351 427 377T397 422T351 451T296 462Q267 462 241 452T196 422T165 377T154 320Q154 289 165 264T195 220T241 191T296 180ZM306 -206Q358 -206 399 -195T469 -164T513 -122T528 -74Q528 -31 496 -15T397 2H276Q259 2 240 4T203 11Q156 -14 138 -41T120
-97Q120 -143 165 -174T306 -206ZM344 580Q290 589 268 604T246 652Q246 690 281 709T384 734L390 708Q324 703 300 690T276 654Q276 630 297 620T354 606L344 580Z" />
<glyph unicode="&#x124;" glyph-name="Hcircumflex" d="M92 0V660H124V366H476V660H508V0H476V338H124V0H92ZM184 710L170 726L286 840H314L430 726L416 710L302 810H298L184 710Z" />
<glyph unicode="&#x125;" glyph-name="hcircumflex" d="M110 0V722H140V508L138 378H140Q185 428 231 459T336 490Q424 490 467 444T510 298V0H480V294Q480 379 446 420T336 462Q309 462 286 455T239 434T192 397T140 346V0H110ZM5 770L-9 786L107 900H135L251
786L237 770L123 870H119L5 770Z" />
<glyph unicode="&#x126;" glyph-name="Hbar" d="M16 496V520L92 524V660H124V524H476V660H508V524H584V496H508V0H476V338H124V0H92V496H16ZM124 366H476V496H124V366Z" />
<glyph unicode="&#x127;" glyph-name="hbar" d="M110 0V584H32V608L110 612V722H140V612H376V584H140V488L138 358H140Q185 408 231 439T336 470Q424 470 467 424T510 278V0H480V274Q480 359 446 400T336 442Q309 442 286 435T239 414T192 377T140 326V0H110Z" />
<glyph unicode="&#x128;" glyph-name="Itilde" d="M112 0V28H284V632H112V660H488V632H316V28H488V0H112ZM378 722Q349 722 329 735T293 763T260 791T222 804Q199 804 183 782T164 724L140 726Q142 769 162 800T222 832Q251 832 271 819T307 791T340 763T378 750Q401
750 416 772T436 830L460 828Q458 785 438 754T378 722Z" />
<glyph unicode="&#x129;" glyph-name="itilde" d="M346 0V450H100V478H376V0H346ZM427 580Q398 580 379 595T343 630T310 664T272 680Q243 680 231 652T216 582L190 584Q191 605 195 627T209 666T234 695T274 706Q302 706 321 691T357 656T390 622T429 606Q457
606 469 635T484 704L510 702Q508 681 504 660T491 620T466 591T427 580Z" />
<glyph unicode="&#x12a;" glyph-name="Imacron" d="M112 0V28H284V632H112V660H488V632H316V28H488V0H112ZM180 746V774H420V746H180Z" />
<glyph unicode="&#x12b;" glyph-name="imacron" d="M346 0V450H100V478H376V0H346ZM230 608V636H470V608H230Z" />
<glyph unicode="&#x12c;" glyph-name="Ibreve" d="M112 0V28H284V632H112V660H488V632H316V28H488V0H112ZM300 712Q267 712 244 723T204 752T180 791T168 834L194 838Q199 799 224 769T300 738Q350 738 375 768T406 838L432 834Q429 813 421 792T396 753T357 724T300
712Z" />
<glyph unicode="&#x12d;" glyph-name="ibreve" d="M346 0V450H100V478H376V0H346ZM350 570Q312 570 286 584T242 619T216 667T204 716L230 720Q233 698 241 676T265 636T301 607T350 596Q378 596 399 607T435 636T458 676T470 720L496 716Q493 693 484 667T458
620T415 584T350 570Z" />
<glyph unicode="&#x12e;" glyph-name="Iogonek" d="M314 -224Q274 -224 248 -203T222 -136Q222 -98 242 -64T290 0H112V28H284V632H112V660H488V632H316V28H488V0H324Q289 -38 271 -71T252 -134Q252 -166 271 -181T316 -196Q336 -196 349 -189T374 -170L392 -188Q377
-203 360 -213T314 -224Z" />
<glyph unicode="&#x12f;" glyph-name="iogonek" d="M354 -224Q314 -224 288 -203T262 -136Q262 -97 285 -63T348 0H346V450H100V478H376V-8Q337 -34 315 -67T292 -134Q292 -166 311 -181T356 -196Q376 -196 389 -189T414 -170L432 -188Q417 -203 400 -213T354
-224ZM350 600Q333 600 322 611T310 642Q310 662 321 673T350 684Q367 684 378 673T390 642Q390 622 379 611T350 600Z" />
<glyph unicode="&#x130;" glyph-name="Idot" d="M112 0V28H284V632H112V660H488V632H316V28H488V0H112ZM300 724Q286 724 276 733T266 760Q266 775 276 784T300 794Q314 794 324 785T334 760Q334 743 324 734T300 724Z" />
<glyph unicode="&#x131;" glyph-name="dotlessi" d="M346 0V450H100V478H376V0H346Z" />
<glyph unicode="&#x132;" glyph-name="IJ" d="M142 0V660H174V0H142ZM358 -152Q343 -152 327 -149T300 -140L308 -110Q317 -113 331 -116T360 -120Q381 -120 394 -112T414 -90T423 -55T426 -12V660H458V-20Q458 -89 433 -120T358 -152Z" />
<glyph unicode="&#x133;" glyph-name="ij" d="M140 0V478H170V0H140ZM156 600Q139 600 128 611T116 642Q116 662 127 673T156 684Q173 684 184 673T196 642Q196 622 185 611T156 600ZM382 -234Q367 -234 351 -231T324 -222L332 -196Q341 -199 355 -202T384 -206Q405
-206 418 -198T438 -176T447 -141T450 -98V478H480V-102Q480 -171 456 -202T382 -234ZM466 600Q449 600 438 611T426 642Q426 662 437 673T466 684Q483 684 494 673T506 642Q506 622 495 611T466 600Z" />
<glyph unicode="&#x134;" glyph-name="Jcircumflex" d="M278 -12Q222 -12 174 16T98 98L124 116Q153 65 194 42T278 18Q366 18 404 64T443 204V634H152V661H475V201Q475 157 465 118T432 50T372 5T278 -12ZM204 710L190 726L306 840H334L450 726L436 710L322 810H318L204
710Z" />
<glyph unicode="&#x135;" glyph-name="jcircumflex" d="M194 -234Q162 -234 127 -225T66 -202L80 -176Q103 -188 135 -197T199 -206Q243 -206 271 -195T316 -163T339 -115T346 -52V450H100V478H376V-46Q376 -90 367 -125T337 -184T281 -221T194 -234ZM236 574L218
590L336 736H364L482 590L464 574L352 704H348L236 574Z" />
<glyph unicode="&#x136;" glyph-name="uni0136" d="M122 0V660H154V280H156L500 660H539L322 420L568 0H530L299 395L154 234V0H122ZM275 -216L269 -190Q335 -185 359 -172T383 -136Q383 -112 362 -102T305 -88L315 -62Q369 -71 391 -86T413 -134Q413 -172 378
-191T275 -216Z" />
<glyph unicode="&#x137;" glyph-name="uni0137" d="M130 0V722H160V176H164L490 478H530L332 296L564 0H528L309 275L160 138V0H130ZM270 -216L264 -190Q330 -185 354 -172T378 -136Q378 -112 357 -102T300 -88L310 -62Q364 -71 386 -86T408 -134Q408 -172 373
-191T270 -216Z" />
<glyph unicode="&#x138;" glyph-name="kgreenlandic" d="M130 0V478H160V174L162 176L490 478H530L332 294L564 0H528L308 276L160 136V0H130Z" />
<glyph unicode="&#x139;" glyph-name="Lacute" d="M156 0V660H186V28H538V0H156ZM421 710L407 726L525 846L547 822L421 710Z" />
<glyph unicode="&#x13a;" glyph-name="lacute" d="M416 -12Q351 -12 316 22T280 138V694H94V722H310V132Q310 16 418 16Q468 16 520 42L532 18Q502 3 477 -4T416 -12ZM529 770L515 786L633 906L655 882L529 770Z" />
<glyph unicode="&#x13b;" glyph-name="uni013B" d="M156 0V660H186V28H538V0H156ZM286 -216L280 -190Q346 -185 370 -172T394 -136Q394 -112 373 -102T316 -88L326 -62Q380 -71 402 -86T424 -134Q424 -172 389 -191T286 -216Z" />
<glyph unicode="&#x13c;" glyph-name="uni013C" d="M416 -12Q351 -12 316 22T280 138V694H94V722H310V132Q310 16 418 16Q468 16 520 42L532 18Q502 3 477 -4T416 -12ZM326 -216L320 -190Q386 -185 410 -172T434 -136Q434 -112 413 -102T356 -88L366 -62Q420 -71
442 -86T464 -134Q464 -172 429 -191T326 -216Z" />
<glyph unicode="&#x13d;" glyph-name="Lcaron" d="M156 0V660H186V28H538V0H156ZM392 775L390 1039H420V971L414 775H392Z" />
<glyph unicode="&#x13e;" glyph-name="lcaron" d="M416 -12Q351 -12 316 22T280 138V694H94V722H310V132Q310 16 418 16Q468 16 520 42L532 18Q502 3 477 -4T416 -12ZM396 548L394 812H424V744L418 548H396Z" />
<glyph unicode="&#x13f;" glyph-name="Ldot" d="M156 0V660H186V28H538V0H156ZM460 301Q443 301 432 312T420 343Q420 363 431 374T460 385Q477 385 488 374T500 343Q500 323 489 312T460 301Z" />
<glyph unicode="&#x140;" glyph-name="ldot" d="M643 -12Q578 -12 543 22T507 138V694H321V722H537V132Q537 16 645 16Q695 16 747 42L759 18Q729 3 704 -4T643 -12ZM580 301Q563 301 552 312T540 343Q540 363 551 374T580 385Q597 385 608 374T620 343Q620 323
609 312T580 301Z" />
<glyph unicode="&#x141;" glyph-name="Lslash" d="M36 190L24 214L156 281V660H186V295L422 418L434 394L186 265V28H538V0H156V251L36 190Z" />
<glyph unicode="&#x142;" glyph-name="lslash" d="M416 -12Q351 -12 316 22T280 138V379L154 304L142 328L280 411V694H94V722H310V425L478 522L490 498L310 393V132Q310 16 418 16Q468 16 520 42L532 18Q502 3 477 -4T416 -12Z" />
<glyph unicode="&#x143;" glyph-name="Nacute" d="M96 0V660H129L403 174L476 46H478Q477 94 476 139T474 231V660H504V0H471L197 486L124 614H122Q123 566 124 523T126 433V0H96ZM288 710L274 726L392 846L414 822L288 710Z" />
<glyph unicode="&#x144;" glyph-name="nacute" d="M110 0V478H136L140 382H144Q165 405 187 425T232 459T281 482T336 490Q424 490 467 444T510 298V0H480V294Q480 379 446 420T336 462Q309 462 286 455T239 434T192 397T140 346V0H110ZM286 574L268 590L400 746L424
724L286 574Z" />
<glyph unicode="&#x145;" glyph-name="uni0145" d="M96 0V660H129L403 174L476 46H478Q477 94 476 139T474 231V660H504V0H471L197 486L124 614H122Q123 566 124 523T126 433V0H96ZM226 -216L220 -190Q286 -185 310 -172T334 -136Q334 -112 313 -102T256 -88L266
-62Q320 -71 342 -86T364 -134Q364 -172 329 -191T226 -216Z" />
<glyph unicode="&#x146;" glyph-name="uni0146" d="M110 0V478H136L140 382H144Q165 405 187 425T232 459T281 482T336 490Q424 490 467 444T510 298V0H480V294Q480 379 446 420T336 462Q309 462 286 455T239 434T192 397T140 346V0H110ZM244 -216L238 -190Q304
-185 328 -172T352 -136Q352 -112 331 -102T274 -88L284 -62Q338 -71 360 -86T382 -134Q382 -172 347 -191T244 -216Z" />
<glyph unicode="&#x147;" glyph-name="Ncaron" d="M96 0V660H129L403 174L476 46H478Q477 94 476 139T474 231V660H504V0H471L197 486L124 614H122Q123 566 124 523T126 433V0H96ZM296 710L180 824L194 840L308 740H312L426 840L440 824L324 710H296Z" />
<glyph unicode="&#x148;" glyph-name="ncaron" d="M110 0V478H136L140 382H144Q165 405 187 425T232 459T281 482T336 490Q424 490 467 444T510 298V0H480V294Q480 379 446 420T336 462Q309 462 286 455T239 434T192 397T140 346V0H110ZM306 572L188 718L206 734L318
604H322L434 734L452 718L334 572H306Z" />
<glyph unicode="&#x149;" glyph-name="napostrophe" d="M180 0V478H206L210 392H214Q255 434 297 462T396 490Q479 490 519 446T560 308V0H530V304Q530 384 499 423T396 462Q370 462 348 456T304 436T259 403T210 356V0H180ZM16 398L-2 422Q41 452 67 496T96 598Q79
586 64 586Q40 586 25 602T10 642Q10 667 25 683T66 700Q92 700 113 677T134 611Q134 541 101 485T16 398Z" />
<glyph unicode="&#x14a;" glyph-name="Eng" d="M392 -12Q375 -12 356 -9T322 0L334 32Q346 26 359 23T390 20Q414 20 436 36T474 89T500 187T510 338Q510 426 496 485T456 578T395 627T316 642Q293 642 268 633T218 609T171 573T132 532V0H100V660H132V570Q149
589 170 607T216 640T266 663T318 672Q366 672 407 655T479 598T527 494T544 338Q544 237 532 170T498 63T450 5T392 -12Z" />
<glyph unicode="&#x14b;" glyph-name="eng" d="M402 -180Q385 -180 366 -176T334 -166L342 -140Q353 -144 369 -148T404 -152Q428 -152 443 -143T466 -119T477 -82T480 -34V294Q480 379 446 420T336 462Q309 462 286 455T239 434T192 397T140 346V0H110V478H136L140
382H144Q165 405 187 425T232 459T281 482T336 490Q424 490 467 444T510 298V-38Q510 -113 484 -146T402 -180Z" />
<glyph unicode="&#x14c;" glyph-name="Omacron" d="M300 -12Q247 -12 202 12T125 82T74 190T56 332Q56 410 74 473T124 580T202 648T300 672Q353 672 398 648T475 580T526 473T544 332Q544 254 526 191T476 82T398 13T300 -12ZM300 18Q347 18 385 40T452 104T495
203T510 332Q510 403 495 460T452 558T386 620T300 642Q253 642 215 621T148 559T105 461T90 332Q90 261 105 203T148 104T214 41T300 18ZM180 746V774H420V746H180Z" />
<glyph unicode="&#x14d;" glyph-name="omacron" d="M300 -12Q253 -12 212 5T139 54T89 132T70 238Q70 298 88 345T138 424T211 473T300 490Q347 490 388 473T461 424T511 345T530 238Q530 179 512 133T462 54T389 5T300 -12ZM300 16Q343 16 379 32T441 77T483
147T498 238Q498 287 483 328T442 399T379 445T300 462Q257 462 221 446T159 400T117 329T102 238Q102 188 117 148T158 78T221 32T300 16ZM180 608V636H420V608H180Z" />
<glyph unicode="&#x14e;" glyph-name="Obreve" d="M300 -12Q247 -12 202 12T125 82T74 190T56 332Q56 410 74 473T124 580T202 648T300 672Q353 672 398 648T475 580T526 473T544 332Q544 254 526 191T476 82T398 13T300 -12ZM300 18Q347 18 385 40T452 104T495
203T510 332Q510 403 495 460T452 558T386 620T300 642Q253 642 215 621T148 559T105 461T90 332Q90 261 105 203T148 104T214 41T300 18ZM300 712Q267 712 244 723T204 752T180 791T168 834L194 838Q199 799 224 769T300 738Q350 738 375 768T406 838L432 834Q429
813 421 792T396 753T357 724T300 712Z" />
<glyph unicode="&#x14f;" glyph-name="obreve" d="M300 -12Q253 -12 212 5T139 54T89 132T70 238Q70 298 88 345T138 424T211 473T300 490Q347 490 388 473T461 424T511 345T530 238Q530 179 512 133T462 54T389 5T300 -12ZM300 16Q343 16 379 32T441 77T483 147T498
238Q498 287 483 328T442 399T379 445T300 462Q257 462 221 446T159 400T117 329T102 238Q102 188 117 148T158 78T221 32T300 16ZM300 570Q262 570 236 584T192 619T166 667T154 716L180 720Q183 698 191 676T215 636T251 607T300 596Q328 596 349 607T385 636T408
676T420 720L446 716Q443 693 434 667T408 620T365 584T300 570Z" />
<glyph unicode="&#x150;" glyph-name="Ohungarumlaut" d="M300 -12Q247 -12 202 12T125 82T74 190T56 332Q56 410 74 473T124 580T202 648T300 672Q353 672 398 648T475 580T526 473T544 332Q544 254 526 191T476 82T398 13T300 -12ZM300 18Q347 18 385 40T452
104T495 203T510 332Q510 403 495 460T452 558T386 620T300 642Q253 642 215 621T148 559T105 461T90 332Q90 261 105 203T148 104T214 41T300 18ZM224 710L204 720L290 866L316 850L224 710ZM362 710L342 720L428 866L454 850L362 710Z" />
<glyph unicode="&#x151;" glyph-name="ohungarumlaut" d="M300 -12Q253 -12 212 5T139 54T89 132T70 238Q70 298 88 345T138 424T211 473T300 490Q347 490 388 473T461 424T511 345T530 238Q530 179 512 133T462 54T389 5T300 -12ZM300 16Q343 16 379 32T441 77T483
147T498 238Q498 287 483 328T442 399T379 445T300 462Q257 462 221 446T159 400T117 329T102 238Q102 188 117 148T158 78T221 32T300 16ZM240 570L220 580L306 746L332 730L240 570ZM368 570L348 580L434 746L460 730L368 570Z" />
<glyph unicode="&#x152;" glyph-name="OE" d="M303 0Q238 0 190 24T109 92T60 197T44 332Q44 405 60 466T108 570T189 637T302 661H578V634H356V366H526V338H356V28H588V0H303ZM298 28H324V633H298Q240 633 199 611T130 548T91 453T78 332Q78 267 90 211T130 115T198
51T298 28Z" />
<glyph unicode="&#x153;" glyph-name="oe" d="M174 16Q202 16 226 32T267 78T294 148T304 239Q304 288 295 329T268 400T226 445T174 462Q142 462 118 446T77 401T51 330T42 238Q42 188 51 148T76 78T117 32T174 16ZM174 -12Q138 -12 108 5T56 54T22 132T10 238Q10
298 22 345T56 424T108 473T174 490Q278 490 318 345Q337 418 374 454T466 490Q500 490 525 473T566 428T591 362T600 282Q600 273 600 263T598 238H334Q335 127 374 72T476 16Q507 16 529 27T572 52L586 28Q566 13 540 1T475 -12Q357 -12 318 131Q276 -12 174
-12ZM464 462Q409 462 375 412T335 266H572Q570 363 544 412T464 462Z" />
<glyph unicode="&#x154;" glyph-name="Racute" d="M124 0V660H306Q355 660 394 651T460 621T503 568T518 490Q518 411 471 367T340 314L528 0H490L304 312H156V0H124ZM156 340H294Q386 340 435 376T484 490Q484 568 435 600T294 632H156V340ZM284 710L270 726L388
846L410 822L284 710Z" />
<glyph unicode="&#x155;" glyph-name="racute" d="M170 0V478H196L200 358H202Q241 415 299 452T431 490Q454 490 479 486T528 470L518 442Q491 452 473 456T427 460Q365 460 309 425T200 306V0H170ZM310 574L292 590L424 746L448 724L310 574Z" />
<glyph unicode="&#x156;" glyph-name="uni0156" d="M124 0V660H306Q355 660 394 651T460 621T503 568T518 490Q518 411 471 367T340 314L528 0H490L304 312H156V0H124ZM156 340H294Q386 340 435 376T484 490Q484 568 435 600T294 632H156V340ZM246 -216L240 -190Q306
-185 330 -172T354 -136Q354 -112 333 -102T276 -88L286 -62Q340 -71 362 -86T384 -134Q384 -172 349 -191T246 -216Z" />
<glyph unicode="&#x157;" glyph-name="uni0157" d="M170 0V478H196L200 358H202Q241 415 299 452T431 490Q454 490 479 486T528 470L518 442Q491 452 473 456T427 460Q365 460 309 425T200 306V0H170ZM381 -216L375 -190Q441 -185 465 -172T489 -136Q489 -112
468 -102T411 -88L421 -62Q475 -71 497 -86T519 -134Q519 -172 484 -191T381 -216Z" />
<glyph unicode="&#x158;" glyph-name="Rcaron" d="M124 0V660H306Q355 660 394 651T460 621T503 568T518 490Q518 411 471 367T340 314L528 0H490L304 312H156V0H124ZM156 340H294Q386 340 435 376T484 490Q484 568 435 600T294 632H156V340ZM292 710L176 824L190
840L304 740H308L422 840L436 824L320 710H292Z" />
<glyph unicode="&#x159;" glyph-name="rcaron" d="M170 0V478H196L200 358H202Q241 415 299 452T431 490Q454 490 479 486T528 470L518 442Q491 452 473 456T427 460Q365 460 309 425T200 306V0H170ZM330 572L212 718L230 734L342 604H346L458 734L476 718L358 572H330Z" />
<glyph unicode="&#x15a;" glyph-name="Sacute" d="M310 -12Q233 -12 176 16T80 88L102 110Q140 68 193 43T310 18Q352 18 386 28T444 57T481 102T494 160Q494 193 484 215T455 254T413 283T362 306L260 352Q237 361 212 374T166 405T130 450T116 514Q116 549 131
578T172 628T234 660T312 672Q375 672 423 649T502 594L482 572Q452 604 409 623T312 642Q238 642 193 608T148 516Q148 485 160 464T192 427T233 401T274 382L376 336Q405 324 432 310T480 275T513 228T526 162Q526 124 511 93T467 38T399 1T310 -12ZM292 710L278
726L396 846L418 822L292 710Z" />
<glyph unicode="&#x15b;" glyph-name="sacute" d="M322 -12Q247 -12 188 11T86 64L104 88Q143 56 194 36T324 16Q363 16 392 24T442 47T472 79T482 118Q482 135 477 151T454 181T401 209T306 234Q215 252 165 282T114 366Q114 391 124 413T157 453T214 480T296
490Q342 490 392 474T476 432L458 408Q426 432 386 447T294 462Q252 462 224 454T178 433T153 403T146 368Q146 327 185 304T310 263Q373 250 412 236T474 205T505 167T514 120Q514 94 501 70T464 28T404 -1T322 -12ZM519 574L501 590L633 746L657 724L519 574Z"
/>
<glyph unicode="&#x15c;" glyph-name="Scircumflex" d="M310 -12Q233 -12 176 16T80 88L102 110Q140 68 193 43T310 18Q352 18 386 28T444 57T481 102T494 160Q494 193 484 215T455 254T413 283T362 306L260 352Q237 361 212 374T166 405T130 450T116 514Q116
549 131 578T172 628T234 660T312 672Q375 672 423 649T502 594L482 572Q452 604 409 623T312 642Q238 642 193 608T148 516Q148 485 160 464T192 427T233 401T274 382L376 336Q405 324 432 310T480 275T513 228T526 162Q526 124 511 93T467 38T399 1T310 -12ZM198
710L184 726L300 840H328L444 726L430 710L316 810H312L198 710Z" />
<glyph unicode="&#x15d;" glyph-name="scircumflex" d="M322 -12Q247 -12 188 11T86 64L104 88Q143 56 194 36T324 16Q363 16 392 24T442 47T472 79T482 118Q482 135 477 151T454 181T401 209T306 234Q215 252 165 282T114 366Q114 391 124 413T157 453T214 480T296
490Q342 490 392 474T476 432L458 408Q426 432 386 447T294 462Q252 462 224 454T178 433T153 403T146 368Q146 327 185 304T310 263Q373 250 412 236T474 205T505 167T514 120Q514 94 501 70T464 28T404 -1T322 -12ZM439 574L421 590L539 736H567L685 590L667
574L555 704H551L439 574Z" />
<glyph unicode="&#x15e;" glyph-name="uni015E" d="M310 -12Q233 -12 176 16T80 88L102 110Q140 68 193 43T310 18Q352 18 386 28T444 57T481 102T494 160Q494 193 484 215T455 254T413 283T362 306L260 352Q237 361 212 374T166 405T130 450T116 514Q116 549
131 578T172 628T234 660T312 672Q375 672 423 649T502 594L482 572Q452 604 409 623T312 642Q238 642 193 608T148 516Q148 485 160 464T192 427T233 401T274 382L376 336Q405 324 432 310T480 275T513 228T526 162Q526 124 511 93T467 38T399 1T310 -12ZM256
-216L250 -190Q316 -185 340 -172T364 -136Q364 -113 346 -102T286 -84L318 6H346L324 -66Q356 -74 375 -89T394 -134Q394 -172 359 -191T256 -216Z" />
<glyph unicode="&#x15f;" glyph-name="uni015F" d="M322 -12Q247 -12 188 11T86 64L104 88Q143 56 194 36T324 16Q363 16 392 24T442 47T472 79T482 118Q482 135 477 151T454 181T401 209T306 234Q215 252 165 282T114 366Q114 391 124 413T157 453T214 480T296
490Q342 490 392 474T476 432L458 408Q426 432 386 447T294 462Q252 462 224 454T178 433T153 403T146 368Q146 327 185 304T310 263Q373 250 412 236T474 205T505 167T514 120Q514 94 501 70T464 28T404 -1T322 -12ZM242 -216L236 -190Q302 -185 326 -172T350
-136Q350 -113 332 -102T272 -84L304 6H332L310 -66Q342 -74 361 -89T380 -134Q380 -172 345 -191T242 -216Z" />
<glyph unicode="&#x160;" glyph-name="Scaron" d="M310 -12Q233 -12 176 16T80 88L102 110Q140 68 193 43T310 18Q352 18 386 28T444 57T481 102T494 160Q494 193 484 215T455 254T413 283T362 306L260 352Q237 361 212 374T166 405T130 450T116 514Q116 549 131
578T172 628T234 660T312 672Q375 672 423 649T502 594L482 572Q452 604 409 623T312 642Q238 642 193 608T148 516Q148 485 160 464T192 427T233 401T274 382L376 336Q405 324 432 310T480 275T513 228T526 162Q526 124 511 93T467 38T399 1T310 -12ZM300 710L184
824L198 840L312 740H316L430 840L444 824L328 710H300Z" />
<glyph unicode="&#x161;" glyph-name="scaron" d="M322 -12Q247 -12 188 11T86 64L104 88Q143 56 194 36T324 16Q363 16 392 24T442 47T472 79T482 118Q482 135 477 151T454 181T401 209T306 234Q215 252 165 282T114 366Q114 391 124 413T157 453T214 480T296
490Q342 490 392 474T476 432L458 408Q426 432 386 447T294 462Q252 462 224 454T178 433T153 403T146 368Q146 327 185 304T310 263Q373 250 412 236T474 205T505 167T514 120Q514 94 501 70T464 28T404 -1T322 -12ZM539 572L421 718L439 734L551 604H555L667
734L685 718L567 572H539Z" />
<glyph unicode="&#x162;" glyph-name="uni0162" d="M284 0V632H50V660H550V632H316V0H284ZM226 -216L220 -190Q286 -185 310 -172T334 -136Q334 -113 316 -102T256 -84L288 6H316L294 -66Q326 -74 345 -89T364 -134Q364 -172 329 -191T226 -216Z" />
<glyph unicode="&#x163;" glyph-name="uni0163" d="M398 -12Q350 -12 318 1T267 40T240 99T232 176V450H84V474L232 478L236 638H262V478H524V450H262V172Q262 136 268 107T289 58T331 27T400 16Q439 16 470 23T532 42L542 18Q509 4 476 -4T398 -12ZM326 -216L320
-190Q386 -185 410 -172T434 -136Q434 -113 416 -102T356 -84L388 6H416L394 -66Q426 -74 445 -89T464 -134Q464 -172 429 -191T326 -216Z" />
<glyph unicode="&#x164;" glyph-name="Tcaron" d="M284 0V632H50V660H550V632H316V0H284ZM286 710L170 824L184 840L298 740H302L416 840L430 824L314 710H286Z" />
<glyph unicode="&#x165;" glyph-name="tcaron" d="M398 -12Q350 -12 318 1T267 40T240 99T232 176V450H84V474L232 478L236 638H262V478H524V450H262V172Q262 136 268 107T289 58T331 27T400 16Q439 16 470 23T532 42L542 18Q509 4 476 -4T398 -12ZM412 548L410
812H440V744L434 548H412Z" />
<glyph unicode="&#x166;" glyph-name="Tbar" d="M136 336V362L220 364H284V632H50V660H550V632H316V364H464V336H316V0H284V336H136Z" />
<glyph unicode="&#x167;" glyph-name="tbar" d="M84 238V262L232 266V450H84V474L232 478L236 638H262V478H524V450H262V266H504V238H262V172Q262 136 268 107T289 58T331 27T400 16Q439 16 470 23T532 42L542 18Q509 4 476 -4T398 -12Q350 -12 318 1T267 40T240
99T232 176V238H84Z" />
<glyph unicode="&#x168;" glyph-name="Utilde" d="M300 -12Q261 -12 224 -1T157 40T110 119T92 246V660H124V254Q124 186 138 141T177 68T233 30T300 18Q335 18 367 29T424 68T463 140T478 254V660H508V246Q508 169 490 120T443 41T377 0T300 -12ZM378 722Q349
722 329 735T293 763T260 791T222 804Q199 804 183 782T164 724L140 726Q142 769 162 800T222 832Q251 832 271 819T307 791T340 763T378 750Q401 750 416 772T436 830L460 828Q458 785 438 754T378 722Z" />
<glyph unicode="&#x169;" glyph-name="utilde" d="M264 -12Q176 -12 133 34T90 180V478H120V184Q120 99 154 58T264 16Q291 16 315 23T362 44T410 80T460 132V478H490V0H464L460 96H456Q416 49 370 19T264 -12ZM628 580Q599 580 580 595T544 630T511 664T473 680Q444
680 432 652T417 582L391 584Q392 605 396 627T410 666T435 695T475 706Q503 706 522 691T558 656T591 622T630 606Q658 606 670 635T685 704L711 702Q709 681 705 660T692 620T667 591T628 580Z" />
<glyph unicode="&#x16a;" glyph-name="Umacron" d="M300 -12Q261 -12 224 -1T157 40T110 119T92 246V660H124V254Q124 186 138 141T177 68T233 30T300 18Q335 18 367 29T424 68T463 140T478 254V660H508V246Q508 169 490 120T443 41T377 0T300 -12ZM180 746V774H420V746H180Z"
/>
<glyph unicode="&#x16b;" glyph-name="umacron" d="M264 -12Q176 -12 133 34T90 180V478H120V184Q120 99 154 58T264 16Q291 16 315 23T362 44T410 80T460 132V478H490V0H464L460 96H456Q416 49 370 19T264 -12ZM431 608V636H671V608H431Z" />
<glyph unicode="&#x16c;" glyph-name="Ubreve" d="M300 -12Q261 -12 224 -1T157 40T110 119T92 246V660H124V254Q124 186 138 141T177 68T233 30T300 18Q335 18 367 29T424 68T463 140T478 254V660H508V246Q508 169 490 120T443 41T377 0T300 -12ZM300 712Q267
712 244 723T204 752T180 791T168 834L194 838Q199 799 224 769T300 738Q350 738 375 768T406 838L432 834Q429 813 421 792T396 753T357 724T300 712Z" />
<glyph unicode="&#x16d;" glyph-name="ubreve" d="M264 -12Q176 -12 133 34T90 180V478H120V184Q120 99 154 58T264 16Q291 16 315 23T362 44T410 80T460 132V478H490V0H464L460 96H456Q416 49 370 19T264 -12ZM551 570Q513 570 487 584T443 619T417 667T405 716L431
720Q434 698 442 676T466 636T502 607T551 596Q579 596 600 607T636 636T659 676T671 720L697 716Q694 693 685 667T659 620T616 584T551 570Z" />
<glyph unicode="&#x16e;" glyph-name="Uring" d="M300 -12Q261 -12 224 -1T157 40T110 119T92 246V660H124V254Q124 186 138 141T177 68T233 30T300 18Q335 18 367 29T424 68T463 140T478 254V660H508V246Q508 169 490 120T443 41T377 0T300 -12ZM300 700Q265
700 241 723T216 784Q216 822 240 845T300 868Q334 868 359 845T384 784Q384 746 359 723T300 700ZM300 722Q323 722 340 737T358 784Q358 813 341 829T300 846Q275 846 258 830T240 784Q240 753 257 738T300 722Z" />
<glyph unicode="&#x16f;" glyph-name="uring" d="M264 -12Q176 -12 133 34T90 180V478H120V184Q120 99 154 58T264 16Q291 16 315 23T362 44T410 80T460 132V478H490V0H464L460 96H456Q416 49 370 19T264 -12ZM551 570Q510 570 485 595T459 660Q459 699 484 724T551
750Q592 750 617 725T643 660Q643 621 618 596T551 570ZM551 592Q580 592 599 611T619 660Q619 689 600 708T551 728Q522 728 503 709T483 660Q483 631 502 612T551 592Z" />
<glyph unicode="&#x170;" glyph-name="Uhungarumlaut" d="M300 -12Q261 -12 224 -1T157 40T110 119T92 246V660H124V254Q124 186 138 141T177 68T233 30T300 18Q335 18 367 29T424 68T463 140T478 254V660H508V246Q508 169 490 120T443 41T377 0T300 -12ZM224
710L204 720L290 866L316 850L224 710ZM362 710L342 720L428 866L454 850L362 710Z" />
<glyph unicode="&#x171;" glyph-name="uhungarumlaut" d="M264 -12Q176 -12 133 34T90 180V478H120V184Q120 99 154 58T264 16Q291 16 315 23T362 44T410 80T460 132V478H490V0H464L460 96H456Q416 49 370 19T264 -12ZM491 570L471 580L557 746L583 730L491 570ZM619
570L599 580L685 746L711 730L619 570Z" />
<glyph unicode="&#x172;" glyph-name="Uogonek" d="M314 -224Q274 -224 248 -203T222 -136Q222 -96 243 -66T292 -12Q248 -11 212 4T149 50T107 129T92 246V660H124V254Q124 186 138 141T177 68T232 30T299 18Q334 18 366 29T423 68T463 140T478 254V660H508V246Q508
188 499 147T471 75T425 26T362 -6Q303 -27 278 -62T252 -134Q252 -166 271 -181T316 -196Q336 -196 349 -189T374 -170L392 -188Q377 -203 360 -213T314 -224Z" />
<glyph unicode="&#x173;" glyph-name="uogonek" d="M454 -224Q414 -224 388 -203T362 -136Q362 -95 389 -62T464 2L460 96H456Q416 49 370 19T264 -12Q176 -12 133 34T90 180V478H120V184Q120 99 154 58T264 16Q291 16 315 23T362 44T410 80T460 132V478H490V-8Q437
-38 415 -69T392 -134Q392 -166 411 -181T456 -196Q476 -196 489 -189T514 -170L532 -188Q517 -203 500 -213T454 -224Z" />
<glyph unicode="&#x174;" glyph-name="Wcircumflex" d="M127 0L15 661H44L122 196Q127 156 133 117T145 38H147Q160 78 172 117T195 196L283 488H318L408 196Q419 156 430 117T454 38H458Q463 77 469 116T481 196L556 661H584L475 0H433L332 331Q324 360 317 388T302
445H299Q291 416 284 388T267 331L169 0H127ZM184 710L170 726L286 840H314L430 726L416 710L302 810H298L184 710Z" />
<glyph unicode="&#x175;" glyph-name="wcircumflex" d="M142 0L12 478H46L129 156Q137 123 145 93T160 30H164Q172 62 180 92T197 156L280 478H322L405 156Q413 123 421 93T438 30H442Q450 62 458 92T474 156L556 478H588L460 0H418L336 312Q327 347 320 380T302
448H298Q290 413 283 379T264 310L184 0H142ZM186 574L168 590L286 736H314L432 590L414 574L302 704H298L186 574Z" />
<glyph unicode="&#x176;" glyph-name="Ycircumflex" d="M284 0V245L56 660H88L212 434Q235 396 256 357T300 278H304Q328 318 350 357T394 435L514 660H544L316 245V0H284ZM184 710L170 726L286 840H314L430 726L416 710L302 810H298L184 710Z" />
<glyph unicode="&#x177;" glyph-name="ycircumflex" d="M122 -222Q108 -222 93 -220T67 -212L77 -184Q86 -187 98 -189T125 -192Q154 -192 177 -182T220 -153T255 -110T282 -56L300 -12L64 478H96L244 164Q258 134 276 98T312 30H316Q331 62 346 98T374 164L506
478H536L306 -68Q296 -96 280 -123T241 -173T189 -208T122 -222ZM186 574L168 590L286 736H314L432 590L414 574L302 704H298L186 574Z" />
<glyph unicode="&#x178;" glyph-name="Ydieresis" d="M284 0V245L56 660H88L212 434Q235 396 256 357T300 278H304Q328 318 350 357T394 435L514 660H544L316 245V0H284ZM224 728Q210 728 201 736T192 760Q192 775 201 783T224 792Q238 792 247 784T256 760Q256
745 247 737T224 728ZM376 728Q362 728 353 736T344 760Q344 775 353 783T376 792Q390 792 399 784T408 760Q408 745 399 737T376 728Z" />
<glyph unicode="&#x179;" glyph-name="Zacute" d="M72 0V19L488 634H107V661H526V642L109 28H533V0H72ZM294 710L280 726L398 846L420 822L294 710Z" />
<glyph unicode="&#x17a;" glyph-name="zacute" d="M72 0V16L464 450H114V478H512V462L120 28H524V0H72ZM284 574L266 590L398 746L422 724L284 574Z" />
<glyph unicode="&#x17b;" glyph-name="Zdotaccent" d="M72 0V19L488 634H107V661H526V642L109 28H533V0H72ZM316 724Q302 724 292 733T282 760Q282 775 292 784T316 794Q330 794 340 785T350 760Q350 743 340 734T316 724Z" />
<glyph unicode="&#x17c;" glyph-name="zdotaccent" d="M72 0V16L464 450H114V478H512V462L120 28H524V0H72ZM318 600Q301 600 290 611T278 642Q278 662 289 673T318 684Q335 684 346 673T358 642Q358 622 347 611T318 600Z" />
<glyph unicode="&#x17d;" glyph-name="Zcaron" d="M72 0V19L488 634H107V661H526V642L109 28H533V0H72ZM302 710L186 824L200 840L314 740H318L432 840L446 824L330 710H302Z" />
<glyph unicode="&#x17e;" glyph-name="zcaron" d="M72 0V16L464 450H114V478H512V462L120 28H524V0H72ZM304 572L186 718L204 734L316 604H320L432 734L450 718L332 572H304Z" />
<glyph unicode="&#x17f;" glyph-name="longs" d="M266 0V450H120V474L266 478V542Q266 634 309 684T440 734Q471 734 502 728T572 704L560 680Q543 688 529 693T500 701T472 705T440 706Q400 706 373 694T328 661T302 611T294 546V0H266Z" />
<glyph unicode="&#x180;" glyph-name="uni0180" d="M306 -12Q269 -12 224 6T142 54H140L136 0H110V584H32V608L110 612V722H140V612H376V584H140V488L138 382H140Q178 421 228 445T326 470Q377 470 415 454T479 407T517 333T530 236Q530 177 512 131T463 54T392
5T306 -12ZM308 16Q349 16 384 32T444 78T484 147T498 236Q498 279 489 317T458 382T404 426T324 442Q284 442 236 419T140 348V92Q185 51 231 34T308 16Z" />
<glyph unicode="&#x18a;" glyph-name="uni018A" d="M232 0V641Q194 637 165 622T115 582T85 525T74 456Q74 397 96 360T166 296L148 270Q97 296 69 340T40 456Q40 503 54 543T96 611T165 656T260 672Q338 672 394 648T486 581T539 476T556 340Q556 264 539 202T489
94T407 25T292 0H232ZM264 28H296Q355 28 398 51T468 117T509 216T522 340Q522 406 509 461T464 557T384 619T264 642V28Z" />
<glyph unicode="&#x18f;" glyph-name="uni018F" d="M298 -12Q243 -12 200 13T127 84T82 193T66 330V332H510Q510 402 497 460T457 558T393 621T304 644Q259 644 221 626T154 576L136 598Q165 630 206 651T302 672Q360 672 404 648T479 580T526 473T542 332Q542
254 525 191T475 82T398 13T298 -12ZM298 16Q344 16 382 36T447 95T490 186T509 304H99Q101 238 115 185T155 94T217 36T298 16Z" />
<glyph unicode="&#x192;" glyph-name="uni0192" d="M124 -98Q103 -98 86 -92T52 -78L64 -54Q78 -60 94 -65T128 -70Q158 -70 179 -57T215 -21T237 32T250 98L280 376H162V400L228 404H283L290 470Q295 516 305 553T334 616T377 657T438 672Q467 672 487 666T524
650L510 626Q495 635 478 639T436 644Q406 644 386 629T351 590T330 535T320 472L313 404H476V376H310L280 100Q269 7 233 -45T124 -98Z" />
<glyph unicode="&#x193;" glyph-name="uni0193" d="M516 594L496 572Q470 601 434 621T343 642Q285 642 239 621T161 559T112 461T95 332Q95 261 111 203T159 104T234 41T335 18Q383 18 423 32T489 72V290H329V318H522V62Q492 29 445 9T333 -12Q271 -12 221 12T136
82T81 190T61 332Q61 410 81 473T138 580T227 648T343 672Q380 672 408 663T460 640Q449 659 445 674T441 710Q441 750 467 771T529 792Q541 792 552 789T573 780L565 754Q557 757 548 760T527 764Q498 764 485 746T471 706Q471 691 473 679T481 655T495 628T516
594Z" />
<glyph unicode="&#x1a0;" glyph-name="Ohorn" d="M300 -12Q247 -12 202 12T125 82T74 190T56 332Q56 410 74 473T124 580T202 648T300 672Q330 672 357 664T410 642Q458 650 480 672T502 730Q502 741 499 755T488 782L518 798Q536 765 536 732Q536 687 510 660T439
619Q488 576 516 503T544 332Q544 254 526 191T476 82T398 13T300 -12ZM300 18Q347 18 385 40T452 104T495 203T510 332Q510 403 495 460T452 558T386 620T300 642Q253 642 215 621T148 559T105 461T90 332Q90 261 105 203T148 104T214 41T300 18Z" />
<glyph unicode="&#x1a1;" glyph-name="ohorn" d="M300 -12Q253 -12 212 5T139 54T89 132T70 238Q70 298 88 345T138 424T211 473T300 490Q355 490 400 468Q500 486 500 568Q500 579 497 593T486 620L514 636Q522 619 527 603T532 570Q532 543 524 523T501 488T469
464T433 449Q477 417 503 364T530 238Q530 179 512 133T462 54T389 5T300 -12ZM300 16Q343 16 379 32T441 77T483 147T498 238Q498 287 483 328T442 399T379 445T300 462Q257 462 221 446T159 400T117 329T102 238Q102 188 117 148T158 78T221 32T300 16Z" />
<glyph unicode="&#x1af;" glyph-name="Uhorn" d="M300 -12Q261 -12 224 -1T157 40T110 119T92 246V660H124V254Q124 186 138 141T177 68T233 30T300 18Q335 18 367 29T424 68T463 140T478 254V660H480Q531 668 551 689T572 750Q572 761 569 775T558 802L588 818Q606
785 606 752Q606 725 598 706T575 674T544 652T508 639V246Q508 169 490 120T443 41T377 0T300 -12Z" />
<glyph unicode="&#x1b0;" glyph-name="uhorn" d="M264 -12Q176 -12 133 34T90 180V478H120V184Q120 99 154 58T264 16Q291 16 315 23T362 44T410 80T460 132V478H462Q502 486 524 510T546 578Q546 589 543 603T532 630L560 646Q578 613 578 580Q578 550 570 529T548
494T519 472T490 459V0H464L460 96H456Q416 49 370 19T264 -12Z" />
<glyph unicode="&#x1c2;" glyph-name="uni01C2" d="M286 -222V182H100V206L286 210V332H100V356L286 360V722H314V360H500V332H314V210H500V182H314V-222H286Z" />
<glyph unicode="&#x1cd;" glyph-name="uni01CD" d="M222 396L175 264H424L378 396Q357 456 339 510T302 626H298Q280 564 262 510T222 396ZM50 0L286 660H314L550 0H516L434 236H165L82 0H50ZM286 710L170 824L184 840L298 740H302L416 840L430 824L314 710H286Z" />
<glyph unicode="&#x1ce;" glyph-name="uni01CE" d="M264 -12Q232 -12 202 -5T149 18T111 58T96 117Q96 157 117 187T184 238T300 274T470 298Q470 329 463 359T440 411T394 448T322 462Q293 462 266 456T215 439T170 416T136 394L120 418Q133 428 154 440T202
464T260 482T324 490Q372 490 405 476T460 436T490 379T500 310V0H474L470 74H468Q447 57 423 42T372 14T319 -5T264 -12ZM266 16Q361 16 470 108V272Q373 263 308 250T202 217T145 174T128 118Q128 90 140 71T171 39T215 22T266 16ZM306 572L188 718L206 734L318
604H322L434 734L452 718L334 572H306Z" />
<glyph unicode="&#x1cf;" glyph-name="uni01CF" d="M112 0V28H284V632H112V660H488V632H316V28H488V0H112ZM286 710L170 824L184 840L298 740H302L416 840L430 824L314 710H286Z" />
<glyph unicode="&#x1d0;" glyph-name="uni01D0" d="M346 0V450H100V478H376V0H346ZM336 572L218 718L236 734L348 604H352L464 734L482 718L364 572H336Z" />
<glyph unicode="&#x1d1;" glyph-name="uni01D1" d="M300 -12Q247 -12 202 12T125 82T74 190T56 332Q56 410 74 473T124 580T202 648T300 672Q353 672 398 648T475 580T526 473T544 332Q544 254 526 191T476 82T398 13T300 -12ZM300 18Q347 18 385 40T452 104T495
203T510 332Q510 403 495 460T452 558T386 620T300 642Q253 642 215 621T148 559T105 461T90 332Q90 261 105 203T148 104T214 41T300 18ZM286 710L170 824L184 840L298 740H302L416 840L430 824L314 710H286Z" />
<glyph unicode="&#x1d2;" glyph-name="uni01D2" d="M300 -12Q253 -12 212 5T139 54T89 132T70 238Q70 298 88 345T138 424T211 473T300 490Q347 490 388 473T461 424T511 345T530 238Q530 179 512 133T462 54T389 5T300 -12ZM300 16Q343 16 379 32T441 77T483
147T498 238Q498 287 483 328T442 399T379 445T300 462Q257 462 221 446T159 400T117 329T102 238Q102 188 117 148T158 78T221 32T300 16ZM286 572L168 718L186 734L298 604H302L414 734L432 718L314 572H286Z" />
<glyph unicode="&#x1d3;" glyph-name="uni01D3" d="M300 -12Q261 -12 224 -1T157 40T110 119T92 246V660H124V254Q124 186 138 141T177 68T233 30T300 18Q335 18 367 29T424 68T463 140T478 254V660H508V246Q508 169 490 120T443 41T377 0T300 -12ZM286 710L170
824L184 840L298 740H302L416 840L430 824L314 710H286Z" />
<glyph unicode="&#x1d4;" glyph-name="uni01D4" d="M264 -12Q176 -12 133 34T90 180V478H120V184Q120 99 154 58T264 16Q291 16 315 23T362 44T410 80T460 132V478H490V0H464L460 96H456Q416 49 370 19T264 -12ZM537 572L419 718L437 734L549 604H553L665 734L683
718L565 572H537Z" />
<glyph unicode="&#x1d5;" glyph-name="uni01D5" d="M300 -12Q261 -12 224 -1T157 40T110 119T92 246V660H124V254Q124 186 138 141T177 68T233 30T300 18Q335 18 367 29T424 68T463 140T478 254V660H508V246Q508 169 490 120T443 41T377 0T300 -12ZM204 728Q190
728 181 736T172 760Q172 775 181 783T204 792Q218 792 227 784T236 760Q236 745 227 737T204 728ZM396 728Q382 728 373 736T364 760Q364 775 373 783T396 792Q410 792 419 784T428 760Q428 745 419 737T396 728ZM180 852V880H420V852H180Z" />
<glyph unicode="&#x1d6;" glyph-name="uni01D6" d="M264 -12Q176 -12 133 34T90 180V478H120V184Q120 99 154 58T264 16Q291 16 315 23T362 44T410 80T460 132V478H490V0H464L460 96H456Q416 49 370 19T264 -12ZM465 602Q451 602 442 611T433 634Q433 648 442
657T465 666Q479 666 488 657T497 634Q497 620 488 611T465 602ZM637 602Q623 602 614 611T605 634Q605 648 614 657T637 666Q651 666 660 657T669 634Q669 620 660 611T637 602ZM429 746V774H671V746H429Z" />
<glyph unicode="&#x1d7;" glyph-name="uni01D7" d="M300 -12Q261 -12 224 -1T157 40T110 119T92 246V660H124V254Q124 186 138 141T177 68T233 30T300 18Q335 18 367 29T424 68T463 140T478 254V660H508V246Q508 169 490 120T443 41T377 0T300 -12ZM204 728Q190
728 181 736T172 760Q172 775 181 783T204 792Q218 792 227 784T236 760Q236 745 227 737T204 728ZM396 728Q382 728 373 736T364 760Q364 775 373 783T396 792Q410 792 419 784T428 760Q428 745 419 737T396 728ZM292 822L276 836L370 936L392 916L292 822Z" />
<glyph unicode="&#x1d8;" glyph-name="uni01D8" d="M264 -12Q176 -12 133 34T90 180V478H120V184Q120 99 154 58T264 16Q291 16 315 23T362 44T410 80T460 132V478H490V0H464L460 96H456Q416 49 370 19T264 -12ZM465 602Q451 602 442 611T433 634Q433 648 442
657T465 666Q479 666 488 657T497 634Q497 620 488 611T465 602ZM637 602Q623 602 614 611T605 634Q605 648 614 657T637 666Q651 666 660 657T669 634Q669 620 660 611T637 602ZM533 698L515 714L601 814L625 794L533 698Z" />
<glyph unicode="&#x1d9;" glyph-name="uni01D9" d="M300 -12Q261 -12 224 -1T157 40T110 119T92 246V660H124V254Q124 186 138 141T177 68T233 30T300 18Q335 18 367 29T424 68T463 140T478 254V660H508V246Q508 169 490 120T443 41T377 0T300 -12ZM204 728Q190
728 181 736T172 760Q172 775 181 783T204 792Q218 792 227 784T236 760Q236 745 227 737T204 728ZM396 728Q382 728 373 736T364 760Q364 775 373 783T396 792Q410 792 419 784T428 760Q428 745 419 737T396 728ZM286 826L180 918L194 936L298 858H302L406 936L420
918L314 826H286Z" />
<glyph unicode="&#x1da;" glyph-name="uni01DA" d="M264 -12Q176 -12 133 34T90 180V478H120V184Q120 99 154 58T264 16Q291 16 315 23T362 44T410 80T460 132V478H490V0H464L460 96H456Q416 49 370 19T264 -12ZM465 602Q451 602 442 611T433 634Q433 648 442
657T465 666Q479 666 488 657T497 634Q497 620 488 611T465 602ZM637 602Q623 602 614 611T605 634Q605 648 614 657T637 666Q651 666 660 657T669 634Q669 620 660 611T637 602ZM537 706L441 798L457 814L549 734H553L645 814L661 798L565 706H537Z" />
<glyph unicode="&#x1db;" glyph-name="uni01DB" d="M300 -12Q261 -12 224 -1T157 40T110 119T92 246V660H124V254Q124 186 138 141T177 68T233 30T300 18Q335 18 367 29T424 68T463 140T478 254V660H508V246Q508 169 490 120T443 41T377 0T300 -12ZM204 728Q190
728 181 736T172 760Q172 775 181 783T204 792Q218 792 227 784T236 760Q236 745 227 737T204 728ZM396 728Q382 728 373 736T364 760Q364 775 373 783T396 792Q410 792 419 784T428 760Q428 745 419 737T396 728ZM308 822L208 916L230 936L324 836L308 822Z" />
<glyph unicode="&#x1dc;" glyph-name="uni01DC" d="M264 -12Q176 -12 133 34T90 180V478H120V184Q120 99 154 58T264 16Q291 16 315 23T362 44T410 80T460 132V478H490V0H464L460 96H456Q416 49 370 19T264 -12ZM465 602Q451 602 442 611T433 634Q433 648 442
657T465 666Q479 666 488 657T497 634Q497 620 488 611T465 602ZM637 602Q623 602 614 611T605 634Q605 648 614 657T637 666Q651 666 660 657T669 634Q669 620 660 611T637 602ZM569 698L477 794L501 814L587 714L569 698Z" />
<glyph unicode="&#x1e2;" glyph-name="uni01E2" d="M212 394L149 254H322V630H318Q292 571 266 514T212 394ZM0 0L302 660H578V632H354V366H524V338H354V28H588V0H322V226H137L36 0H0ZM324 746V774H564V746H324Z" />
<glyph unicode="&#x1e3;" glyph-name="uni01E3" d="M142 -12Q89 -12 54 19T18 112Q18 147 32 176T78 228T160 267T284 292Q285 384 256 423T176 462Q159 462 142 458T107 448T75 433T50 417L36 440Q47 447 62 456T96 472T136 485T180 490Q228 490 261 461T307
366Q329 431 370 460T458 490Q495 490 521 473T565 428T591 361T600 282Q600 273 600 263T598 238H314Q314 189 323 149T350 79T396 33T462 16Q497 16 524 27T572 52L586 28Q563 13 534 1T461 -12Q410 -12 374 14T315 87Q280 45 237 17T142 -12ZM145 16Q165 16
187 23T230 43T269 74T303 115Q294 143 289 175T284 244V266Q215 256 170 242T98 209T61 165T50 112Q50 66 76 41T145 16ZM458 462Q432 462 408 452T364 418T331 357T315 266H572Q570 363 543 412T458 462ZM200 608V636H440V608H200Z" />
<glyph unicode="&#x1e6;" glyph-name="Gcaron" d="M333 -12Q271 -12 221 12T136 82T81 190T61 332Q61 410 81 473T138 580T227 648T343 672Q375 672 401 665T449 647T486 621T516 594L496 572Q470 601 434 621T343 642Q285 642 239 621T161 559T112 461T95 332Q95
261 111 203T159 104T234 41T335 18Q383 18 423 32T489 72V290H329V318H522V62Q492 29 445 9T333 -12ZM316 710L200 824L214 840L328 740H332L446 840L460 824L344 710H316Z" />
<glyph unicode="&#x1e7;" glyph-name="gcaron" d="M312 -234Q198 -234 143 -195T88 -93Q88 -65 109 -34T170 22V26Q152 34 136 53T120 102Q120 125 134 148T178 192V196Q155 216 139 246T122 320Q122 356 135 387T173 441T228 477T296 490Q333 490 360 478H560V450H408Q432
427 451 395T470 320Q470 284 457 253T419 200T364 165T296 152Q273 152 249 158T202 176Q179 162 166 144T152 105Q152 68 183 51T266 34H389Q480 34 520 10T560 -72Q560 -102 543 -131T493 -183T415 -220T312 -234ZM296 180Q325 180 351 190T396 219T427 263T438
320Q438 351 427 377T397 422T351 451T296 462Q267 462 241 452T196 422T165 377T154 320Q154 289 165 264T195 220T241 191T296 180ZM306 -206Q358 -206 399 -195T469 -164T513 -122T528 -74Q528 -31 496 -15T397 2H276Q259 2 240 4T203 11Q156 -14 138 -41T120
-97Q120 -143 165 -174T306 -206ZM296 572L178 718L196 734L308 604H312L424 734L442 718L324 572H296Z" />
<glyph unicode="&#x1ea;" glyph-name="uni01EA" d="M314 -224Q274 -224 248 -203T222 -136Q222 -97 244 -68T298 -12Q240 -10 195 16T119 88T72 196T56 332Q56 410 74 473T124 580T202 648T300 672Q353 672 398 648T475 580T526 473T544 332Q544 73 358 -6Q308
-27 280 -62T252 -134Q252 -166 271 -181T316 -196Q336 -196 349 -189T374 -170L392 -188Q377 -203 360 -213T314 -224ZM300 18Q347 18 385 40T452 104T495 203T510 332Q510 403 495 460T452 558T386 620T300 642Q253 642 215 621T148 559T105 461T90 332Q90 261
105 203T148 104T214 41T300 18Z" />
<glyph unicode="&#x1eb;" glyph-name="uni01EB" d="M328 -224Q288 -224 262 -203T236 -136Q236 -97 257 -67T308 -12Q255 -12 211 5T136 56T87 135T70 238Q70 298 88 345T138 424T211 473T300 490Q347 490 388 473T461 424T511 345T530 238Q530 186 518 148T484
81T430 31T360 -6Q318 -24 292 -61T266 -134Q266 -166 285 -181T330 -196Q350 -196 363 -189T388 -170L406 -188Q391 -203 374 -213T328 -224ZM300 16Q343 16 379 32T441 77T483 147T498 238Q498 287 483 328T442 399T379 445T300 462Q257 462 221 446T159 400T117
329T102 238Q102 188 117 148T158 78T221 32T300 16Z" />
<glyph unicode="&#x1f4;" glyph-name="uni01F4" d="M333 -12Q271 -12 221 12T136 82T81 190T61 332Q61 410 81 473T138 580T227 648T343 672Q375 672 401 665T449 647T486 621T516 594L496 572Q470 601 434 621T343 642Q285 642 239 621T161 559T112 461T95 332Q95
261 111 203T159 104T234 41T335 18Q383 18 423 32T489 72V290H329V318H522V62Q492 29 445 9T333 -12ZM308 710L294 726L412 846L434 822L308 710Z" />
<glyph unicode="&#x1f5;" glyph-name="uni01F5" d="M312 -234Q198 -234 143 -195T88 -93Q88 -65 109 -34T170 22V26Q152 34 136 53T120 102Q120 125 134 148T178 192V196Q155 216 139 246T122 320Q122 356 135 387T173 441T228 477T296 490Q333 490 360 478H560V450H408Q432
427 451 395T470 320Q470 284 457 253T419 200T364 165T296 152Q273 152 249 158T202 176Q179 162 166 144T152 105Q152 68 183 51T266 34H389Q480 34 520 10T560 -72Q560 -102 543 -131T493 -183T415 -220T312 -234ZM296 180Q325 180 351 190T396 219T427 263T438
320Q438 351 427 377T397 422T351 451T296 462Q267 462 241 452T196 422T165 377T154 320Q154 289 165 264T195 220T241 191T296 180ZM306 -206Q358 -206 399 -195T469 -164T513 -122T528 -74Q528 -31 496 -15T397 2H276Q259 2 240 4T203 11Q156 -14 138 -41T120
-97Q120 -143 165 -174T306 -206ZM276 574L258 590L390 746L414 724L276 574Z" />
<glyph unicode="&#x1f8;" glyph-name="uni01F8" d="M96 0V660H129L403 174L476 46H478Q477 94 476 139T474 231V660H504V0H471L197 486L124 614H122Q123 566 124 523T126 433V0H96ZM332 710L206 822L228 846L346 726L332 710Z" />
<glyph unicode="&#x1f9;" glyph-name="uni01F9" d="M110 0V478H136L140 382H144Q165 405 187 425T232 459T281 482T336 490Q424 490 467 444T510 298V0H480V294Q480 379 446 420T336 462Q309 462 286 455T239 434T192 397T140 346V0H110ZM354 574L216 724L240
746L372 590L354 574Z" />
<glyph unicode="&#x1fa;" glyph-name="Aringacute" d="M222 396L175 264H424L378 396Q357 456 339 510T302 626H298Q280 564 262 510T222 396ZM50 0L286 660H314L550 0H516L434 236H165L82 0H50ZM300 700Q265 700 241 723T216 784Q216 809 226 827T255 856L370
936L388 912L313 867Q342 862 363 841T384 784Q384 746 359 723T300 700ZM300 722Q323 722 340 737T358 784Q358 813 341 829T300 846Q275 846 258 830T240 784Q240 753 257 738T300 722Z" />
<glyph unicode="&#x1fb;" glyph-name="aringacute" d="M264 -12Q232 -12 202 -5T149 18T111 58T96 117Q96 157 117 187T184 238T300 274T470 298Q470 329 463 359T440 411T394 448T322 462Q293 462 266 456T215 439T170 416T136 394L120 418Q133 428 154 440T202
464T260 482T324 490Q372 490 405 476T460 436T490 379T500 310V0H474L470 74H468Q447 57 423 42T372 14T319 -5T264 -12ZM266 16Q361 16 470 108V272Q373 263 308 250T202 217T145 174T128 118Q128 90 140 71T171 39T215 22T266 16ZM320 570Q279 570 254 595T228
660Q228 687 240 708T275 740L392 814L408 784L337 749Q371 743 391 719T412 660Q412 621 387 596T320 570ZM320 592Q349 592 368 611T388 660Q388 689 369 708T320 728Q291 728 272 709T252 660Q252 631 271 612T320 592Z" />
<glyph unicode="&#x1fc;" glyph-name="AEacute" d="M212 394L149 254H322V630H318Q292 571 266 514T212 394ZM0 0L302 660H578V632H354V366H524V338H354V28H588V0H322V226H137L36 0H0ZM422 710L408 726L526 846L548 822L422 710Z" />
<glyph unicode="&#x1fd;" glyph-name="aeacute" d="M142 -12Q89 -12 54 19T18 112Q18 147 32 176T78 228T160 267T284 292Q285 384 256 423T176 462Q159 462 142 458T107 448T75 433T50 417L36 440Q47 447 62 456T96 472T136 485T180 490Q228 490 261 461T307
366Q329 431 370 460T458 490Q495 490 521 473T565 428T591 361T600 282Q600 273 600 263T598 238H314Q314 189 323 149T350 79T396 33T462 16Q497 16 524 27T572 52L586 28Q563 13 534 1T461 -12Q410 -12 374 14T315 87Q280 45 237 17T142 -12ZM145 16Q165 16
187 23T230 43T269 74T303 115Q294 143 289 175T284 244V266Q215 256 170 242T98 209T61 165T50 112Q50 66 76 41T145 16ZM458 462Q432 462 408 452T364 418T331 357T315 266H572Q570 363 543 412T458 462ZM286 574L268 590L400 746L424 724L286 574Z" />
<glyph unicode="&#x1fe;" glyph-name="Oslashacute" d="M300 -12Q252 -12 211 8T137 66L80 -20L58 -4L120 89Q90 134 73 195T56 332Q56 410 74 473T124 580T202 648T300 672Q396 672 461 598L516 680L538 664L479 575Q510 531 527 470T544 332Q544 254 526 191T476
82T398 13T300 -12ZM90 332Q90 266 103 212T139 118L443 571Q387 642 300 642Q253 642 215 621T148 559T105 461T90 332ZM300 18Q347 18 385 40T452 104T495 203T510 332Q510 398 497 452T459 547L156 93Q183 57 219 38T300 18ZM278 710L264 726L382 846L404 822L278
710Z" />
<glyph unicode="&#x1ff;" glyph-name="oslashacute" d="M300 -12Q212 -12 149 43L92 -22L70 -4L129 64Q101 96 86 139T70 238Q70 298 88 345T138 424T211 473T300 490Q344 490 382 476T452 434L508 498L530 480L472 413Q499 381 514 338T530 238Q530 179 512 133T462
54T389 5T300 -12ZM102 238Q102 192 114 154T150 87L431 410Q405 435 372 448T300 462Q257 462 221 446T159 400T117 329T102 238ZM300 16Q343 16 379 32T441 77T483 147T498 238Q498 283 486 321T451 389L169 66Q222 16 300 16ZM266 574L248 590L380 746L404 724L266
574Z" />
<glyph unicode="&#x218;" glyph-name="uni0218" d="M310 -12Q233 -12 176 16T80 88L102 110Q140 68 193 43T310 18Q352 18 386 28T444 57T481 102T494 160Q494 193 484 215T455 254T413 283T362 306L260 352Q237 361 212 374T166 405T130 450T116 514Q116 549
131 578T172 628T234 660T312 672Q375 672 423 649T502 594L482 572Q452 604 409 623T312 642Q238 642 193 608T148 516Q148 485 160 464T192 427T233 401T274 382L376 336Q405 324 432 310T480 275T513 228T526 162Q526 124 511 93T467 38T399 1T310 -12ZM246
-216L240 -190Q306 -185 330 -172T354 -136Q354 -112 333 -102T276 -88L286 -62Q340 -71 362 -86T384 -134Q384 -172 349 -191T246 -216Z" />
<glyph unicode="&#x219;" glyph-name="uni0219" d="M322 -12Q247 -12 188 11T86 64L104 88Q143 56 194 36T324 16Q363 16 392 24T442 47T472 79T482 118Q482 135 477 151T454 181T401 209T306 234Q215 252 165 282T114 366Q114 391 124 413T157 453T214 480T296
490Q342 490 392 474T476 432L458 408Q426 432 386 447T294 462Q252 462 224 454T178 433T153 403T146 368Q146 327 185 304T310 263Q373 250 412 236T474 205T505 167T514 120Q514 94 501 70T464 28T404 -1T322 -12ZM236 -216L230 -190Q296 -185 320 -172T344
-136Q344 -112 323 -102T266 -88L276 -62Q330 -71 352 -86T374 -134Q374 -172 339 -191T236 -216Z" />
<glyph unicode="&#x21a;" glyph-name="uni021A" d="M284 0V632H50V660H550V632H316V0H284ZM226 -216L220 -190Q286 -185 310 -172T334 -136Q334 -112 313 -102T256 -88L266 -62Q320 -71 342 -86T364 -134Q364 -172 329 -191T226 -216Z" />
<glyph unicode="&#x21b;" glyph-name="uni021B" d="M398 -12Q350 -12 318 1T267 40T240 99T232 176V450H84V474L232 478L236 638H262V478H524V450H262V172Q262 136 268 107T289 58T331 27T400 16Q439 16 470 23T532 42L542 18Q509 4 476 -4T398 -12ZM314 -216L308
-190Q374 -185 398 -172T422 -136Q422 -112 401 -102T344 -88L354 -62Q408 -71 430 -86T452 -134Q452 -172 417 -191T314 -216Z" />
<glyph unicode="&#x237;" glyph-name="uni0237" d="M194 -234Q162 -234 127 -225T66 -202L80 -176Q103 -188 135 -197T199 -206Q243 -206 271 -195T316 -163T339 -115T346 -52V450H100V478H376V-46Q376 -90 367 -125T337 -184T281 -221T194 -234Z" />
<glyph unicode="&#x243;" glyph-name="uni0243" d="M120 0V178H42V202L120 206V660H280Q383 660 437 621T492 500Q492 447 463 409T375 356V352Q449 341 491 301T534 192Q534 97 471 49T292 0H120ZM152 28H280Q387 28 444 66T502 190Q502 265 445 301T280 338H152V206H324V178H152V28ZM152
366H260Q368 366 414 400T460 500Q460 571 413 601T266 632H152V366Z" />
<glyph unicode="&#x250;" glyph-name="uni0250" d="M288 -12Q240 -12 207 2T152 42T122 99T112 168V478H138L142 404H144Q165 421 189 436T240 464T293 483T348 490Q379 490 409 483T463 460T501 420T516 361Q516 321 495 291T428 240T312 204T142 180Q142 148
149 119T172 67T217 30T290 16Q318 16 345 22T397 39T442 61T476 84L492 60Q479 50 458 38T409 14T351 -4T288 -12ZM142 206Q239 215 304 228T410 261T467 304T484 360Q484 388 472 407T441 439T396 456T346 462Q251 462 142 370V206Z" />
<glyph unicode="&#x251;" glyph-name="uni0251" d="M282 -12Q235 -12 196 4T129 52T86 130T70 238Q70 296 88 342T138 422T211 472T298 490Q345 490 383 472T458 422H460L464 478H490V0H464L460 74H458Q426 40 381 14T282 -12ZM284 16Q329 16 373 40T460 110V386Q416
428 376 445T296 462Q255 462 220 445T159 397T117 325T102 238Q102 188 114 148T150 78T207 32T284 16Z" />
<glyph unicode="&#x252;" glyph-name="uni0252" d="M306 -12Q268 -12 224 6T142 54H140L136 0H110V478H136L140 404H142Q158 421 179 436T224 464T274 483T326 490Q429 490 479 424T530 246Q530 185 512 137T463 56T392 6T306 -12ZM308 16Q349 16 384 33T444 80T484
153T498 246Q498 292 489 331T458 400T404 445T324 462Q279 462 231 438T140 368V92Q187 50 231 33T308 16Z" />
<glyph unicode="&#x253;" glyph-name="uni0253" d="M306 -12Q269 -12 224 6T142 54H140L136 0H110V566Q110 647 150 690T260 734Q277 734 298 729T338 716L326 690Q309 699 292 702T258 706Q196 706 168 666T140 562L136 402H140Q178 441 228 465T326 490Q429
490 479 424T530 246Q530 185 512 137T463 56T392 6T306 -12ZM308 16Q349 16 384 33T444 80T484 153T498 246Q498 292 489 331T458 400T404 445T324 462Q284 462 236 439T140 368V92Q185 51 231 34T308 16Z" />
<glyph unicode="&#x254;" glyph-name="uni0254" d="M260 -12Q201 -12 153 9T68 66L86 88Q119 56 163 36T260 16Q309 16 349 32T417 77T462 147T478 238Q478 287 463 328T419 399T352 445T266 462Q212 462 172 443T100 394L80 416Q95 430 113 443T153 467T204 484T266
490Q316 490 360 473T438 424T490 345T510 238Q510 179 491 133T439 54T359 5T260 -12Z" />
<glyph unicode="&#x255;" glyph-name="uni0255" d="M356 16Q424 16 458 35T492 86Q492 106 476 120T422 134Q384 134 339 108T255 35Q302 16 356 16ZM178 -106L150 -96Q174 -27 211 24Q156 54 123 108T90 238Q90 298 110 345T164 424T243 473T338 490Q402 490
445 469T518 416L498 394Q466 426 428 444T338 462Q293 462 254 446T185 400T139 329T122 238Q122 174 150 125T229 48Q271 102 322 132T422 162Q472 162 497 142T522 88Q522 46 482 17T356 -12Q291 -12 236 11Q198 -41 178 -106Z" />
<glyph unicode="&#x256;" glyph-name="uni0256" d="M548 -180Q503 -180 482 -151T460 -54L462 74H460Q428 39 382 14T282 -12Q235 -12 196 4T129 52T86 130T70 238Q70 296 88 342T138 422T211 472T298 490Q344 490 383 472T460 420H462L460 520V722H490V-50Q490
-95 501 -123T546 -152Q558 -152 569 -149T588 -142L596 -168Q588 -173 574 -176T548 -180ZM284 16Q329 16 373 40T460 110V386Q416 428 376 445T296 462Q255 462 220 445T159 397T117 325T102 238Q102 188 114 148T150 78T207 32T284 16Z" />
<glyph unicode="&#x257;" glyph-name="uni0257" d="M282 -12Q235 -12 196 4T129 52T86 130T70 238Q70 296 88 342T138 422T211 472T298 490Q344 490 383 472T460 420H462L460 520V604Q460 673 486 704T556 736Q580 736 602 726L594 700Q586 703 576 705T554 708Q518
708 504 678T490 600V0H464L460 74H458Q426 40 381 14T282 -12ZM284 16Q329 16 373 40T460 110V386Q416 428 376 445T296 462Q255 462 220 445T159 397T117 325T102 238Q102 188 114 148T150 78T207 32T284 16Z" />
<glyph unicode="&#x258;" glyph-name="uni0258" d="M294 462Q255 462 221 450T160 414T117 353T98 266H487Q483 312 466 348T423 410T364 449T294 462ZM270 -12Q205 -12 163 6T90 44L104 70Q138 46 178 31T270 16Q313 16 352 30T422 73T470 143T488 238H72Q70
247 70 254T70 270Q70 322 87 362T134 431T205 475T294 490Q340 490 381 473T453 423T502 343T520 238Q520 179 500 133T446 55T367 5T270 -12Z" />
<glyph unicode="&#x259;" glyph-name="uni0259" d="M302 -12Q250 -12 209 4T140 51T96 124T80 220Q80 228 80 235T82 252H498Q493 354 438 408T292 462Q241 462 201 447T126 408L112 434Q143 454 185 472T292 490Q346 490 390 473T465 424T513 345T530 240Q530
180 513 133T466 54T394 5T302 -12ZM302 16Q343 16 378 29T439 69T480 134T498 224H108Q113 120 164 68T302 16Z" />
<glyph unicode="&#x25a;" glyph-name="uni025A" d="M228 -12Q185 -12 152 3T95 44T57 106T38 182L385 318Q368 391 324 426T224 462Q176 462 145 449T84 414L70 440Q98 460 132 475T224 490Q289 490 341 450T415 329L488 358L512 348Q516 319 521 302T533 276T548
265T566 262Q577 262 587 267T604 280L620 258Q610 250 596 242T562 234Q538 234 515 255T486 328L420 303Q426 270 426 234Q426 181 412 136T372 58T310 7T228 -12ZM228 16Q266 16 297 32T349 78T382 147T394 234Q394 249 393 263T390 291L70 166Q84 91 125 54T228
16Z" />
<glyph unicode="&#x25b;" glyph-name="uni025B" d="M319 -12Q220 -12 164 25T108 128Q108 155 117 175T142 211T178 236T222 252V256Q184 274 160 300T136 368Q136 398 150 421T188 459T246 482T320 490Q386 490 431 472T512 424L494 402Q457 430 419 446T320
462Q251 462 210 439T168 366Q168 320 213 293T352 266H394V238H338Q244 238 192 211T140 129Q140 74 189 45T320 16Q374 16 419 30T508 84L526 62Q481 20 430 4T319 -12Z" />
<glyph unicode="&#x25c;" glyph-name="uni025C" d="M281 -12Q222 -12 171 4T74 62L92 84Q135 44 180 30T280 16Q361 16 410 45T460 129Q460 183 408 210T262 238H206V266H248Q341 266 386 293T432 366Q432 416 391 439T280 462Q220 462 182 446T106 402L88 424Q124
453 169 471T280 490Q320 490 353 482T411 459T450 421T464 368Q464 327 440 301T378 256V252Q400 246 421 236T457 211T482 176T492 128Q492 63 436 26T281 -12Z" />
<glyph unicode="&#x25e;" glyph-name="uni025E" d="M332 -12Q274 -12 226 3T144 50T90 126T70 232Q70 294 90 342T146 423T228 473T328 490Q366 490 398 482T453 459T489 421T502 368Q502 330 480 301T420 256V252Q439 247 459 237T494 212T520 176T530 128Q530
63 480 26T332 -12ZM330 16Q414 16 456 45T498 129Q498 154 486 174T452 209T400 230T336 238H298V266H322Q393 266 431 295T470 366Q470 416 431 439T328 462Q280 462 239 445T167 398T120 326T102 232Q102 131 162 74T330 16Z" />
<glyph unicode="&#x25f;" glyph-name="uni025F" d="M194 -234Q162 -234 127 -225T66 -202L80 -176Q103 -188 135 -197T199 -206Q243 -206 271 -195T316 -163T339 -115T346 -52V238H138V262L346 266V450H100V478H376V266H568V238H376V-46Q376 -90 367 -125T337
-184T281 -221T194 -234Z" />
<glyph unicode="&#x260;" glyph-name="uni0260" d="M288 -234Q235 -234 190 -220T108 -182L124 -156Q162 -183 204 -195T288 -207Q370 -207 415 -163T460 -40L462 84H460Q428 49 382 24T282 -2Q235 -2 196 14T129 61T86 138T70 244Q70 301 88 346T138 424T211
473T298 490Q345 490 385 471T460 420H462L460 478Q460 547 486 578T556 610Q580 610 602 600L594 574Q586 577 576 579T554 582Q518 582 504 552T490 474V-48Q490 -133 436 -183T288 -234ZM284 26Q329 26 373 50T460 120V386Q416 428 376 445T296 462Q255 462
220 445T159 399T117 330T102 244Q102 195 114 155T150 87T207 42T284 26Z" />
<glyph unicode="&#x261;" glyph-name="uni0261" d="M288 -234Q235 -234 190 -220T108 -182L124 -156Q162 -183 204 -195T288 -207Q370 -207 415 -163T460 -40V84H458Q425 49 380 24T282 -2Q235 -2 196 14T129 61T86 138T70 244Q70 301 88 346T138 424T211 473T298
490Q345 490 384 471T458 422H460L464 478H490V-48Q490 -133 436 -183T288 -234ZM284 26Q329 26 373 50T460 120V386Q416 428 376 445T296 462Q255 462 220 445T159 399T117 330T102 244Q102 195 114 155T150 87T207 42T284 26Z" />
<glyph unicode="&#x262;" glyph-name="uni0262" d="M340 -12Q287 -12 241 5T162 56T109 136T90 242Q90 299 109 344T163 422T245 472T346 490Q408 490 450 467T518 416L498 394Q473 420 436 441T346 462Q299 462 259 447T188 403T140 333T122 242Q122 189 139
148T185 77T255 32T343 16Q389 16 427 31T492 71V206H324V234H522V58Q492 29 447 9T340 -12Z" />
<glyph unicode="&#x263;" glyph-name="uni0263" d="M301 -234Q259 -234 240 -207T221 -138Q221 -105 239 -66T280 27L66 478H100L237 178Q254 142 267 114T299 52H303Q322 85 335 113T365 178L502 478H534L322 26Q346 -30 363 -68T381 -138Q381 -180 362 -207T301
-234ZM301 -206Q327 -206 338 -187T349 -140Q349 -109 335 -73T303 0H299Q281 -36 267 -74T253 -140Q253 -167 264 -186T301 -206Z" />
<glyph unicode="&#x264;" glyph-name="uni0264" d="M300 -12Q217 -12 172 31T126 146Q126 210 169 266T278 376Q237 418 208 440T145 462Q117 462 97 448L84 471Q112 490 148 490Q189 490 223 464T300 396Q342 438 376 464T452 490Q487 490 516 471L503 448Q483
462 455 462Q420 462 392 440T322 376Q354 349 382 322T430 267T462 208T474 146Q474 75 429 32T300 -12ZM300 16Q333 16 359 26T404 53T432 94T442 146Q442 175 432 202T402 256T357 307T300 358Q238 307 198 256T158 146Q158 118 168 95T196 54T240 26T300 16Z"
/>
<glyph unicode="&#x265;" glyph-name="uni0265" d="M460 -222V-30L462 100Q414 50 369 19T264 -12Q176 -12 133 34T90 180V478H120V184Q120 99 154 58T264 16Q291 16 314 23T361 44T408 81T460 132V478H490V-222H460Z" />
<glyph unicode="&#x266;" glyph-name="uni0266" d="M110 0V566Q110 647 150 690T260 734Q277 734 298 729T338 716L326 690Q309 699 292 702T258 706Q196 706 169 666T140 562L136 378H140Q185 428 231 459T336 490Q424 490 467 444T510 298V0H480V294Q480 379
446 420T336 462Q309 462 286 455T239 434T192 397T140 346V0H110Z" />
<glyph unicode="&#x267;" glyph-name="uni0267" d="M402 -180Q385 -180 366 -176T334 -166L342 -140Q353 -144 369 -148T404 -152Q428 -152 443 -143T466 -119T477 -82T480 -34V294Q480 379 446 420T336 462Q309 462 286 455T239 434T192 397T140 346V0H110V566Q110
647 150 690T260 734Q277 734 297 729T338 716L326 690Q291 706 258 706Q196 706 169 666T140 562L136 378H140Q185 428 231 459T336 490Q424 490 467 444T510 298V-38Q510 -113 484 -146T402 -180Z" />
<glyph unicode="&#x268;" glyph-name="uni0268" d="M148 238V262L346 266V450H100V478H376V266H568V238H376V0H346V238H148ZM350 600Q333 600 322 611T310 642Q310 662 321 673T350 684Q367 684 378 673T390 642Q390 622 379 611T350 600Z" />
<glyph unicode="&#x26a;" glyph-name="uni026A" d="M92 0V28H284V450H92V478H508V450H314V28H508V0H92Z" />
<glyph unicode="&#x26b;" glyph-name="uni026B" d="M416 -12Q351 -12 316 22T280 138V694H94V722H310V132Q310 16 418 16Q468 16 520 42L532 18Q502 3 477 -4T416 -12ZM374 338Q345 338 326 353T290 388T257 422T219 438Q190 438 178 410T163 340L137 342Q138
363 142 385T156 424T181 453T221 464Q249 464 268 449T304 414T337 380T376 364Q404 364 416 393T431 462L457 460Q455 439 451 418T438 378T413 349T374 338Z" />
<glyph unicode="&#x26c;" glyph-name="uni026C" d="M248 340Q177 340 148 361T118 416Q118 442 138 460T194 478Q227 478 248 466T280 437V694H94V722H310V368H458V340H310V132Q310 16 418 16Q468 16 520 42L532 18Q502 3 477 -4T416 -12Q351 -12 316 22T280 138V340H248ZM242
368H280V378Q280 405 259 427T198 450Q172 450 161 439T150 414Q150 395 169 382T242 368Z" />
<glyph unicode="&#x26d;" glyph-name="uni026D" d="M415 -180Q350 -180 315 -146T280 -30V694H94V722H310V-36Q310 -152 417 -152Q441 -152 465 -146T520 -125L532 -150Q503 -161 477 -170T415 -180Z" />
<glyph unicode="&#x26e;" glyph-name="uni026E" d="M348 -234Q310 -234 280 -228T225 -210T183 -186T150 -159L170 -137Q198 -164 239 -185T350 -206Q383 -206 413 -193T466 -156T502 -99T516 -24Q516 53 474 96T354 140Q325 140 309 136T276 122L254 146L484
450H140V0H110V722H140V478H528V462L302 162Q360 174 406 164T483 128T531 62T548 -22Q548 -73 531 -112T486 -179T421 -220T348 -234Z" />
<glyph unicode="&#x26f;" glyph-name="uni026F" d="M520 478V0H494L490 66H488Q466 30 442 9T377 -12Q336 -12 313 9T280 74Q252 32 227 10T161 -12Q111 -12 85 23T58 130V478H88V134Q88 16 163 16Q198 16 223 40T274 112V478H304V134Q304 16 379 16Q414 16 439
40T490 112V478H520Z" />
<glyph unicode="&#x270;" glyph-name="uni0270" d="M490 -222V-32L494 70H490Q467 29 441 9T377 -12Q336 -12 313 9T280 74Q252 32 227 10T161 -12Q111 -12 85 23T58 130V478H88V134Q88 16 163 16Q198 16 223 40T274 112V478H304V134Q304 16 379 16Q414 16 439
40T490 112V478H520V-222H490Z" />
<glyph unicode="&#x271;" glyph-name="uni0271" d="M444 -180Q429 -180 413 -177T386 -168L394 -142Q403 -145 417 -148T446 -152Q467 -152 480 -144T500 -122T509 -87T512 -44V344Q512 462 437 462Q402 462 377 438T326 366V0H296V344Q296 462 221 462Q186 462
161 438T110 366V0H80V478H106L110 412H112Q134 448 158 469T223 490Q264 490 287 469T320 404Q348 446 373 468T439 490Q489 490 515 455T542 348V-48Q542 -117 518 -148T444 -180Z" />
<glyph unicode="&#x272;" glyph-name="uni0272" d="M52 -180Q40 -180 26 -177T4 -168L12 -142Q20 -145 31 -148T54 -152Q87 -152 98 -124T110 -50V478H136L140 382H144Q165 405 187 425T232 459T281 482T336 490Q424 490 467 444T510 298V0H480V294Q480 379 446
420T336 462Q309 462 286 455T239 434T192 397T140 346V-54Q140 -122 119 -151T52 -180Z" />
<glyph unicode="&#x273;" glyph-name="uni0273" d="M568 -180Q523 -180 502 -151T480 -54V294Q480 379 446 420T336 462Q309 462 286 455T239 434T192 397T140 346V0H110V478H136L140 382H144Q165 405 187 425T232 459T281 482T336 490Q424 490 467 444T510 298V-50Q510
-95 521 -123T566 -152Q578 -152 589 -149T608 -142L616 -168Q608 -173 594 -176T568 -180Z" />
<glyph unicode="&#x274;" glyph-name="uni0274" d="M114 0V478H146L380 150Q397 127 416 99T456 46H460Q458 94 457 139T456 224V478H486V0H454L220 328Q203 351 183 379T144 432H140Q142 384 143 339T144 254V0H114Z" />
<glyph unicode="&#x275;" glyph-name="uni0275" d="M300 -12Q253 -12 211 4T138 51T88 129T70 238Q70 300 88 347T137 426T211 474T300 490Q347 490 389 474T462 427T512 348T530 238Q530 176 512 130T463 52T389 4T300 -12ZM300 462Q260 462 226 449T165 410T122
348T101 266H499Q495 312 478 348T435 409T375 448T300 462ZM300 16Q343 16 379 31T443 75T485 145T500 238H100Q100 186 115 145T157 76T220 32T300 16Z" />
<glyph unicode="&#x276;" glyph-name="uni0276" d="M236 -12Q194 -12 159 5T98 54T58 133T44 240Q44 300 58 346T97 425T158 473T236 490Q257 490 279 488T328 478H572V450H356V266H530V238H356V28H582V0H328Q302 -8 280 -10T236 -12ZM238 16Q258 16 281 21T324
32V446Q304 452 281 457T238 462Q203 462 174 448T122 405T88 336T76 240Q76 186 88 144T122 74T173 31T238 16Z" />
<glyph unicode="&#x278;" glyph-name="uni0278" d="M90 240Q90 190 104 149T144 79T206 34T285 16V462Q242 461 206 445T145 400T105 331T90 240ZM510 240Q510 290 496 330T456 400T394 445T315 462V16Q358 17 394 33T455 79T495 149T510 240ZM285 -222V-10Q237
-9 196 8T124 57T76 135T58 240Q58 299 75 345T124 422T196 470T285 488V722H315V488Q363 487 404 471T476 423T524 345T542 240Q542 181 525 135T476 57T404 8T315 -10V-222H285Z" />
<glyph unicode="&#x279;" glyph-name="uni0279" d="M430 478V0H404L400 120H398Q359 63 301 26T169 -12Q146 -12 121 -8T72 8L82 36Q95 31 106 28T127 22T148 19T173 18Q235 18 291 53T400 172V478H430Z" />
<glyph unicode="&#x27a;" glyph-name="uni027A" d="M169 -12Q146 -12 121 -8T72 8L82 36Q95 31 106 28T127 22T148 19T173 18Q235 18 291 53T400 172V722H430V0H404L400 120H398Q359 63 301 26T169 -12Z" />
<glyph unicode="&#x27b;" glyph-name="uni027B" d="M412 -180Q353 -180 327 -146T300 -34V90H298Q275 46 244 17T162 -12Q139 -12 118 -8T72 8L82 36Q107 27 123 23T166 18Q205 18 238 46T300 146V478H330V-30Q330 -93 347 -122T410 -152Q427 -152 445 -147T478
-136L486 -162Q473 -170 451 -175T412 -180Z" />
<glyph unicode="&#x27d;" glyph-name="uni027D" d="M336 -180Q288 -180 256 -167T205 -128T178 -69T170 8V478H196L200 358H202Q241 415 299 452T431 490Q454 490 479 486T528 470L518 442Q491 452 473 456T427 460Q365 460 309 425T200 306V4Q200 -32 206 -61T227
-110T269 -141T338 -152Q379 -152 409 -145T470 -126L480 -150Q447 -164 414 -172T336 -180Z" />
<glyph unicode="&#x27e;" glyph-name="uni027E" d="M170 0V242Q170 309 190 356T243 433T321 476T416 490Q445 490 473 486T528 470L518 442Q491 453 465 456T414 460Q367 460 328 447T261 406T216 336T200 238V0H170Z" />
<glyph unicode="&#x280;" glyph-name="uni0280" d="M120 0V478H350Q387 478 417 471T470 449T504 410T517 350Q517 316 505 291T473 250T425 226T366 216L528 0H492L331 216H150V0H120ZM150 244H340Q407 244 446 270T485 350Q485 404 446 427T340 450H150V244Z" />
<glyph unicode="&#x281;" glyph-name="uni0281" d="M480 478V0H250Q213 0 183 7T130 29T96 68T83 128Q83 162 95 187T127 228T174 252T234 262L72 478H108L269 262H450V478H480ZM450 234H260Q193 234 154 208T115 128Q115 74 154 51T260 28H450V234Z" />
<glyph unicode="&#x282;" glyph-name="uni0282" d="M184 -180Q134 -180 110 -149T86 -48V64L104 88Q143 56 194 36T324 16Q363 16 392 24T442 47T472 79T482 118Q482 135 477 151T454 181T401 209T306 234Q215 252 165 282T114 366Q114 391 124 413T157 453T214
480T296 490Q342 490 392 474T476 432L458 408Q426 432 386 447T294 462Q252 462 224 454T178 433T153 403T146 368Q146 327 185 304T310 263Q373 250 412 236T474 205T505 167T514 120Q514 94 501 70T464 28T404 -1T322 -12Q259 -12 208 4T116 44V-44Q116 -67
118 -87T128 -121T148 -144T182 -152Q197 -152 211 -149T234 -142L242 -168Q231 -173 215 -176T184 -180Z" />
<glyph unicode="&#x283;" glyph-name="uni0283" d="M188 -234Q156 -234 126 -226T66 -202L80 -176Q104 -187 131 -196T190 -206Q220 -206 239 -195T268 -164T282 -117T286 -58V564Q286 655 319 695T424 736Q452 736 474 728T526 704L514 678Q490 692 469 700T422
708Q389 708 368 697T336 666T320 619T316 560V-62Q316 -153 285 -193T188 -234Z" />
<glyph unicode="&#x284;" glyph-name="uni0284" d="M188 -234Q156 -234 126 -226T66 -202L80 -176Q104 -187 131 -196T190 -206Q220 -206 239 -195T268 -164T282 -117T286 -58V238H88V262L286 266V564Q286 655 319 695T424 736Q452 736 474 728T526 704L514 678Q490
692 469 700T422 708Q389 708 368 697T336 666T320 619T316 560V266H508V238H316V-62Q316 -153 285 -193T188 -234Z" />
<glyph unicode="&#x287;" glyph-name="uni0287" d="M202 490Q250 490 282 477T333 438T360 379T368 302V28H516V4L368 0L364 -160H338V0H76V28H338V306Q338 342 332 371T311 420T269 451T200 462Q161 462 130 455T68 436L58 460Q91 474 124 482T202 490Z" />
<glyph unicode="&#x288;" glyph-name="uni0288" d="M397 -180Q349 -180 318 -167T267 -128T240 -69T232 8V450H84V474L232 478L236 638H262V478H524V450H262V4Q262 -32 268 -61T289 -110T330 -141T399 -152Q439 -152 471 -145T532 -126L542 -150Q510 -164 470
-172T397 -180Z" />
<glyph unicode="&#x289;" glyph-name="uni0289" d="M266 16Q311 16 348 41T430 120V258H150V174Q150 94 177 55T266 16ZM264 -12Q190 -12 155 32T120 170V258H12V282L120 286V478H150V286H430V478H460V286H572V258H460V0H434L430 82H428Q392 40 353 14T264 -12Z" />
<glyph unicode="&#x28a;" glyph-name="uni028A" d="M300 -12Q246 -12 204 6T132 56T87 129T72 216Q72 259 82 294T107 357T142 408T180 448V450H60V478H232V458Q206 440 183 417T142 365T114 300T104 222Q104 181 117 144T154 79T215 33T300 16Q348 16 384 33T445
78T483 144T496 222Q496 264 486 299T459 364T418 417T368 458V478H540V450H420V448Q438 431 457 409T492 358T518 294T528 216Q528 171 513 130T469 57T397 7T300 -12Z" />
<glyph unicode="&#x28b;" glyph-name="uni028B" d="M296 -12Q254 -12 217 -1T152 36T107 102T90 201V478H120V211Q120 158 134 121T173 60T230 27T297 16Q345 16 382 37T445 94T484 179T498 282Q498 368 470 415T384 462Q375 462 369 462T359 460T350 458T338
454L328 482Q342 486 353 488T388 490Q457 490 493 440T530 286Q530 224 515 170T471 75T397 11T296 -12Z" />
<glyph unicode="&#x28c;" glyph-name="uni028C" d="M314 478L534 0H502L362 310Q345 346 330 380T300 446H296Q282 414 268 380T236 310L96 0H66L284 478H314Z" />
<glyph unicode="&#x28d;" glyph-name="uni028D" d="M458 478L588 0H554L471 322Q463 355 455 385T440 448H436Q428 416 420 386T403 322L320 0H278L195 322Q187 355 179 385T162 448H158Q150 416 142 386T126 322L44 0H12L140 478H182L264 166Q273 131 280 98T298
30H302Q310 65 317 99T336 168L416 478H458Z" />
<glyph unicode="&#x28e;" glyph-name="uni028E" d="M64 0L310 580Q319 608 334 635T372 685T421 720T484 734Q498 734 512 732T538 724L528 696Q519 699 507 701T481 704Q454 704 432 694T392 665T360 622T334 568L300 490L536 0H504L356 314Q342 344 324 380T288
448H284Q269 416 254 380T226 314L94 0H64Z" />
<glyph unicode="&#x28f;" glyph-name="uni028F" d="M286 0V176L76 478H112L222 316Q242 287 262 261T300 204H304Q321 234 340 260T380 316L490 478H526L316 176V0H286Z" />
<glyph unicode="&#x290;" glyph-name="uni0290" d="M560 -180Q515 -180 494 -151T472 -54V0H72V16L454 450H114V478H502V462L120 28H502V-50Q502 -95 513 -123T558 -152Q570 -152 581 -149T600 -142L608 -168Q600 -173 586 -176T560 -180Z" />
<glyph unicode="&#x291;" glyph-name="uni0291" d="M346 -120L316 -114Q328 -50 343 0H72V16L464 450H114V478H512V462L120 28H352Q380 108 415 143T492 178Q530 178 550 157T570 100Q570 58 535 29T432 0H372Q364 -25 358 -55T346 -120ZM490 150Q463 150 434
122T381 28H438Q488 28 514 50T540 100Q540 121 529 135T490 150Z" />
<glyph unicode="&#x292;" glyph-name="uni0292" d="M292 -234Q248 -234 214 -226T152 -203T104 -173T64 -139L84 -116Q101 -133 121 -149T166 -178T222 -198T294 -206Q333 -206 368 -193T431 -155T474 -96T490 -20Q490 60 439 106T286 152Q268 152 255 150T229
145T205 135T178 122L158 148L452 450H110V478H502V462L214 167Q240 175 261 177T296 180Q405 180 463 129T522 -18Q522 -70 502 -110T450 -178T377 -220T292 -234Z" />
<glyph unicode="&#x294;" glyph-name="uni0294" d="M266 0V310Q315 336 352 361T414 414T451 473T464 544Q464 616 420 661T292 706Q257 706 230 699T180 678T140 649T108 616L88 638Q103 655 122 672T165 703T221 725T290 734Q334 734 371 722T437 685T480 624T496
542Q496 496 481 460T439 395T376 339T296 288V0H266Z" />
<glyph unicode="&#x295;" glyph-name="uni0295" d="M304 0V288Q261 313 225 339T161 394T119 460T104 542Q104 588 119 624T163 684T228 721T310 734Q348 734 379 726T434 703T478 672T512 638L492 616Q478 633 461 649T421 678T370 698T308 706Q224 706 180 661T136
544Q136 505 148 474T186 414T248 361T334 310V0H304Z" />
<glyph unicode="&#x298;" glyph-name="uni0298" d="M300 -12Q245 -12 203 9T131 76T86 193T70 364Q70 452 85 520T130 636T202 709T300 734Q355 734 397 709T469 637T514 521T530 364Q530 264 515 193T470 77T398 10T300 -12ZM300 16Q343 16 379 35T442 96T483
204T498 364Q498 447 484 511T443 618T380 684T300 706Q256 706 220 684T158 619T117 511T102 364Q102 270 116 204T157 96T220 35T300 16ZM300 308Q279 308 263 323T246 364Q246 391 262 405T300 420Q321 420 337 406T354 364Q354 339 338 324T300 308Z" />
<glyph unicode="&#x299;" glyph-name="uni0299" d="M120 0V478H338Q419 478 464 450T510 361Q510 337 503 320T485 291T458 270T425 256V253Q444 248 463 240T498 217T522 183T532 136Q532 67 482 34T342 0H120ZM150 266H319Q405 266 441 291T478 359Q478 403
443 426T329 450H150V266ZM150 28H332Q500 28 500 137Q500 186 455 212T324 238H150V28Z" />
<glyph unicode="&#x29c;" glyph-name="uni029C" d="M110 0V478H140V266H460V478H490V0H460V238H140V0H110Z" />
<glyph unicode="&#x29d;" glyph-name="uni029D" d="M422 -268Q402 -238 383 -215T343 -174Q321 -203 286 -218T198 -234Q139 -234 110 -209T80 -152Q80 -120 105 -100T180 -80Q217 -80 256 -92T333 -130Q341 -113 343 -95T346 -58V450H100V478H376V-52Q376 -110
357 -149Q405 -189 446 -254L422 -268ZM200 -206Q246 -206 274 -192T319 -155Q283 -129 248 -119T180 -108Q145 -108 129 -121T112 -154Q112 -177 135 -191T200 -206ZM350 600Q333 600 322 611T310 642Q310 662 321 673T350 684Q367 684 378 673T390 642Q390 622
379 611T350 600Z" />
<glyph unicode="&#x29e;" glyph-name="uni029E" d="M440 -222V302H436L80 0H38L265 192L72 478H106L287 211L440 340V478H470V-222H440Z" />
<glyph unicode="&#x29f;" glyph-name="uni029F" d="M170 0V478H200V28H528V0H170Z" />
<glyph unicode="&#x2a1;" glyph-name="uni02A1" d="M266 0V286H90V310L166 314H276Q318 337 352 362T412 415T450 475T464 544Q464 616 421 661T292 706Q257 706 230 698T180 678T140 649T108 616L88 638Q103 654 122 671T165 702T221 725T290 734Q334 734 372
722T437 685T480 624T496 542Q496 500 483 467T447 407T394 358T332 314H500V286H296V0H266Z" />
<glyph unicode="&#x2a2;" glyph-name="uni02A2" d="M306 0V286H102V310L178 314H270Q238 335 208 357T156 407T120 467T106 542Q106 588 121 624T164 684T230 721T312 734Q350 734 381 725T436 703T480 672T514 638L494 616Q480 632 463 648T423 677T372 698T310
706Q225 706 182 661T138 544Q138 507 151 476T190 416T249 362T326 314H512V286H336V0H306Z" />
<glyph unicode="&#x2a4;" glyph-name="uni02A4" d="M164 16Q200 16 228 43T280 110V386Q257 421 233 441T176 462Q147 462 123 445T80 397T52 325T42 238Q42 188 50 148T74 78T112 32T164 16ZM468 -234Q411 -234 378 -215T320 -169L340 -147Q352 -159 364 -170T392
-189T426 -201T470 -206Q518 -206 552 -160T586 -24Q586 53 553 96T462 140Q441 140 427 135T396 120L376 146L554 450H310V0H284L280 74H278Q271 59 260 44T234 16T201 -4T162 -12Q94 -12 52 52T10 238Q10 296 24 342T61 422T114 472T178 490Q214 490 239 469T280
420H282L280 520V722H310V478H598V462L420 162Q445 168 464 168Q535 168 576 118T618 -22Q618 -77 605 -117T571 -183T523 -221T468 -234Z" />
<glyph unicode="&#x2a6;" glyph-name="uni02A6" d="M325 -12Q264 -12 224 -1T159 32T126 87T116 166V450H40V474L116 478L120 638H146V478H364Q392 490 428 490Q463 490 491 478T544 444L526 422Q505 440 482 451T426 462Q388 462 365 443T342 386Q342 355 357
337T397 304T448 276T499 243T538 196T554 122Q554 90 542 66T502 24T432 -3T325 -12ZM322 16Q378 16 416 23T478 44T512 77T522 120Q522 160 507 185T467 227T416 258T365 288T326 326T310 384Q310 425 329 450H146V162Q146 124 153 97T180 51T234 25T322 16Z"
/>
<glyph unicode="&#x2a7;" glyph-name="uni02A7" d="M340 -234Q325 -234 309 -231T282 -222L290 -196Q299 -199 313 -202T342 -206Q363 -206 376 -198T396 -176T405 -141T408 -98V450H188V122Q188 99 191 80T204 46T229 24T272 16Q286 16 303 21T334 32L344 6Q323
-2 303 -7T270 -12Q237 -12 216 -2T181 26T163 69T158 126V450H82V474L158 478L162 638H188V478H408V604Q408 673 434 704T516 736Q529 736 542 733T564 724L556 698Q548 701 537 704T514 708Q490 708 475 700T452 678T441 643T438 600V-102Q438 -171 414 -202T340
-234Z" />
<glyph unicode="&#x2b0;" glyph-name="h.sups" d="M190 410V884H222V746L220 670Q249 698 277 716T343 734Q453 734 453 612V410H421V608Q421 658 402 682T337 706Q305 706 280 690T222 642V410H190Z" />
<glyph unicode="&#x2b2;" glyph-name="j.sups" d="M228 259Q206 259 185 265T146 281L158 306Q173 298 192 293T229 287Q284 287 303 313T323 383V699H168V726H354V387Q354 328 327 294T228 259ZM332 803Q318 803 309 811T299 835Q299 850 308 859T332 868Q346
868 355 859T364 835Q364 820 355 812T332 803Z" />
<glyph unicode="&#x2b3;" glyph-name="r.sups" d="M267 410V726H294L297 648H299Q322 686 356 710T432 734Q449 734 465 732T496 721L489 693Q471 699 459 701T428 704Q393 704 360 682T299 604V410H267Z" />
<glyph unicode="&#x2b7;" glyph-name="w.sups" d="M158 410L64 725H96L152 522L176 436H180L204 522L260 725H294L352 522L376 436H380L406 522L460 725H490L396 410H358L304 604L278 695H276L252 604L196 410H158Z" />
<glyph unicode="&#x2b8;" glyph-name="y.sups" d="M192 266Q172 266 155 273L163 300Q169 298 176 297T192 295Q225 295 247 318T284 377L294 405L148 726H181L268 530Q277 510 287 487T307 441H310Q319 462 327 486T343 530L420 726H452L311 372Q303 352 293
333T268 299T235 275T192 266Z" />
<glyph unicode="&#x2b9;" glyph-name="uni02B9" d="M278 498L302 694H330L322 630L298 498H278Z" />
<glyph unicode="&#x2bb;" glyph-name="uni02BB" d="M298 398Q272 398 251 421T230 487Q230 557 263 613T348 700L366 676Q323 646 297 602T268 500Q285 512 300 512Q324 512 339 496T354 456Q354 431 339 415T298 398Z" />
<glyph unicode="&#x2bc;" glyph-name="uni02BC" d="M248 398L230 422Q273 452 299 496T328 598Q311 586 296 586Q272 586 257 602T242 642Q242 667 257 683T298 700Q324 700 345 677T366 611Q366 541 333 485T248 398Z" />
<glyph unicode="&#x2be;" glyph-name="uni02BE" d="M230 538V564Q295 564 331 595T368 680Q368 734 332 765T230 796V822Q307 825 353 787T400 680Q400 611 354 573T230 538Z" />
<glyph unicode="&#x2bf;" glyph-name="uni02BF" d="M370 538Q293 535 247 573T200 680Q200 749 246 787T370 822V796Q305 796 269 765T232 680Q232 626 268 595T370 564V538Z" />
<glyph unicode="&#x2c1;" glyph-name="uni02C1" d="M300 428V528Q274 543 251 560T209 597T181 642T170 697Q170 727 182 750T214 789T260 813T315 822Q360 822 391 804T442 764L422 744Q402 764 377 779T315 794Q264 794 233 768T202 698Q202 650 236 613T330
546V428H300Z" />
<glyph unicode="&#x2c6;" glyph-name="circumflex" d="M186 574L168 590L286 736H314L432 590L414 574L302 704H298L186 574Z" />
<glyph unicode="&#x2c7;" glyph-name="caron" d="M286 572L168 718L186 734L298 604H302L414 734L432 718L314 572H286Z" />
<glyph unicode="&#x2c8;" glyph-name="uni02C8" d="M286 412L269 696H331L314 412H286Z" />
<glyph unicode="&#x2c9;" glyph-name="uni02C9" d="M180 608V636H420V608H180Z" />
<glyph unicode="&#x2ca;" glyph-name="uni02CA" d="M266 574L248 590L380 746L404 724L266 574Z" />
<glyph unicode="&#x2cb;" glyph-name="uni02CB" d="M334 574L196 724L220 746L352 590L334 574Z" />
<glyph unicode="&#x2cc;" glyph-name="uni02CC" d="M269 -244L286 40H314L331 -244H269Z" />
<glyph unicode="&#x2d0;" glyph-name="uni02D0" d="M232 0L296 116H304L368 0H232ZM296 364L232 478H368L304 364H296Z" />
<glyph unicode="&#x2d1;" glyph-name="uni02D1" d="M296 364L232 478H368L304 364H296Z" />
<glyph unicode="&#x2d8;" glyph-name="breve" d="M300 570Q262 570 236 584T192 619T166 667T154 716L180 720Q183 698 191 676T215 636T251 607T300 596Q328 596 349 607T385 636T408 676T420 720L446 716Q443 693 434 667T408 620T365 584T300 570Z" />
<glyph unicode="&#x2d9;" glyph-name="dotaccent" d="M300 600Q283 600 272 611T260 642Q260 662 271 673T300 684Q317 684 328 673T340 642Q340 622 329 611T300 600Z" />
<glyph unicode="&#x2da;" glyph-name="ring" d="M300 570Q259 570 234 595T208 660Q208 699 233 724T300 750Q341 750 366 725T392 660Q392 621 367 596T300 570ZM300 592Q329 592 348 611T368 660Q368 689 349 708T300 728Q271 728 252 709T232 660Q232 631 251
612T300 592Z" />
<glyph unicode="&#x2db;" glyph-name="ogonek" d="M314 -224Q274 -224 248 -203T222 -136Q222 -114 229 -94T249 -57T278 -25T312 4H350Q306 -26 279 -60T252 -134Q252 -166 271 -181T316 -196Q336 -196 349 -189T374 -170L392 -188Q377 -203 360 -213T314 -224Z" />
<glyph unicode="&#x2dc;" glyph-name="tilde" d="M377 580Q348 580 329 595T293 630T260 664T222 680Q193 680 181 652T166 582L140 584Q141 605 145 627T159 666T184 695T224 706Q252 706 271 691T307 656T340 622T379 606Q407 606 419 635T434 704L460 702Q458
681 454 660T441 620T416 591T377 580Z" />
<glyph unicode="&#x2dd;" glyph-name="hungarumlaut" d="M240 570L220 580L306 746L332 730L240 570ZM368 570L348 580L434 746L460 730L368 570Z" />
<glyph unicode="&#x2de;" glyph-name="uni02DE" d="M324 233Q295 233 275 255T246 328L158 296V324L270 367Q274 333 279 312T292 280T307 265T327 261Q339 261 348 266T364 278L380 256Q370 248 357 241T324 233Z" />
<glyph unicode="&#x2e0;" glyph-name="uni02E0" d="M300 258Q268 258 254 275T240 322Q240 345 251 371T280 433L158 727H192L265 535Q273 512 281 492T298 450H301Q309 472 317 492T334 535L408 727H440L318 432Q337 395 347 370T358 322Q358 293 345 276T300
258ZM300 283Q317 283 323 294T330 320Q330 340 322 364T301 412H298Q284 388 276 363T268 320Q268 305 275 294T300 283Z" />
<glyph unicode="&#x2e1;" glyph-name="l.sups" d="M383 402Q341 402 320 426T299 501V857H207V884H331V497Q331 430 388 430Q401 430 413 432T443 441L451 415Q434 410 419 406T383 402Z" />
<glyph unicode="&#x2e2;" glyph-name="s.sups" d="M315 402Q271 402 236 415T175 446L192 469Q216 450 245 440T317 429Q365 429 389 447T413 490Q413 505 405 515T382 534T351 548T317 559Q295 566 273 573T232 591T203 615T192 650Q192 685 223 709T315 734Q345
734 373 725T424 701L407 679Q387 692 365 700T314 708Q266 708 245 691T223 652Q223 639 231 630T252 613T281 600T315 589Q338 582 361 575T402 557T432 531T444 492Q444 456 411 429T315 402Z" />
<glyph unicode="&#x2e3;" glyph-name="x.sups" d="M188 410L298 576L197 726H232L284 648Q292 634 300 622T318 596H321Q329 609 337 621T355 648L404 726H438L337 573L447 410H412L355 495Q346 510 337 524T316 553H314Q304 539 295 525T276 495L221 410H188Z" />
<glyph unicode="&#x2e4;" glyph-name="uni02E4" d="M300 410V598Q274 613 251 630T209 667T181 712T170 767Q170 797 182 820T214 859T260 883T315 892Q360 892 391 874T442 834L422 814Q402 834 377 849T315 864Q264 864 233 838T202 768Q202 720 236 683T330
616V410H300Z" />
<glyph unicode="&#x300;" glyph-name="uni0300" d="M334 574L196 724L220 746L352 590L334 574Z" />
<glyph unicode="&#x301;" glyph-name="uni0301" d="M266 574L248 590L380 746L404 724L266 574Z" />
<glyph unicode="&#x302;" glyph-name="uni0302" d="M186 574L168 590L286 736H314L432 590L414 574L302 704H298L186 574Z" />
<glyph unicode="&#x303;" glyph-name="uni0303" d="M377 580Q348 580 329 595T293 630T260 664T222 680Q193 680 181 652T166 582L140 584Q141 605 145 627T159 666T184 695T224 706Q252 706 271 691T307 656T340 622T379 606Q407 606 419 635T434 704L460 702Q458
681 454 660T441 620T416 591T377 580Z" />
<glyph unicode="&#x304;" glyph-name="uni0304" d="M180 608V636H420V608H180Z" />
<glyph unicode="&#x305;" glyph-name="uni0305" d="M180 608V636H420V608H180Z" />
<glyph unicode="&#x306;" glyph-name="uni0306" d="M300 570Q262 570 236 584T192 619T166 667T154 716L180 720Q183 698 191 676T215 636T251 607T300 596Q328 596 349 607T385 636T408 676T420 720L446 716Q443 693 434 667T408 620T365 584T300 570Z" />
<glyph unicode="&#x307;" glyph-name="uni0307" d="M300 600Q283 600 272 611T260 642Q260 662 271 673T300 684Q317 684 328 673T340 642Q340 622 329 611T300 600Z" />
<glyph unicode="&#x308;" glyph-name="uni0308" d="M214 602Q199 602 190 612T180 638Q180 653 189 663T214 674Q229 674 238 664T248 638Q248 623 239 613T214 602ZM386 602Q371 602 362 612T352 638Q352 653 361 663T386 674Q401 674 410 664T420 638Q420 623
411 613T386 602Z" />
<glyph unicode="&#x309;" glyph-name="uni0309" d="M278 576L270 600Q299 609 317 622T336 658Q336 682 314 694T250 708L252 734Q274 733 294 729T331 716T356 694T366 662Q366 643 359 630T339 606T310 588T278 576Z" />
<glyph unicode="&#x30a;" glyph-name="uni030A" d="M300 570Q259 570 234 595T208 660Q208 699 233 724T300 750Q341 750 366 725T392 660Q392 621 367 596T300 570ZM300 592Q329 592 348 611T368 660Q368 689 349 708T300 728Q271 728 252 709T232 660Q232 631
251 612T300 592Z" />
<glyph unicode="&#x30b;" glyph-name="uni030B" d="M240 570L220 580L306 746L332 730L240 570ZM368 570L348 580L434 746L460 730L368 570Z" />
<glyph unicode="&#x30c;" glyph-name="uni030C" d="M286 572L168 718L186 734L298 604H302L414 734L432 718L314 572H286Z" />
<glyph unicode="&#x30f;" glyph-name="uni030F" d="M232 570L140 730L166 746L252 580L232 570ZM360 570L268 730L294 746L380 580L360 570Z" />
<glyph unicode="&#x310;" glyph-name="uni0310" d="M300 570Q262 570 236 584T192 619T166 667T154 716L180 720Q183 698 191 676T215 636T251 607T300 596Q328 596 349 607T385 636T408 676T420 720L446 716Q443 693 434 667T408 620T365 584T300 570ZM300 700Q283
700 272 711T260 742Q260 762 271 773T300 784Q317 784 328 773T340 742Q340 722 329 711T300 700Z" />
<glyph unicode="&#x311;" glyph-name="uni0311" d="M180 570L154 574Q157 597 166 623T192 670T235 706T300 720Q338 720 364 706T408 671T434 623T446 574L420 570Q417 592 409 614T385 654T349 683T300 694Q272 694 251 683T215 654T192 614T180 570Z" />
<glyph unicode="&#x312;" glyph-name="uni0312" d="M298 546Q260 546 260 604Q260 634 275 663T326 712L340 690Q311 673 300 653T288 609Q291 610 296 610Q307 610 317 604T328 580Q328 562 319 554T298 546Z" />
<glyph unicode="&#x313;" glyph-name="uni0313" d="M274 546L260 568Q289 585 300 605T312 649Q309 648 304 648Q293 648 283 654T272 678Q272 696 281 704T302 712Q340 712 340 654Q340 624 325 595T274 546Z" />
<glyph unicode="&#x318;" glyph-name="uni0318" d="M346 -242V-166H234V-138H346V-62H374V-242H346Z" />
<glyph unicode="&#x319;" glyph-name="uni0319" d="M226 -242V-62H254V-138H366V-166H254V-242H226Z" />
<glyph unicode="&#x31a;" glyph-name="uni031A" d="M346 572V678H234V706H374V572H346Z" />
<glyph unicode="&#x31b;" glyph-name="uni031B" d="M298 440L292 466Q343 474 366 498T390 556Q390 570 387 581T376 610L404 626Q413 606 417 592T422 558Q422 508 387 479T298 440Z" />
<glyph unicode="&#x31c;" glyph-name="uni031C" d="M358 -256Q305 -258 274 -235T242 -166Q242 -121 273 -98T358 -76V-96Q317 -96 295 -115T272 -166Q272 -198 294 -217T358 -236V-256Z" />
<glyph unicode="&#x31d;" glyph-name="uni031D" d="M194 -196V-168H286V-62H314V-168H406V-196H194Z" />
<glyph unicode="&#x31e;" glyph-name="uni031E" d="M286 -242V-136H194V-108H406V-136H314V-242H286Z" />
<glyph unicode="&#x31f;" glyph-name="uni031F" d="M286 -242V-166H194V-138H286V-62H314V-138H406V-166H314V-242H286Z" />
<glyph unicode="&#x320;" glyph-name="uni0320" d="M194 -146V-118H406V-146H194Z" />
<glyph unicode="&#x323;" glyph-name="uni0323" d="M300 -189Q283 -189 272 -178T260 -147Q260 -127 271 -116T300 -105Q317 -105 328 -116T340 -147Q340 -167 329 -178T300 -189Z" />
<glyph unicode="&#x324;" glyph-name="uni0324" d="M214 -187Q199 -187 190 -177T180 -151Q180 -136 189 -126T214 -115Q229 -115 238 -125T248 -151Q248 -166 239 -176T214 -187ZM386 -187Q371 -187 362 -177T352 -151Q352 -136 361 -126T386 -115Q401 -115 410
-125T420 -151Q420 -166 411 -176T386 -187Z" />
<glyph unicode="&#x325;" glyph-name="uni0325" d="M300 -233Q259 -233 234 -208T208 -143Q208 -104 233 -79T300 -53Q341 -53 366 -78T392 -143Q392 -182 367 -207T300 -233ZM300 -211Q329 -211 348 -192T368 -143Q368 -114 349 -95T300 -75Q271 -75 252 -94T232
-143Q232 -172 251 -191T300 -211Z" />
<glyph unicode="&#x326;" glyph-name="uni0326" d="M226 -216L220 -190Q286 -185 310 -172T334 -136Q334 -112 313 -102T256 -88L266 -62Q320 -71 342 -86T364 -134Q364 -172 329 -191T226 -216Z" />
<glyph unicode="&#x327;" glyph-name="uni0327" d="M226 -216L220 -190Q286 -185 310 -172T334 -136Q334 -113 316 -102T256 -84L288 6H316L294 -66Q326 -74 345 -89T364 -134Q364 -172 329 -191T226 -216Z" />
<glyph unicode="&#x328;" glyph-name="uni0328" d="M314 -224Q274 -224 248 -203T222 -136Q222 -114 229 -94T249 -57T278 -25T312 4H350Q306 -26 279 -60T252 -134Q252 -166 271 -181T316 -196Q336 -196 349 -189T374 -170L392 -188Q377 -203 360 -213T314 -224Z" />
<glyph unicode="&#x329;" glyph-name="uni0329" d="M284 -264L290 -76H310L316 -264H284Z" />
<glyph unicode="&#x32a;" glyph-name="uni032A" d="M184 -230V-86H416V-230H390V-114H210V-230H184Z" />
<glyph unicode="&#x32c;" glyph-name="uni032C" d="M286 -221L168 -75L186 -59L298 -189H302L414 -59L432 -75L314 -221H286Z" />
<glyph unicode="&#x32e;" glyph-name="uni032E" d="M300 -229Q262 -229 236 -215T192 -180T166 -132T154 -83L180 -79Q183 -101 191 -123T215 -163T251 -192T300 -203Q328 -203 349 -192T385 -163T408 -123T420 -79L446 -83Q443 -106 434 -132T408 -179T365 -215T300
-229Z" />
<glyph unicode="&#x32f;" glyph-name="uni032F" d="M180 -229L154 -225Q157 -202 166 -176T192 -129T235 -93T300 -79Q338 -79 364 -93T408 -128T434 -176T446 -225L420 -229Q417 -207 409 -185T385 -145T349 -116T300 -105Q272 -105 251 -116T215 -145T192 -185T180
-229Z" />
<glyph unicode="&#x330;" glyph-name="uni0330" d="M377 -219Q348 -219 329 -204T293 -169T260 -135T222 -119Q193 -119 181 -147T166 -217L140 -215Q141 -194 145 -172T159 -133T184 -104T224 -93Q252 -93 271 -108T307 -143T340 -177T379 -193Q407 -193 419
-164T434 -95L460 -97Q458 -118 454 -139T441 -179T416 -208T377 -219Z" />
<glyph unicode="&#x331;" glyph-name="uni0331" d="M180 -155V-127H420V-155H180Z" />
<glyph unicode="&#x334;" glyph-name="uni0334" d="M377 178Q348 178 329 193T293 228T260 262T222 278Q193 278 181 250T166 180L140 182Q141 203 145 225T159 264T184 293T224 304Q252 304 271 289T307 254T340 220T379 204Q407 204 419 233T434 302L460 300Q458
279 454 258T441 218T416 189T377 178Z" />
<glyph unicode="&#x339;" glyph-name="uni0339" d="M242 -256V-236Q283 -236 305 -217T328 -166Q328 -134 306 -115T242 -96V-76Q295 -74 326 -97T358 -166Q358 -211 327 -234T242 -256Z" />
<glyph unicode="&#x33a;" glyph-name="uni033A" d="M184 -234V-90H210V-206H390V-90H416V-234H184Z" />
<glyph unicode="&#x33b;" glyph-name="uni033B" d="M184 -234V-86H416V-234H184ZM210 -206H390V-114H210V-206Z" />
<glyph unicode="&#x33c;" glyph-name="uni033C" d="M174 -224L148 -222Q147 -146 169 -115T230 -84Q254 -84 273 -97T299 -145H301Q307 -110 326 -97T370 -84Q408 -84 430 -115T452 -222L426 -224Q426 -189 422 -167T411 -131T392 -113T368 -108Q342 -108 328
-132T314 -208V-224H286V-208Q286 -157 272 -133T232 -108Q219 -108 208 -113T190 -131T178 -166T174 -224Z" />
<glyph unicode="&#x33d;" glyph-name="uni033D" d="M240 564L222 582L282 640L222 698L240 716L300 656L360 716L378 698L318 640L378 582L360 564L300 624L240 564Z" />
<glyph unicode="&#x342;" glyph-name="uni0342" d="M377 580Q348 580 329 595T293 630T260 664T222 680Q193 680 181 652T166 582L140 584Q141 605 145 627T159 666T184 695T224 706Q252 706 271 691T307 656T340 622T379 606Q407 606 419 635T434 704L460 702Q458
681 454 660T441 620T416 591T377 580Z" />
<glyph unicode="&#x345;" glyph-name="uni0345" d="M336 -188Q313 -188 300 -174T286 -124V-68H316Q315 -82 315 -99T314 -130Q314 -145 321 -152T338 -160Q343 -160 347 -160T364 -156L370 -182Q361 -185 355 -186T336 -188Z" />
<glyph unicode="&#x35f;" glyph-name="uni035F" d="M-180 -156V-128H780V-156H-180Z" />
<glyph unicode="&#x361;" glyph-name="uni0361" d="M-140 612L-152 632Q-52 694 57 728T300 762Q433 762 542 728T752 632L740 612Q645 672 533 703T300 734Q179 734 67 703T-140 612Z" />
<glyph unicode="&#x374;" glyph-name="uni0374" d="M278 498L302 694H330L322 630L298 498H278Z" />
<glyph unicode="&#x375;" glyph-name="uni0375" d="M270 0L278 64L302 196H322L298 0H270Z" />
<glyph unicode="&#x37a;" glyph-name="uni037A" d="M336 -188Q313 -188 300 -174T286 -124V-68H316Q315 -82 315 -99T314 -130Q314 -145 321 -152T338 -160Q343 -160 347 -160T364 -156L370 -182Q361 -185 355 -186T336 -188Z" />
<glyph unicode="&#x37e;" glyph-name="uni037E" d="M300 374Q280 374 264 388T248 432Q248 461 264 475T300 490Q320 490 336 476T352 432Q352 403 336 389T300 374ZM221 -210L208 -185Q268 -154 298 -110T331 3Q320 -1 307 -1Q283 -1 268 11T253 52Q253 81 269
93T306 106Q337 106 353 81T369 13Q369 -69 328 -124T221 -210Z" />
<glyph unicode="&#x384;" glyph-name="tonos" d="M304 560L280 566L338 774L376 764L304 560Z" />
<glyph unicode="&#x385;" glyph-name="dieresistonos" d="M202 604Q187 604 178 612T168 634Q168 649 177 658T202 668Q217 668 226 659T236 634Q236 620 227 612T202 604ZM266 566L324 774L362 764L290 560L266 566ZM398 604Q383 604 374 612T364 634Q364 649
373 658T398 668Q413 668 422 659T432 634Q432 620 423 612T398 604Z" />
<glyph unicode="&#x386;" glyph-name="Alphatonos" d="M222 396L175 264H424L378 396Q357 456 339 510T302 626H298Q280 564 262 510T222 396ZM50 0L286 660H314L550 0H516L434 236H165L82 0H50ZM90 424L64 428L92 690L134 686L90 424Z" />
<glyph unicode="&#x387;" glyph-name="anoteleia" d="M300 378Q280 378 264 392T248 436Q248 465 264 479T300 494Q320 494 336 480T352 436Q352 407 336 393T300 378Z" />
<glyph unicode="&#x388;" glyph-name="Epsilontonos" d="M192 0V660H516V632H224V366H460V338H224V28H526V0H192ZM70 424L44 428L72 690L114 686L70 424Z" />
<glyph unicode="&#x389;" glyph-name="Etatonos" d="M192 0V660H224V366H476V660H508V0H476V338H224V0H192ZM70 424L44 428L72 690L114 686L70 424Z" />
<glyph unicode="&#x38a;" glyph-name="Iotatonos" d="M172 0V28H314V632H172V660H488V632H346V28H488V0H172ZM70 424L44 428L72 690L114 686L70 424Z" />
<glyph unicode="&#x38c;" glyph-name="Omicrontonos" d="M344 -12Q300 -12 264 11T201 78T159 186T144 332Q144 414 159 477T200 583T263 649T344 672Q387 672 424 650T487 584T529 477T544 332Q544 250 529 186T488 78T424 11T344 -12ZM344 18Q418 18 464 99T510
332Q510 483 464 562T344 642Q269 642 224 563T178 332Q178 181 223 100T344 18ZM70 424L44 428L72 690L114 686L70 424Z" />
<glyph unicode="&#x38e;" glyph-name="Upsilontonos" d="M364 0V245L176 660H208L308 434Q327 392 344 354T380 278H384Q401 316 418 356T452 434L554 660H584L396 245V0H364ZM90 424L64 428L92 690L134 686L90 424Z" />
<glyph unicode="&#x38f;" glyph-name="Omegatonos" d="M132 0V28H244V32Q194 99 169 176T144 356Q144 423 158 481T197 581T259 648T342 672Q388 672 424 648T486 582T526 481T540 356Q540 254 515 177T440 32V28H552V0H396V24Q447 80 476 162T506 358Q506 418
495 470T463 560T412 620T342 642Q303 642 273 620T221 560T189 470T178 358Q178 245 207 163T288 24V0H132ZM70 424L44 428L72 690L114 686L70 424Z" />
<glyph unicode="&#x390;" glyph-name="iotadieresistonos" d="M406 -12Q346 -12 313 22T280 138V450H96V478H310Q310 391 309 305T308 132Q308 16 408 16Q429 16 451 21T500 38L512 14Q486 2 462 -5T406 -12ZM445 604Q430 604 421 612T411 634Q411 649 420 658T445
668Q460 668 469 659T479 634Q479 620 470 612T445 604ZM509 566L567 774L605 764L533 560L509 566ZM641 604Q626 604 617 612T607 634Q607 649 616 658T641 668Q656 668 665 659T675 634Q675 620 666 612T641 604Z" />
<glyph unicode="&#x391;" glyph-name="Alpha" d="M222 396L175 264H424L378 396Q357 456 339 510T302 626H298Q280 564 262 510T222 396ZM50 0L286 660H314L550 0H516L434 236H165L82 0H50Z" />
<glyph unicode="&#x392;" glyph-name="Beta" d="M120 0V660H280Q383 660 437 621T492 500Q492 447 463 409T375 356V352Q449 341 491 301T534 192Q534 97 471 49T292 0H120ZM152 366H260Q368 366 414 400T460 500Q460 571 413 601T266 632H152V366ZM152 28H280Q387
28 444 66T502 190Q502 265 445 301T280 338H152V28Z" />
<glyph unicode="&#x393;" glyph-name="Gamma" d="M156 0V660H534V632H188V0H156Z" />
<glyph unicode="&#x394;" glyph-name="uni0394" d="M53 0V18L285 660H315L547 18V0H53ZM89 28H511L381 392Q361 449 342 504T303 622H299Q277 560 258 505T219 392L89 28Z" />
<glyph unicode="&#x395;" glyph-name="Epsilon" d="M132 0V660H516V632H164V366H460V338H164V28H526V0H132Z" />
<glyph unicode="&#x396;" glyph-name="Zeta" d="M72 0V19L488 634H107V661H526V642L109 28H533V0H72Z" />
<glyph unicode="&#x397;" glyph-name="Eta" d="M92 0V660H124V366H476V660H508V0H476V338H124V0H92Z" />
<glyph unicode="&#x398;" glyph-name="Theta" d="M300 -12Q247 -12 202 12T125 82T74 190T56 332Q56 410 74 473T124 580T202 648T300 672Q353 672 398 648T475 580T526 473T544 332Q544 254 526 191T476 82T398 13T300 -12ZM300 18Q347 18 385 40T452 104T495
203T510 332Q510 403 495 460T452 558T386 620T300 642Q253 642 215 621T148 559T105 461T90 332Q90 261 105 203T148 104T214 41T300 18ZM176 338V366H424V338H176Z" />
<glyph unicode="&#x399;" glyph-name="Iota" d="M112 0V28H284V632H112V660H488V632H316V28H488V0H112Z" />
<glyph unicode="&#x39a;" glyph-name="Kappa" d="M122 0V660H154V280H156L500 660H539L322 420L568 0H530L299 395L154 234V0H122Z" />
<glyph unicode="&#x39b;" glyph-name="Lambda" d="M65 0L283 660H315L535 0H501L373 396Q363 427 355 454T338 507T320 561T301 619H297Q286 589 278 562T261 508T244 454T225 396L97 0H65Z" />
<glyph unicode="&#x39c;" glyph-name="Mu" d="M84 0V660H130L254 340L298 222H302L344 340L470 660H516V0H484V495Q484 526 485 559T487 623H484L448 516L313 176H286L152 516L113 623H111Q112 592 113 559T115 495V0H84Z" />
<glyph unicode="&#x39d;" glyph-name="Nu" d="M96 0V660H129L403 174L476 46H478Q477 94 476 139T474 231V660H504V0H471L197 486L124 614H122Q123 566 124 523T126 433V0H96Z" />
<glyph unicode="&#x39e;" glyph-name="Xi" d="M74 0V28H526V0H74ZM154 338V366H446V338H154ZM84 632V660H516V632H84Z" />
<glyph unicode="&#x39f;" glyph-name="Omicron" d="M300 -12Q247 -12 202 12T125 82T74 190T56 332Q56 410 74 473T124 580T202 648T300 672Q353 672 398 648T475 580T526 473T544 332Q544 254 526 191T476 82T398 13T300 -12ZM300 18Q347 18 385 40T452 104T495
203T510 332Q510 403 495 460T452 558T386 620T300 642Q253 642 215 621T148 559T105 461T90 332Q90 261 105 203T148 104T214 41T300 18Z" />
<glyph unicode="&#x3a0;" glyph-name="Pi" d="M92 0V660H508V0H476V632H124V0H92Z" />
<glyph unicode="&#x3a1;" glyph-name="Rho" d="M124 0V660H296Q407 660 467 620T528 480Q528 385 468 339T296 292H156V0H124ZM156 320H284Q391 320 442 357T494 480Q494 567 442 599T284 632H156V320Z" />
<glyph unicode="&#x3a3;" glyph-name="Sigma" d="M84 0V18L330 336L90 642V660H494V632H132L364 336L128 28H526V0H84Z" />
<glyph unicode="&#x3a4;" glyph-name="Tau" d="M284 0V632H50V660H550V632H316V0H284Z" />
<glyph unicode="&#x3a5;" glyph-name="Upsilon" d="M284 0V245L56 660H88L212 434Q235 396 256 357T300 278H304Q328 318 350 357T394 435L514 660H544L316 245V0H284Z" />
<glyph unicode="&#x3a6;" glyph-name="Phi" d="M530 332Q530 384 515 427T471 500T403 547T314 564V96Q364 97 404 114T472 163T515 237T530 332ZM70 332Q70 279 85 236T128 162T196 113T286 96V564Q185 562 128 500T70 332ZM286 -22V68Q229 69 183 88T104 141T54
224T36 332Q36 392 54 440T105 522T184 574T286 592V682H314V592Q371 591 417 573T496 521T546 440T564 332Q564 272 546 223T495 140T416 87T314 68V-22H286Z" />
<glyph unicode="&#x3a7;" glyph-name="Chi" d="M83 0L283 342L97 660H131L247 456Q261 433 272 414T301 368H305Q320 395 330 414T355 456L471 660H503L317 340L517 0H483L361 212Q347 236 332 261T299 316H295Q278 286 265 261T237 212L115 0H83Z" />
<glyph unicode="&#x3a8;" glyph-name="Psi" d="M284 0V262Q180 263 122 321T64 504V660H96V504Q96 290 284 290V660H316V290Q504 293 504 504V660H536V504Q536 379 478 321T316 262V0H284Z" />
<glyph unicode="&#x3a9;" glyph-name="uni03A9" d="M44 0V28H182V32Q158 55 135 85T95 155T67 241T56 346Q56 416 72 475T120 578T197 647T300 672Q357 672 402 647T478 579T527 476T544 346Q544 289 534 242T506 155T465 86T418 32V28H556V0H360V24Q390 44 417
74T464 144T497 235T510 348Q510 410 497 464T456 557T390 619T300 642Q249 642 210 620T144 558T104 464T90 348Q90 286 102 235T135 144T183 74T240 24V0H44Z" />
<glyph unicode="&#x3aa;" glyph-name="Iotadieresis" d="M112 0V28H284V632H112V660H488V632H316V28H488V0H112ZM224 728Q210 728 201 736T192 760Q192 775 201 783T224 792Q238 792 247 784T256 760Q256 745 247 737T224 728ZM376 728Q362 728 353 736T344 760Q344
775 353 783T376 792Q390 792 399 784T408 760Q408 745 399 737T376 728Z" />
<glyph unicode="&#x3ab;" glyph-name="Upsilondieresis" d="M284 0V245L56 660H88L212 434Q235 396 256 357T300 278H304Q328 318 350 357T394 435L514 660H544L316 245V0H284ZM224 728Q210 728 201 736T192 760Q192 775 201 783T224 792Q238 792 247 784T256
760Q256 745 247 737T224 728ZM376 728Q362 728 353 736T344 760Q344 775 353 783T376 792Q390 792 399 784T408 760Q408 745 399 737T376 728Z" />
<glyph unicode="&#x3ac;" glyph-name="alphatonos" d="M266 -12Q223 -12 187 3T125 47T85 121T70 225Q70 288 88 337T138 421T210 472T296 490Q323 490 350 482T402 457T446 411T474 340H476L500 478H530Q520 426 510 370T492 260T478 157T472 70Q472 46 486 31T520
16Q529 16 538 18T555 24L562 -2Q554 -5 544 -8T518 -12Q500 -12 485 -5T460 16T447 51T448 100H446Q408 43 365 16T266 -12ZM268 16Q301 16 333 31T390 71T432 130T452 202L460 298Q448 352 429 384T386 434T339 457T294 462Q257 462 223 446T161 400T118 326T102
225Q102 178 113 140T145 74T198 31T268 16ZM324 560L300 566L358 774L396 764L324 560Z" />
<glyph unicode="&#x3ad;" glyph-name="epsilontonos" d="M312 -12Q212 -12 160 27T108 128Q108 155 117 175T142 211T176 236T216 252V256Q177 272 156 301T134 368Q134 398 147 421T185 459T244 482T318 490Q374 490 419 474T504 425L488 402Q447 433 406 447T316
462Q283 462 256 457T208 439T177 409T166 366Q166 324 206 295T340 266Q354 266 365 266T395 268V236Q374 238 359 238T326 238Q234 238 187 210T140 129Q140 77 185 47T316 16Q344 16 369 19T416 29T461 50T508 84L525 60Q500 40 476 26T427 4T373 -8T312 -12ZM344
560L320 566L378 774L416 764L344 560Z" />
<glyph unicode="&#x3ae;" glyph-name="etatonos" d="M470 -180Q472 -59 472 62T472 304Q472 384 445 423T357 462Q328 462 304 457T255 438T206 399T150 334V0H120V360Q120 389 120 415T116 478H146L150 374H152Q176 408 199 430T248 465T300 484T360 490Q432
490 466 446T500 308V-180H470ZM334 560L310 566L368 774L406 764L334 560Z" />
<glyph unicode="&#x3af;" glyph-name="iotatonos" d="M406 -12Q346 -12 313 22T280 138V450H96V478H310Q310 391 309 305T308 132Q308 16 408 16Q429 16 451 21T500 38L512 14Q486 2 462 -5T406 -12ZM547 560L523 566L581 774L619 764L547 560Z" />
<glyph unicode="&#x3b0;" glyph-name="upsilondieresistonos" d="M294 -12Q253 -12 217 -2T153 31T110 92T94 185Q94 229 96 272T98 360Q98 389 98 415T92 478H122Q127 452 127 427T128 372Q128 349 127 325T125 276T123 228T122 186Q122 138 136 105T175 53T230
25T296 16Q335 16 369 30T430 73T471 146T486 250Q486 307 476 362T440 480L470 490Q494 428 506 370T518 249Q518 183 500 134T451 53T380 4T294 -12ZM202 604Q187 604 178 612T168 634Q168 649 177 658T202 668Q217 668 226 659T236 634Q236 620 227 612T202
604ZM266 566L324 774L362 764L290 560L266 566ZM398 604Q383 604 374 612T364 634Q364 649 373 658T398 668Q413 668 422 659T432 634Q432 620 423 612T398 604Z" />
<glyph unicode="&#x3b1;" glyph-name="alpha" d="M266 -12Q223 -12 187 3T125 47T85 121T70 225Q70 288 88 337T138 421T210 472T296 490Q323 490 350 482T402 457T446 411T474 340H476L500 478H530Q520 426 510 370T492 260T478 157T472 70Q472 46 486 31T520
16Q529 16 538 18T555 24L562 -2Q554 -5 544 -8T518 -12Q500 -12 485 -5T460 16T447 51T448 100H446Q408 43 365 16T266 -12ZM268 16Q301 16 333 31T390 71T432 130T452 202L460 298Q448 352 429 384T386 434T339 457T294 462Q257 462 223 446T161 400T118 326T102
225Q102 178 113 140T145 74T198 31T268 16Z" />
<glyph unicode="&#x3b2;" glyph-name="beta" d="M110 -180V512Q110 560 121 600T156 671T215 717T298 734Q331 734 362 724T416 692T454 640T468 568Q468 455 344 388V384Q434 373 483 321T532 188Q532 143 516 106T473 43T410 3T334 -12Q281 -12 229 6T138 68Q140
5 140 -55T140 -180H110ZM334 16Q368 16 398 28T451 62T487 117T500 188Q500 225 489 256T454 309T396 345T314 358Q286 358 256 352L248 380Q298 391 334 412T392 458T425 512T436 568Q436 602 425 628T396 671T353 697T300 706Q228 706 184 655T140 498V104Q182
51 233 34T334 16Z" />
<glyph unicode="&#x3b3;" glyph-name="gamma" d="M284 -180Q285 -163 285 -150T286 -125T286 -101T286 -72Q286 -5 267 73T218 226T149 367T70 478L98 490Q131 452 162 400T220 288T268 166T301 41H305Q370 148 420 257T488 478H520Q507 417 490 362T448 251T388
133T306 -2Q311 -43 312 -90T314 -180H284Z" />
<glyph unicode="&#x3b4;" glyph-name="delta" d="M303 -12Q261 -12 221 2T148 45T95 113T75 204Q75 252 92 292T140 363T212 417T302 453Q264 476 233 497T179 540T144 584T131 634Q131 653 139 671T166 703T211 725T277 734Q301 734 326 732T381 725T445 711T521
688L511 658Q467 673 433 682T370 697T318 704T275 706Q216 706 190 685T163 636Q163 611 175 591T209 551T264 511T337 466Q372 445 406 421T466 366T509 299T525 216Q525 165 510 123T467 51T397 5T303 -12ZM303 16Q352 16 388 31T447 74T482 137T493 214Q493
253 480 284T445 342T394 391T333 434Q224 409 166 349T107 206Q107 163 123 128T167 68T229 30T303 16Z" />
<glyph unicode="&#x3b5;" glyph-name="epsilon" d="M312 -12Q212 -12 160 27T108 128Q108 155 117 175T142 211T176 236T216 252V256Q177 272 156 301T134 368Q134 398 147 421T185 459T244 482T318 490Q374 490 419 474T504 425L488 402Q447 433 406 447T316
462Q283 462 256 457T208 439T177 409T166 366Q166 324 206 295T340 266Q354 266 365 266T395 268V236Q374 238 359 238T326 238Q234 238 187 210T140 129Q140 77 185 47T316 16Q344 16 369 19T416 29T461 50T508 84L525 60Q500 40 476 26T427 4T373 -8T312 -12Z"
/>
<glyph unicode="&#x3b6;" glyph-name="zeta" d="M462 -182L436 -164Q451 -146 460 -134T476 -112T484 -94T486 -74Q486 -62 480 -54T457 -38T413 -23T342 -8Q300 0 263 14T199 54T156 119T140 218Q140 264 155 311T197 405T258 493T330 573T405 642T477 696Q447
696 407 696T323 696T240 696T170 694V722H520V694H516Q460 655 399 601T288 483T205 352T172 218Q172 165 187 130T228 72T288 37T360 18Q398 11 427 5T476 -12T506 -36T516 -72Q516 -92 504 -119T462 -182Z" />
<glyph unicode="&#x3b7;" glyph-name="eta" d="M470 -180Q472 -59 472 62T472 304Q472 384 445 423T357 462Q328 462 304 457T255 438T206 399T150 334V0H120V360Q120 389 120 415T116 478H146L150 374H152Q176 408 199 430T248 465T300 484T360 490Q432 490 466
446T500 308V-180H470Z" />
<glyph unicode="&#x3b8;" glyph-name="theta" d="M300 -12Q249 -12 209 9T142 76T101 193T86 364Q86 452 100 520T142 636T209 709T300 734Q351 734 391 709T458 637T499 521T514 364Q514 264 500 193T458 77T391 10T300 -12ZM300 706Q222 706 172 623T118 380H482Q479
539 429 622T300 706ZM300 16Q339 16 372 34T429 93T467 198T482 352H118Q119 262 132 198T170 94T227 35T300 16Z" />
<glyph unicode="&#x3b9;" glyph-name="iota" d="M406 -12Q346 -12 313 22T280 138V450H96V478H310Q310 391 309 305T308 132Q308 16 408 16Q429 16 451 21T500 38L512 14Q486 2 462 -5T406 -12Z" />
<glyph unicode="&#x3ba;" glyph-name="kappa" d="M536 -6Q508 25 476 62T410 139T348 221T296 300Q266 270 239 237T192 166Q175 136 167 99T158 22V0H130V360Q130 389 129 420T122 478H152Q157 461 158 432T160 372V172H164Q196 231 241 282T336 374T440 444T540
490L546 460Q492 443 433 408T318 321Q339 282 368 241T430 158T500 76T570 0L536 -6Z" />
<glyph unicode="&#x3bb;" glyph-name="lambda" d="M106 -6L74 0L304 496L292 526Q274 574 259 608T226 663T189 695T140 706Q122 706 109 701T84 690L72 718Q84 724 101 729T142 734Q176 734 200 722T245 684T283 620T322 530L534 0H502L320 458H316L106 -6Z" />
<glyph unicode="&#x3bc;" glyph-name="uni03BC" d="M100 -180V478H130V184Q130 106 160 61T262 16Q284 16 306 20T352 37T400 75T450 144V478H480Q479 369 479 262T478 46Q478 31 484 24T500 16Q503 16 506 16T518 18L524 -8Q518 -10 512 -11T498 -12Q483 -12
473 -7T457 10T450 45T450 102H448Q411 42 364 15T266 -12Q221 -12 186 3T126 64Q126 19 126 -12T126 -70T127 -122T130 -180H100Z" />
<glyph unicode="&#x3bd;" glyph-name="nu" d="M285 0Q253 146 195 264T65 478L93 490Q126 446 158 394T219 282T270 160T305 32H309Q338 82 368 138T425 251T469 366T493 478H525Q516 416 497 357T451 238T390 120T319 0H285Z" />
<glyph unicode="&#x3be;" glyph-name="xi" d="M466 -182L440 -164Q455 -146 464 -134T480 -112T488 -94T490 -74Q490 -62 484 -53T462 -37T417 -23T346 -8Q304 0 266 13T198 48T151 103T134 186Q134 225 148 258T185 318T239 362T304 390V394Q280 404 258 418T220
452T194 495T184 548Q184 602 211 638T287 696Q261 696 241 696T203 696T164 696T118 694V722H520V694H373Q344 694 316 685T265 657T230 611T216 548Q216 514 232 487T272 441T325 411T380 400Q401 400 414 400T448 404V370Q428 374 414 374T378 374Q340 374 302
362T234 326T185 267T166 186Q166 142 183 113T227 65T290 36T364 18Q402 11 431 5T480 -12T510 -36T520 -72Q520 -92 508 -119T466 -182Z" />
<glyph unicode="&#x3bf;" glyph-name="omicron" d="M300 -12Q253 -12 212 5T140 54T92 132T74 238Q74 298 91 345T140 424T212 473T300 490Q347 490 388 473T460 424T508 345T526 238Q526 179 509 133T460 54T388 5T300 -12ZM300 16Q343 16 378 32T439 77T479
147T494 238Q494 287 480 328T440 399T379 445T300 462Q257 462 222 446T161 400T121 329T106 238Q106 188 120 148T160 78T221 32T300 16Z" />
<glyph unicode="&#x3c0;" glyph-name="pi" d="M496 -12Q459 -12 442 7T424 72Q424 97 424 141T426 237T428 345T430 448H172Q172 335 169 223T158 -2L128 0Q139 113 141 224T144 448H40V474L106 478H560V448H460Q458 400 457 344T454 234T453 136T452 66Q452 16
498 16Q503 16 509 17T528 22L534 -4Q525 -7 517 -9T496 -12Z" />
<glyph unicode="&#x3c1;" glyph-name="rho" d="M110 -180V257Q110 314 127 358T174 431T241 475T322 490Q426 490 478 424T530 246Q530 185 512 137T465 56T397 6T318 -12Q268 -12 223 4T138 68Q139 32 139 2T140 -56T140 -114T140 -180H110ZM320 16Q357 16 389
33T446 80T484 153T498 246Q498 292 488 331T457 400T402 445T320 462Q285 462 253 450T196 410T155 342T140 244V102Q162 74 185 57T231 31T276 19T320 16Z" />
<glyph unicode="&#x3c2;" glyph-name="uni03C2" d="M420 -176L394 -158Q424 -122 437 -100T450 -54Q450 -42 447 -32T430 -13T393 4T326 20Q282 28 242 43T171 86T122 153T104 252Q104 310 123 354T174 429T248 474T338 490Q370 490 395 485T442 470T480 447T512
420L492 398Q460 428 425 445T338 462Q295 462 258 447T194 405T152 338T136 252Q136 199 153 164T199 105T265 68T344 46Q384 38 410 30T452 10T474 -16T480 -52Q480 -76 465 -108T420 -176Z" />
<glyph unicode="&#x3c3;" glyph-name="sigma" d="M294 -12Q249 -12 209 4T138 51T89 129T70 234Q70 298 88 344T138 420T211 464T296 478H568V448Q524 451 483 452T398 454V450Q452 420 483 366T514 234Q514 175 497 129T449 52T379 4T294 -12ZM294 16Q334 16
368 31T428 75T467 144T482 234Q482 276 470 315T434 384T376 432T296 450Q256 450 221 436T159 395T118 328T102 234Q102 184 117 144T158 76T219 32T294 16Z" />
<glyph unicode="&#x3c4;" glyph-name="tau" d="M369 -12Q322 -12 304 12T285 92V450H79V474L145 478H521V450H315Q313 358 313 268T313 86Q313 50 326 33T371 16Q401 16 427 24L433 -2Q424 -6 407 -9T369 -12Z" />
<glyph unicode="&#x3c5;" glyph-name="upsilon" d="M294 -12Q253 -12 217 -2T153 31T110 92T94 185Q94 229 96 272T98 360Q98 389 98 415T92 478H122Q127 452 127 427T128 372Q128 349 127 325T125 276T123 228T122 186Q122 138 136 105T175 53T230 25T296 16Q335
16 369 30T430 73T471 146T486 250Q486 307 476 362T440 480L470 490Q494 428 506 370T518 249Q518 183 500 134T451 53T380 4T294 -12Z" />
<glyph unicode="&#x3c6;" glyph-name="phi" d="M90 240Q90 190 104 149T144 79T206 34T285 16V462Q242 461 206 445T145 400T105 331T90 240ZM510 240Q510 290 496 330T456 400T394 445T315 462V16Q358 17 394 33T455 79T495 149T510 240ZM285 -180V-10Q237 -9
196 8T124 57T76 135T58 240Q58 299 75 345T124 422T196 470T285 488V618H315V488Q363 487 404 471T476 423T524 345T542 240Q542 181 525 135T476 57T404 8T315 -10V-180H285Z" />
<glyph unicode="&#x3c7;" glyph-name="chi" d="M96 -192L68 -180L284 162L74 478L104 490L298 190H302L476 478H510L316 160L544 -180L516 -192L302 134H298L96 -192Z" />
<glyph unicode="&#x3c8;" glyph-name="psi" d="M286 -180V-12Q189 -12 135 45T81 211V360Q81 389 81 415T77 478H107Q110 452 110 427T111 372Q111 348 111 324T110 278T110 239T109 212Q109 117 156 67T286 16V618H314V16Q401 21 449 81T498 254Q498 285 496
312T488 365T474 419T451 480L481 490Q494 457 503 429T518 373T527 316T530 254Q530 192 515 144T471 62T403 10T314 -12V-180H286Z" />
<glyph unicode="&#x3c9;" glyph-name="omega" d="M186 -12Q158 -12 133 1T89 42T58 111T46 210Q46 255 53 293T74 365T106 429T146 490L170 472Q147 442 130 414T100 354T82 286T76 206Q76 159 85 124T109 64T145 28T188 16Q205 16 222 22T253 45T275 90T284 160Q284
187 284 220T280 290H318Q315 254 315 221T314 160Q314 118 323 90T346 46T377 23T412 16Q460 16 491 62T522 212Q522 255 517 289T500 353T471 413T432 474L458 490Q480 459 497 429T527 366T547 296T554 212Q554 153 544 111T514 41T470 1T414 -12Q378 -12 349
9T302 72H298Q281 30 252 9T186 -12Z" />
<glyph unicode="&#x3ca;" glyph-name="iotadieresis" d="M406 -12Q346 -12 313 22T280 138V450H96V478H310Q310 391 309 305T308 132Q308 16 408 16Q429 16 451 21T500 38L512 14Q486 2 462 -5T406 -12ZM457 602Q442 602 433 612T423 638Q423 653 432 663T457
674Q472 674 481 664T491 638Q491 623 482 613T457 602ZM629 602Q614 602 605 612T595 638Q595 653 604 663T629 674Q644 674 653 664T663 638Q663 623 654 613T629 602Z" />
<glyph unicode="&#x3cb;" glyph-name="upsilondieresis" d="M294 -12Q253 -12 217 -2T153 31T110 92T94 185Q94 229 96 272T98 360Q98 389 98 415T92 478H122Q127 452 127 427T128 372Q128 349 127 325T125 276T123 228T122 186Q122 138 136 105T175 53T230 25T296
16Q335 16 369 30T430 73T471 146T486 250Q486 307 476 362T440 480L470 490Q494 428 506 370T518 249Q518 183 500 134T451 53T380 4T294 -12ZM214 602Q199 602 190 612T180 638Q180 653 189 663T214 674Q229 674 238 664T248 638Q248 623 239 613T214 602ZM386
602Q371 602 362 612T352 638Q352 653 361 663T386 674Q401 674 410 664T420 638Q420 623 411 613T386 602Z" />
<glyph unicode="&#x3cc;" glyph-name="omicrontonos" d="M300 -12Q253 -12 212 5T140 54T92 132T74 238Q74 298 91 345T140 424T212 473T300 490Q347 490 388 473T460 424T508 345T526 238Q526 179 509 133T460 54T388 5T300 -12ZM300 16Q343 16 378 32T439 77T479
147T494 238Q494 287 480 328T440 399T379 445T300 462Q257 462 222 446T161 400T121 329T106 238Q106 188 120 148T160 78T221 32T300 16ZM304 560L280 566L338 774L376 764L304 560Z" />
<glyph unicode="&#x3cd;" glyph-name="upsilontonos" d="M294 -12Q253 -12 217 -2T153 31T110 92T94 185Q94 229 96 272T98 360Q98 389 98 415T92 478H122Q127 452 127 427T128 372Q128 349 127 325T125 276T123 228T122 186Q122 138 136 105T175 53T230 25T296
16Q335 16 369 30T430 73T471 146T486 250Q486 307 476 362T440 480L470 490Q494 428 506 370T518 249Q518 183 500 134T451 53T380 4T294 -12ZM304 560L280 566L338 774L376 764L304 560Z" />
<glyph unicode="&#x3ce;" glyph-name="omegatonos" d="M186 -12Q158 -12 133 1T89 42T58 111T46 210Q46 255 53 293T74 365T106 429T146 490L170 472Q147 442 130 414T100 354T82 286T76 206Q76 159 85 124T109 64T145 28T188 16Q205 16 222 22T253 45T275 90T284
160Q284 187 284 220T280 290H318Q315 254 315 221T314 160Q314 118 323 90T346 46T377 23T412 16Q460 16 491 62T522 212Q522 255 517 289T500 353T471 413T432 474L458 490Q480 459 497 429T527 366T547 296T554 212Q554 153 544 111T514 41T470 1T414 -12Q378
-12 349 9T302 72H298Q281 30 252 9T186 -12ZM304 560L280 566L338 774L376 764L304 560Z" />
<glyph unicode="&#x3d0;" glyph-name="uni03D0" d="M330 -12Q295 -12 257 -1T186 36T132 105T110 212V512Q110 560 121 601T157 671T216 717T300 734Q332 734 362 724T415 693T453 641T468 568Q468 511 433 466T334 388V384Q432 376 482 322T532 182Q532 141 517
106T474 44T410 3T330 -12ZM140 498V359Q295 384 365 437T436 568Q436 602 425 628T396 671T354 697T302 706Q228 706 184 656T140 498ZM330 16Q368 16 399 29T452 64T487 117T500 182Q500 220 489 252T456 307T398 344T316 358Q301 358 258 354T140 331V224Q140
159 161 118T212 55T274 24T330 16Z" />
<glyph unicode="&#x3d1;" glyph-name="uni03D1" d="M131 563Q131 524 147 486T203 420T311 381T482 386Q479 556 427 631T280 706Q249 706 222 697T175 669T143 624T131 563ZM296 -12Q260 -12 227 -2T170 31T131 92T116 185Q116 206 116 222T115 251T113 275T110
298H138Q143 280 143 256T144 186Q144 138 157 105T191 53T241 25T298 16Q336 16 369 32T428 87T467 192T482 359Q374 342 301 355T182 399T117 474T97 561Q97 602 112 634T152 688T210 722T280 734Q399 734 456 644T514 368Q514 254 497 181T449 64T380 5T296
-12Z" />
<glyph unicode="&#x3d5;" glyph-name="uni03D5" d="M90 240Q90 190 104 149T144 79T206 34T285 16V462Q242 461 206 445T145 400T105 331T90 240ZM510 240Q510 290 496 330T456 400T394 445T315 462V16Q358 17 394 33T455 79T495 149T510 240ZM285 -180V-10Q237
-9 196 8T124 57T76 135T58 240Q58 299 75 345T124 422T196 470T285 488V618H315V488Q363 487 404 471T476 423T524 345T542 240Q542 181 525 135T476 57T404 8T315 -10V-180H285Z" />
<glyph unicode="&#x3d7;" glyph-name="uni03D7" d="M430 -186L396 -180Q437 -139 472 -95T536 -6Q508 25 476 62T410 139T348 221T296 300Q266 270 239 237T192 166Q175 136 167 99T158 22V0H130V360Q130 389 129 420T122 478H152Q157 461 158 432T160 372V172H164Q196
231 241 282T336 374T440 444T540 490L546 460Q492 443 433 408T318 321Q339 282 368 241T430 158T500 76T570 0Q537 -53 501 -100T430 -186Z" />
<glyph unicode="&#x3d9;" glyph-name="uni03D9" d="M300 16Q344 16 380 32T441 77T480 147T494 238Q494 288 481 329T442 400T380 446T300 462Q256 462 220 446T159 401T120 330T106 238Q106 188 119 147T158 77T220 32T300 16ZM288 -180V-12Q242 -10 203 7T135
57T90 134T74 238Q74 299 91 346T138 425T210 473T300 490Q348 490 389 474T461 425T509 346T526 238Q526 181 510 136T466 59T400 10T316 -11Q317 -37 317 -55T318 -91T318 -129T318 -180H288Z" />
<glyph unicode="&#x3db;" glyph-name="uni03DB" d="M420 -176L394 -158Q424 -122 437 -100T450 -54Q450 -42 447 -32T430 -13T393 4T326 20Q281 29 241 44T170 86T122 151T104 246Q104 306 123 350T177 422T258 464T360 478H498V448Q474 450 441 450T360 450Q257
450 197 398T136 246Q136 195 153 161T198 104T265 68T344 46Q384 38 410 30T452 10T474 -16T480 -52Q480 -76 465 -108T420 -176Z" />
<glyph unicode="&#x3dd;" glyph-name="uni03DD" d="M170 -180V478H520V450H198L200 186H480V158H200V-180H170Z" />
<glyph unicode="&#x3e1;" glyph-name="uni03E1" d="M485 -178L456 -173Q467 -125 470 -79T474 14Q474 58 470 101T455 187Q384 155 317 125T173 58L160 83L448 215Q439 251 427 286T399 354Q323 319 253 288T103 218L90 243L386 379Q340 469 272 541T116 658L132
682Q220 634 288 562T404 403T477 216T502 14Q502 -37 499 -83T485 -178Z" />
<glyph unicode="&#x400;" glyph-name="uni0400" d="M132 0V660H516V632H164V366H460V338H164V28H526V0H132ZM360 710L234 822L256 846L374 726L360 710Z" />
<glyph unicode="&#x401;" glyph-name="uni0401" d="M132 0V660H516V632H164V366H460V338H164V28H526V0H132ZM262 728Q248 728 239 736T230 760Q230 775 239 783T262 792Q276 792 285 784T294 760Q294 745 285 737T262 728ZM414 728Q400 728 391 736T382 760Q382
775 391 783T414 792Q428 792 437 784T446 760Q446 745 437 737T414 728Z" />
<glyph unicode="&#x402;" glyph-name="uni0402" d="M408 -12Q393 -12 375 -9T348 -2L356 28Q363 25 378 22T406 18Q429 18 454 26T499 55T533 109T546 192Q546 284 494 325T346 366Q313 366 278 363T218 354V0H186V632H-8V660H466V632H218V384Q244 389 279 392T348
396Q401 396 444 384T517 347T563 284T580 192Q580 133 564 94T523 32T468 -2T408 -12Z" />
<glyph unicode="&#x403;" glyph-name="uni0403" d="M156 0V660H534V632H188V0H156ZM278 710L264 726L382 846L404 822L278 710Z" />
<glyph unicode="&#x404;" glyph-name="uni0404" d="M347 -12Q285 -12 235 11T149 79T94 187T75 332Q75 413 94 476T149 582T236 649T351 672Q408 672 451 648T521 594L501 572Q474 604 436 623T351 642Q296 642 253 623T178 569T129 482T108 366H421V338H107Q107
183 170 101T349 18Q402 18 442 39T521 102L541 82Q503 38 458 13T347 -12Z" />
<glyph unicode="&#x405;" glyph-name="uni0405" d="M310 -12Q233 -12 176 16T80 88L102 110Q140 68 193 43T310 18Q352 18 386 28T444 57T481 102T494 160Q494 193 484 215T455 254T413 283T362 306L260 352Q237 361 212 374T166 405T130 450T116 514Q116 549
131 578T172 628T234 660T312 672Q375 672 423 649T502 594L482 572Q452 604 409 623T312 642Q238 642 193 608T148 516Q148 485 160 464T192 427T233 401T274 382L376 336Q405 324 432 310T480 275T513 228T526 162Q526 124 511 93T467 38T399 1T310 -12Z" />
<glyph unicode="&#x406;" glyph-name="uni0406" d="M112 0V28H284V632H112V660H488V632H316V28H488V0H112Z" />
<glyph unicode="&#x407;" glyph-name="uni0407" d="M112 0V28H284V632H112V660H488V632H316V28H488V0H112ZM224 728Q210 728 201 736T192 760Q192 775 201 783T224 792Q238 792 247 784T256 760Q256 745 247 737T224 728ZM376 728Q362 728 353 736T344 760Q344
775 353 783T376 792Q390 792 399 784T408 760Q408 745 399 737T376 728Z" />
<glyph unicode="&#x408;" glyph-name="uni0408" d="M278 -12Q222 -12 174 16T98 98L124 116Q153 65 194 42T278 18Q366 18 404 64T443 204V634H152V661H475V201Q475 157 465 118T432 50T372 5T278 -12Z" />
<glyph unicode="&#x409;" glyph-name="uni0409" d="M28 -12Q22 -12 15 -11T-2 -6L8 26Q17 22 26 22Q37 22 48 28T68 54T87 112T104 214Q118 325 126 433T140 660H336V366H366Q412 366 449 356T512 325T552 271T566 192Q566 97 517 49T370 0H304V632H168Q165 526
156 420T134 208Q126 137 115 94T91 28T62 -4T28 -12ZM336 28H358Q447 28 490 66T534 190Q534 268 490 303T354 338H336V28Z" />
<glyph unicode="&#x40a;" glyph-name="uni040A" d="M46 0V660H78V366H284V660H316V366H366Q412 366 449 356T512 325T552 271T566 192Q566 97 517 49T370 0H284V338H78V0H46ZM316 28H358Q447 28 490 66T534 190Q534 268 490 303T354 338H316V28Z" />
<glyph unicode="&#x40b;" glyph-name="uni040B" d="M185 0V632H-9V660H465V632H217V384Q243 389 278 392T347 396Q453 396 510 351T567 202V0H535V202Q535 292 487 329T345 366Q312 366 277 363T217 354V0H185Z" />
<glyph unicode="&#x40c;" glyph-name="uni040C" d="M128 0V660H160V366H307L404 546Q426 586 442 611T472 649T500 667T532 672Q538 672 543 671T554 668L548 634Q543 636 538 637T528 638Q517 638 508 635T489 622T465 591T432 536L333 353L568 0H530L305 338H160V0H128ZM288
710L274 726L392 846L414 822L288 710Z" />
<glyph unicode="&#x40d;" glyph-name="uni040D" d="M92 0V660H124V232Q124 185 123 140T120 46H124L196 176L472 660H508V0H476V434Q476 481 477 524T480 614H476L404 484L128 0H92ZM326 710L200 822L222 846L340 726L326 710Z" />
<glyph unicode="&#x40e;" glyph-name="uni040E" d="M177 -12Q160 -12 150 -11T127 -4L137 28Q152 22 173 22Q214 22 236 39T275 94L293 140L67 660H101L261 286L307 178H311L353 286L501 660H535L309 96Q289 45 259 17T177 -12ZM300 712Q263 712 239 723T200 753T179
793T170 836L200 838Q201 818 206 800T224 768T254 745T300 736Q327 736 345 744T376 767T393 800T400 838L430 836Q428 815 422 793T400 753T361 724T300 712Z" />
<glyph unicode="&#x40f;" glyph-name="uni040F" d="M85 0V660H117V28H483V660H515V0H319L313 -188H287V0H85Z" />
<glyph unicode="&#x410;" glyph-name="uni0410" d="M222 396L175 264H424L378 396Q357 456 339 510T302 626H298Q280 564 262 510T222 396ZM50 0L286 660H314L550 0H516L434 236H165L82 0H50Z" />
<glyph unicode="&#x411;" glyph-name="uni0411" d="M120 0V660H490V632H152V366H302Q355 366 398 356T471 325T517 271T534 192Q534 97 477 49T306 0H120ZM152 28H294Q398 28 450 66T502 190Q502 268 449 303T290 338H152V28Z" />
<glyph unicode="&#x412;" glyph-name="uni0412" d="M120 0V660H280Q383 660 437 621T492 500Q492 447 463 409T375 356V352Q449 341 491 301T534 192Q534 97 471 49T292 0H120ZM152 366H260Q368 366 414 400T460 500Q460 571 413 601T266 632H152V366ZM152 28H280Q387
28 444 66T502 190Q502 265 445 301T280 338H152V28Z" />
<glyph unicode="&#x413;" glyph-name="uni0413" d="M156 0V660H534V632H188V0H156Z" />
<glyph unicode="&#x414;" glyph-name="uni0414" d="M36 -188L30 12V28H60Q70 32 80 45T102 85T125 157T150 272Q160 326 167 371T182 462T197 554T214 660H502V28H570V12L564 -188H538V0H62V-188H36ZM180 264Q169 206 159 166T140 98T122 54T104 28H470V632H240Q231
580 224 535T211 447T197 359T180 264Z" />
<glyph unicode="&#x415;" glyph-name="uni0415" d="M132 0V660H516V632H164V366H460V338H164V28H526V0H132Z" />
<glyph unicode="&#x416;" glyph-name="uni0416" d="M4 0L164 354L106 536Q94 572 84 592T63 623T44 635T26 638Q21 638 16 637T6 634L0 668Q5 670 10 671T22 672Q37 672 51 668T80 651T107 613T134 546L192 366H286V660H314V366H408L466 546Q479 588 492 613T520
651T548 668T578 672Q584 672 589 671T600 668L594 634Q589 636 584 637T574 638Q565 638 556 636T537 623T517 593T494 536L436 354L596 0H558L412 338H314V0H286V338H188L42 0H4Z" />
<glyph unicode="&#x417;" glyph-name="uni0417" d="M307 -12Q269 -12 237 -6T177 12T124 43T75 88L97 110Q121 84 144 67T192 39T245 23T307 18Q344 18 378 28T438 59T479 110T495 180Q495 261 435 299T271 338H207V366H251Q360 366 409 402T459 510Q459 541 447
566T414 607T364 633T301 642Q250 642 205 623T131 572L111 594Q125 610 145 624T190 648T243 665T301 672Q339 672 373 661T434 629T475 578T491 510Q491 453 463 412T381 356V352Q444 341 485 299T527 182Q527 137 510 101T462 40T392 2T307 -12Z" />
<glyph unicode="&#x418;" glyph-name="uni0418" d="M92 0V660H124V232Q124 185 123 140T120 46H124L196 176L472 660H508V0H476V434Q476 481 477 524T480 614H476L404 484L128 0H92Z" />
<glyph unicode="&#x419;" glyph-name="uni0419" d="M92 0V660H124V232Q124 185 123 140T120 46H124L196 176L472 660H508V0H476V434Q476 481 477 524T480 614H476L404 484L128 0H92ZM304 712Q267 712 243 723T204 753T183 793T174 836L204 838Q205 818 210 800T228
768T258 745T304 736Q331 736 349 744T380 767T397 800T404 838L434 836Q432 815 426 793T404 753T365 724T304 712Z" />
<glyph unicode="&#x41a;" glyph-name="uni041A" d="M128 0V660H160V366H307L404 546Q426 586 442 611T472 649T500 667T532 672Q538 672 543 671T554 668L548 634Q543 636 538 637T528 638Q517 638 508 635T489 622T465 591T432 536L333 353L568 0H530L305 338H160V0H128Z"
/>
<glyph unicode="&#x41b;" glyph-name="uni041B" d="M48 -12Q40 -12 30 -11T8 -4L18 28Q33 22 46 22Q59 22 71 28T95 55T118 113T142 214Q163 326 182 433T222 660H508V0H476V632H248Q228 525 211 421T174 210Q161 140 148 97T120 29T88 -3T48 -12Z" />
<glyph unicode="&#x41c;" glyph-name="uni041C" d="M84 0V660H130L254 340L298 222H302L344 340L470 660H516V0H484V495Q484 526 485 559T487 623H484L448 516L313 176H286L152 516L113 623H111Q112 592 113 559T115 495V0H84Z" />
<glyph unicode="&#x41d;" glyph-name="uni041D" d="M92 0V660H124V366H476V660H508V0H476V338H124V0H92Z" />
<glyph unicode="&#x41e;" glyph-name="uni041E" d="M300 -12Q247 -12 202 12T125 82T74 190T56 332Q56 410 74 473T124 580T202 648T300 672Q353 672 398 648T475 580T526 473T544 332Q544 254 526 191T476 82T398 13T300 -12ZM300 18Q347 18 385 40T452 104T495
203T510 332Q510 403 495 460T452 558T386 620T300 642Q253 642 215 621T148 559T105 461T90 332Q90 261 105 203T148 104T214 41T300 18Z" />
<glyph unicode="&#x41f;" glyph-name="uni041F" d="M92 0V660H508V0H476V632H124V0H92Z" />
<glyph unicode="&#x420;" glyph-name="uni0420" d="M124 0V660H296Q407 660 467 620T528 480Q528 385 468 339T296 292H156V0H124ZM156 320H284Q391 320 442 357T494 480Q494 567 442 599T284 632H156V320Z" />
<glyph unicode="&#x421;" glyph-name="uni0421" d="M347 -12Q286 -12 236 12T150 82T94 190T74 332Q74 410 94 473T150 580T238 648T353 672Q410 672 452 648T521 594L501 572Q474 604 437 623T353 642Q296 642 251 621T174 559T125 461T108 332Q108 261 125 203T173
104T248 41T349 18Q402 18 442 39T521 102L541 82Q503 38 458 13T347 -12Z" />
<glyph unicode="&#x422;" glyph-name="uni0422" d="M284 0V632H50V660H550V632H316V0H284Z" />
<glyph unicode="&#x423;" glyph-name="uni0423" d="M177 -12Q160 -12 150 -11T127 -4L137 28Q152 22 173 22Q214 22 236 39T275 94L293 140L67 660H101L261 286L307 178H311L353 286L501 660H535L309 96Q289 45 259 17T177 -12Z" />
<glyph unicode="&#x424;" glyph-name="uni0424" d="M70 332Q70 283 84 244T125 176T192 132T286 116V544Q178 543 124 486T70 332ZM530 332Q530 430 476 487T314 544V116Q422 117 476 176T530 332ZM286 -12V88Q165 89 101 154T36 332Q36 445 101 508T286 572V672H314V572Q435
571 499 508T564 332Q564 219 499 154T314 88V-12H286Z" />
<glyph unicode="&#x425;" glyph-name="uni0425" d="M83 0L283 342L97 660H131L247 456Q261 433 272 414T301 368H305Q320 395 330 414T355 456L471 660H503L317 340L517 0H483L361 212Q347 236 332 261T299 316H295Q278 286 265 261T237 212L115 0H83Z" />
<glyph unicode="&#x426;" glyph-name="uni0426" d="M91 0V660H123V28H476V660H508V28H576V12L570 -188H544V0H91Z" />
<glyph unicode="&#x427;" glyph-name="uni0427" d="M464 0V318Q437 313 401 310T318 306Q263 306 220 316T146 350T99 411T82 504V660H114V504Q114 456 128 424T169 372T234 344T320 336Q366 336 402 339T464 348V660H496V0H464Z" />
<glyph unicode="&#x428;" glyph-name="uni0428" d="M46 0V660H78V28H284V660H316V28H522V660H554V0H46Z" />
<glyph unicode="&#x429;" glyph-name="uni0429" d="M44 0V660H76V28H262V660H294V28H480V660H512V28H580V12L574 -188H548V0H44Z" />
<glyph unicode="&#x42a;" glyph-name="uni042A" d="M230 0V632H14V660H262V366H340Q393 366 436 356T511 324T559 270T576 192Q576 97 518 49T348 0H230ZM262 28H336Q440 28 492 66T544 190Q544 266 489 302T328 338H262V28Z" />
<glyph unicode="&#x42b;" glyph-name="uni042B" d="M72 0V660H104V366H156Q209 366 252 356T325 325T371 271T388 192Q388 97 330 49T160 0H72ZM104 28H148Q252 28 304 66T356 190Q356 268 303 303T144 338H104V28ZM496 0V660H528V0H496Z" />
<glyph unicode="&#x42c;" glyph-name="uni042C" d="M118 0V660H150V366H300Q353 366 396 356T469 325T515 271T532 192Q532 97 474 49T304 0H118ZM150 28H292Q396 28 448 66T500 190Q500 268 447 303T288 338H150V28Z" />
<glyph unicode="&#x42d;" glyph-name="uni042D" d="M265 -12Q196 -12 147 13T59 82L79 102Q118 60 162 39T263 18Q370 18 431 101T493 338H179V366H492Q489 430 473 481T428 568T357 623T263 642Q215 642 172 623T99 572L79 594Q92 609 111 623T155 648T206 665T263
672Q387 672 456 584T525 332Q525 251 507 187T454 79T372 12T265 -12Z" />
<glyph unicode="&#x42e;" glyph-name="uni042E" d="M375 -12Q336 -12 305 8T250 72T215 181T202 338H86V0H54V660H86V366H202Q207 522 253 597T375 672Q414 672 446 652T501 590T538 484T551 332Q551 244 538 180T502 73T446 9T375 -12ZM375 18Q439 18 478 94T517
332Q517 413 507 471T479 568T434 624T375 642Q311 642 273 568T234 332Q234 170 272 94T375 18Z" />
<glyph unicode="&#x42f;" glyph-name="uni042F" d="M444 0V312H286L90 0H52L250 314Q213 319 183 332T130 366T95 419T82 490Q82 581 139 620T294 660H476V0H444ZM306 340H444V632H306Q214 632 165 600T116 490Q116 413 165 377T306 340Z" />
<glyph unicode="&#x430;" glyph-name="uni0430" d="M264 -12Q232 -12 202 -5T149 18T111 58T96 117Q96 157 117 187T184 238T300 274T470 298Q470 329 463 359T440 411T394 448T322 462Q293 462 266 456T215 439T170 416T136 394L120 418Q133 428 154 440T202
464T260 482T324 490Q372 490 405 476T460 436T490 379T500 310V0H474L470 74H468Q447 57 423 42T372 14T319 -5T264 -12ZM266 16Q361 16 470 108V272Q373 263 308 250T202 217T145 174T128 118Q128 90 140 71T171 39T215 22T266 16Z" />
<glyph unicode="&#x431;" glyph-name="uni0431" d="M314 -12Q261 -12 219 8T148 67T104 160T88 282Q88 368 97 430T125 537T170 610T231 657T306 685T396 704Q417 707 430 709T453 714T471 720T492 730L500 698Q479 687 457 682T402 672Q338 661 289 648T204 603T148
516T121 368Q160 417 210 441T314 466Q363 466 401 450T467 403T508 332T522 240Q522 181 506 135T462 56T396 6T314 -12ZM314 16Q354 16 387 32T442 78T477 149T490 240Q490 281 479 317T445 380T389 422T312 438Q266 438 217 416T119 330Q118 319 118 307T118
282Q118 225 130 177T166 92T227 36T314 16Z" />
<glyph unicode="&#x432;" glyph-name="uni0432" d="M120 0V478H338Q419 478 464 450T510 361Q510 337 503 320T485 291T458 270T425 256V253Q444 248 463 240T498 217T522 183T532 136Q532 67 482 34T342 0H120ZM150 266H319Q405 266 441 291T478 359Q478 403
443 426T329 450H150V266ZM150 28H332Q500 28 500 137Q500 186 455 212T324 238H150V28Z" />
<glyph unicode="&#x433;" glyph-name="uni0433" d="M170 0V478H520V450H200V0H170Z" />
</font>
</defs>
</svg>
