<svg xmlns="http://www.w3.org/2000/svg">
<defs>
<font
       id="LMRoman10-BoldItalic"
       horiz-adv-x="78"
       horiz-origin-x="0"
       horiz-origin-y="0"
       vert-origin-x="512"
       vert-origin-y="768"
       vert-adv-y="1024">
      <font-face
         font-family="LMRoman10"
         font-weight="700"
         font-style="italic"
         font-stretch="normal"
         units-per-em="138"
         panose-1="0 0 8 0 0 0 0 0 0 0"
         ascent="113"
         descent="-25"
         x-height="61"
         cap-height="94"
         bbox="-3 -33 176 121"
         underline-thickness="7.05109"
         underline-position="-18.1314"
         slope="-14.0362"
         stemh="4"
         stemv="14"
         unicode-range="U+0020-FB04"
         id="font-face4" />
      <missing-glyph
         id="missing-glyph6" />
      <glyph
         glyph-name="exclam"
         unicode="!"
         horiz-adv-x="50"
         d="M58 86l-19 -55c-1 -2 -3 -2 -6 -2c-2 0 -3 0 -3 2v2l8 54c1 10 12 11 13 11c5 0 8 -4 8 -7c0 -1 0 -3 -1 -5zM39 11c0 -6 -7 -11 -12 -11c-4 0 -9 4 -9 8c0 6 7 13 12 13s9 -6 9 -10z"
         id="glyph8" />
      <glyph
         glyph-name="quotedbl"
         unicode="&quot;"
         horiz-adv-x="70"
         d="M54 89l-11 -31h-7l3 31c0 3 6 8 10 8s6 -5 5 -8zM78 89l-13 -31h-8l4 31c0 3 7 8 11 8s7 -5 6 -8z"
         id="glyph10" />
      <glyph
         glyph-name="ampersand"
         unicode="&amp;"
         horiz-adv-x="119"
         d="M115 42c0 -3 -2 -44 -55 -44c-29 0 -41 12 -41 27c0 8 4 21 12 29c-1 3 -1 6 -1 7c0 15 12 37 33 37c10 0 19 -6 19 -15s-7 -12 -10 -12c-2 0 -8 2 -8 7c0 3 4 7 9 8c-2 4 -7 7 -10 7c-10 0 -16 -17 -18 -32c5 2 10 3 11 3c6 0 10 -3 10 -8s-4 -13 -14 -13 c-4 0 -10 1 -12 2c-2 -6 -4 -17 -4 -23c0 -12 8 -20 25 -20c11 0 25 3 31 8c12 9 16 24 16 30c0 3 -2 8 -8 18c-1 -1 -6 -2 -9 -4c-4 -3 -7 -7 -7 -10c0 0 4 6 9 6c4 0 7 -4 7 -7c0 -4 -5 -12 -11 -12s-12 7 -12 13c0 10 10 16 20 21c4 2 12 7 16 15c-3 1 -5 3 -5 6 c0 5 4 9 9 9c3 0 7 -2 7 -6c0 -2 -1 -15 -16 -26c3 -5 7 -11 7 -21zM58 57c0 1 1 2 -2 2s-7 -1 -11 -6c1 -4 5 -6 7 -6c4 0 6 6 6 10z"
         id="glyph12" />
      <glyph
         glyph-name="quotesingle"
         unicode="'"
         horiz-adv-x="46"
         d="M54 89l-11 -31h-7l3 31c0 3 6 8 10 8s6 -5 5 -8z"
         id="glyph14" />
      <glyph
         glyph-name="parenleft"
         unicode="("
         horiz-adv-x="62"
         d="M79 101c0 -1 -1 -1 -1 -1l-3 -2c-30 -26 -42 -77 -42 -96c0 -4 3 -20 11 -31l1 -2c0 -2 -2 -2 -2 -2c-3 0 -13 10 -16 18c-4 11 -4 22 -4 25c0 30 16 61 34 79c4 4 17 16 20 16c1 0 2 -3 2 -4z"
         id="glyph16" />
      <glyph
         glyph-name="parenright"
         unicode=")"
         horiz-adv-x="62"
         d="M59 58c0 -21 -8 -55 -35 -80c-3 -3 -15 -11 -18 -11c-1 0 -2 1 -2 2s0 1 2 3c32 27 43 77 43 94c0 19 -8 31 -10 34c0 0 -1 0 -1 1s1 4 2 4c3 0 12 -14 14 -19c3 -9 5 -19 5 -28z"
         id="glyph18" />
      <glyph
         glyph-name="asterisk"
         unicode="*"
         d="M83 61c0 -3 -3 -7 -6 -7c-1 0 -2 0 -4 2l-13 11l-2 -17c-1 -6 -6 -7 -6 -7c-3 0 -5 1 -5 3c0 0 -1 1 0 3l8 18c-11 -6 -7 -5 -16 -10c-3 -2 -6 -3 -7 -3c-2 0 -4 2 -4 5c0 4 4 6 5 6l21 8l-16 7c-2 1 -5 3 -5 4c0 3 7 7 10 7c1 0 1 0 3 -2l11 -11l2 19c1 6 7 8 7 8 c3 0 6 -3 6 -5c0 0 0 -1 -1 -3l-8 -19l19 11c1 1 2 2 3 2c2 0 4 -2 4 -5c0 -4 -4 -6 -5 -6l-20 -7l17 -8c2 -1 2 -3 2 -4z"
         id="glyph20" />
      <glyph
         glyph-name="plus"
         unicode="+"
         horiz-adv-x="119"
         d="M119 33c0 -4 -5 -4 -6 -4h-39l-11 -39c0 -1 -2 -3 -5 -3c-2 0 -4 1 -4 3c0 0 1 1 1 2l9 37h-37c-2 0 -6 0 -6 4s4 6 6 6h39l12 41c0 1 0 3 3 3c2 0 4 0 4 -3v-3l-10 -38h38c1 0 6 -2 6 -6z"
         id="glyph22" />
      <glyph
         glyph-name="comma"
         unicode=","
         horiz-adv-x="46"
         d="M38 9c0 -18 -20 -35 -23 -35c-1 0 -3 1 -3 2s1 1 3 3c4 3 13 12 16 23c0 0 -3 -2 -6 -2c-6 0 -8 5 -8 8c0 5 3 13 11 13c5 0 10 -6 10 -12z"
         id="glyph24" />
      <glyph
         glyph-name="hyphen"
         unicode="-"
         horiz-adv-x="55"
         d="M52 27c-1 -3 -1 -3 -5 -3h-30c-2 0 -5 0 -5 2c0 0 1 5 1 6c1 3 3 5 6 5h31c2 0 3 -2 3 -4c0 0 -1 -4 -1 -6z"
         id="glyph26" />
      <glyph
         glyph-name="period"
         unicode="."
         horiz-adv-x="46"
         d="M38 12c0 -6 -8 -12 -13 -12c-3 0 -8 3 -8 8c0 6 6 13 11 13c4 0 10 -5 10 -9z"
         id="glyph28" />
      <glyph
         glyph-name="slash"
         unicode="/"
         d="M94 99c0 -1 0 -3 -1 -4l-80 -125c-1 -1 -2 -3 -4 -3s-5 2 -5 4c0 1 0 2 1 3l80 126c1 1 2 5 4 5s5 -4 5 -6z"
         id="glyph30" />
      <glyph
         glyph-name="zero"
         unicode="0"
         d="M87 66c0 -9 -4 -39 -16 -54c-9 -11 -22 -14 -31 -14c-22 0 -24 15 -24 24c0 11 6 36 12 49c8 13 20 20 35 20c22 0 24 -15 24 -25zM61 22c3 9 13 43 13 53c0 6 -7 11 -13 11c-8 0 -13 -5 -15 -9c-5 -10 -17 -53 -17 -62c0 -8 8 -13 13 -13c13 0 18 16 19 20z"
         id="glyph32" />
      <glyph
         glyph-name="one"
         unicode="1"
         d="M67 3c0 -3 -2 -3 -3 -3h-22h-21c-2 0 -4 1 -4 2c0 3 3 4 5 4h4h5c3 0 5 1 5 3l16 63c-5 -2 -13 -6 -16 -6s-5 1 -5 2c0 3 4 6 5 6c9 1 19 3 29 15c1 1 2 2 3 2c2 0 4 -3 4 -3v-1l-21 -81h7h5c2 0 4 -1 4 -3z"
         id="glyph34" />
      <glyph
         glyph-name="two"
         unicode="2"
         d="M83 23c0 -3 -10 -25 -27 -25c-5 0 -10 3 -14 5c-4 3 -11 6 -15 6c-3 0 -4 -3 -6 -9c0 -2 -2 -2 -5 -2c-2 0 -4 0 -4 2s7 21 31 33c5 3 14 10 20 19c5 8 8 23 8 23c0 9 -8 11 -13 11c-16 0 -28 -20 -28 -30c0 -3 1 -3 2 -3c8 0 15 12 15 15c0 1 0 5 -1 6l-1 1c0 1 0 2 1 2 c0 0 2 1 3 1c2 0 3 -7 3 -10c0 -6 -9 -19 -20 -19c-5 0 -9 4 -9 9c0 10 14 33 36 33c13 0 26 -8 26 -23c0 -16 -9 -26 -36 -39c-4 -2 -16 -7 -22 -16c4 0 12 0 17 -1h14c9 0 15 6 17 11c1 2 2 2 5 2c2 0 3 0 3 -2z"
         id="glyph36" />
      <glyph
         glyph-name="three"
         unicode="3"
         d="M86 73c0 -8 -5 -23 -21 -28c5 -3 12 -9 12 -17c0 -16 -17 -30 -40 -30c-13 0 -22 8 -22 18c0 11 8 12 10 12c4 0 6 -3 6 -6c0 -2 -2 -9 -8 -10c1 -6 9 -10 14 -10c8 0 16 5 18 10c3 6 5 18 5 21c0 8 -7 10 -9 10h-5c-2 0 -4 0 -4 2l1 4c0 1 1 1 4 1h4c3 0 11 0 15 6 c3 4 7 19 7 22c0 6 -8 8 -12 8c-13 0 -24 -11 -24 -21c0 -2 0 -4 2 -4c3 0 8 4 8 7c0 1 0 4 -1 5c0 0 -1 1 -1 2s0 2 1 2c0 0 2 1 3 1c2 0 3 -7 3 -10c0 -6 -7 -12 -13 -12c-5 0 -10 5 -10 10c0 10 15 25 34 25c13 0 23 -6 23 -18z"
         id="glyph38" />
      <glyph
         glyph-name="four"
         unicode="4"
         d="M77 1c0 -3 -14 -4 -18 -4c-1 -3 -3 -11 -4 -15c0 -2 -2 -8 -8 -8c-3 0 -7 2 -7 5c0 1 2 8 3 11l3 10c-10 3 -14 3 -20 3c-9 0 -11 -1 -13 -2s-2 -1 -3 -1s-4 2 -4 3c0 2 5 5 6 5s15 11 27 29c6 10 14 25 19 46c1 2 2 8 8 8c1 0 8 -1 8 -6c0 -1 -7 -42 -49 -75h3 c6 0 11 -3 19 -5l5 18c1 3 2 8 8 8c3 0 6 -2 6 -5v-2l-6 -21c2 0 8 0 11 1h2c2 0 4 -2 4 -3z"
         id="glyph40" />
      <glyph
         glyph-name="five"
         unicode="5"
         d="M79 36c0 -18 -17 -38 -42 -38c-13 0 -21 10 -21 19c0 12 8 13 11 13s6 -2 6 -6c0 -3 -1 -10 -9 -11c1 -6 8 -10 13 -10c3 0 13 2 17 12c3 6 6 26 6 30c0 3 -1 7 -6 7c-3 0 -12 -2 -18 -8c-2 -2 -4 -1 -6 -1c-1 0 -2 0 -2 2v2l11 41c0 1 2 3 3 3c0 0 1 1 2 0 c5 -2 12 -5 17 -5c6 0 16 3 22 5h2c1 0 1 -1 1 -2c0 -2 -1 -3 -3 -5c-12 -11 -26 -13 -31 -13c-3 0 -8 1 -8 1s-1 -3 -1 -4l-4 -15c6 3 12 4 16 4c11 0 24 -6 24 -21z"
         id="glyph42" />
      <glyph
         glyph-name="six"
         unicode="6"
         d="M80 38c0 -18 -13 -40 -38 -40c-16 0 -24 10 -24 25c0 6 2 33 15 50c11 15 30 18 39 18c12 0 14 -8 14 -12c0 -8 -4 -13 -8 -13s-7 4 -7 7s3 9 8 10c-1 2 -4 3 -7 3c-8 0 -18 -6 -21 -11c-3 -3 -8 -9 -11 -25c6 9 15 8 17 8c18 0 23 -14 23 -20zM57 16c1 3 7 25 7 30 c0 4 -4 8 -9 8c-18 0 -24 -37 -24 -41c0 -3 5 -10 11 -10c9 0 13 8 15 13z"
         id="glyph44" />
      <glyph
         glyph-name="seven"
         unicode="7"
         d="M98 89c0 0 -2 -1 -3 -3c-3 -4 -10 -16 -18 -32c-6 -13 -14 -29 -18 -48c-1 -2 -2 -8 -10 -8c-4 0 -7 3 -7 6c0 1 3 14 13 35c6 13 20 31 23 35c-2 0 -3 -1 -6 -1s-6 1 -9 2s-5 3 -7 3c-9 0 -24 -7 -29 -17c-1 -2 0 -2 -3 -2c-2 0 -5 -1 -5 1c0 0 1 2 2 3l11 25 c1 2 4 3 6 3s4 0 4 -2c0 -1 -2 -3 -2 -4c6 4 14 6 18 6s6 -2 8 -7c1 -4 5 -6 7 -6c6 0 13 8 16 11c1 1 2 2 4 2s5 0 5 -2z"
         id="glyph46" />
      <glyph
         glyph-name="eight"
         unicode="8"
         d="M79 30c0 -15 -14 -32 -39 -32c-16 0 -25 7 -25 18c0 18 18 27 23 30c-2 1 -8 5 -8 14c0 12 11 31 33 31c11 0 22 -5 22 -16c0 -13 -14 -21 -19 -24c5 -3 13 -10 13 -21zM75 77c0 6 -8 9 -14 9c-13 0 -18 -9 -18 -14c0 -3 3 -7 8 -11l9 -7c9 5 15 17 15 23zM64 22 c0 5 -4 6 -9 10c-1 1 -7 8 -11 10c-12 -6 -17 -20 -17 -26c0 -8 6 -13 15 -13c15 0 22 11 22 19z"
         id="glyph48" />
      <glyph
         glyph-name="nine"
         unicode="9"
         d="M86 65c0 -4 -3 -31 -18 -49c-10 -12 -24 -18 -35 -18c-9 0 -16 2 -16 12c0 9 7 13 10 13c4 0 6 -4 6 -7s-2 -9 -7 -10c2 -3 6 -3 7 -3c8 0 17 7 20 10c2 2 6 8 10 26c-5 -6 -11 -9 -16 -9c-19 0 -23 17 -23 22c0 0 1 18 12 29c11 10 23 10 27 10c15 0 23 -11 23 -26z M72 77c0 3 -3 9 -9 9c-8 0 -14 -4 -16 -12c-2 -5 -7 -25 -7 -30c0 -3 3 -8 9 -8c18 0 23 38 23 41z"
         id="glyph50" />
      <glyph
         glyph-name="colon"
         unicode=":"
         horiz-adv-x="46"
         d="M49 53c0 -6 -8 -11 -13 -11c-4 0 -9 4 -9 8c0 6 7 10 12 10c3 0 10 -2 10 -7zM38 12c0 -6 -8 -12 -13 -12c-3 0 -8 3 -8 8c0 6 6 13 11 13c4 0 10 -5 10 -9z"
         id="glyph52" />
      <glyph
         glyph-name="semicolon"
         unicode=";"
         horiz-adv-x="46"
         d="M49 53c0 -6 -8 -11 -13 -11c-4 0 -9 4 -9 8c0 6 7 10 12 10c3 0 10 -2 10 -7zM37 10c0 -18 -19 -36 -22 -36c-1 0 -3 1 -3 2s0 1 1 2c4 3 13 11 16 23c0 0 -1 -1 -4 -1c-6 0 -8 5 -8 8c0 5 5 13 11 13c5 0 9 -6 9 -11z"
         id="glyph54" />
      <glyph
         glyph-name="question"
         unicode="?"
         d="M85 81c0 -9 -4 -19 -14 -25l-18 -10c-2 -2 -6 -4 -6 -8c0 -1 2 -2 3 -2c2 0 7 2 9 8c1 2 2 1 4 1s4 1 4 -1c0 -4 -6 -15 -17 -15c-2 0 -11 2 -11 11c0 3 2 12 10 16l18 15c6 4 11 10 11 13c0 9 -12 9 -14 9c-9 0 -17 -6 -22 -15c0 0 4 -1 4 -6s-5 -12 -9 -12s-8 4 -8 7 c0 9 13 31 35 31c12 0 21 -7 21 -17zM54 11c0 -6 -7 -11 -12 -11c-4 0 -10 4 -10 8c0 6 8 13 13 13s9 -6 9 -10z"
         id="glyph56" />
      <glyph
         glyph-name="at"
         unicode="@"
         horiz-adv-x="119"
         d="M113 10c0 0 0 -1 -1 -1c0 0 -25 -10 -51 -10c-24 0 -38 11 -38 34c0 28 23 64 62 64c23 0 39 -13 39 -36c0 -10 -7 -44 -26 -44c-1 0 -11 1 -14 6c-4 -3 -11 -6 -19 -6c-12 0 -22 7 -22 22c0 17 14 40 38 40c6 0 15 -4 18 -13h3c2 0 6 0 6 -2c0 -1 -5 -16 -6 -18 c0 -1 -5 -19 -5 -21s1 -2 2 -2c12 0 17 33 17 38c0 21 -14 31 -31 31c-36 0 -56 -35 -56 -60c0 -18 11 -29 32 -29c13 0 28 4 40 8c2 1 4 1 6 1h2c2 0 4 0 4 -2zM84 33l8 31c-2 6 -8 10 -11 10c-15 0 -25 -26 -25 -38c0 -3 1 -13 10 -13c8 0 17 6 18 10z"
         id="glyph58" />
      <glyph
         glyph-name="A"
         unicode="A"
         horiz-adv-x="116"
         d="M112 3c0 -3 -3 -3 -4 -3h-20h-21c-3 0 -2 2 -2 2c0 3 3 4 6 4h9l-2 20h-33l-12 -18c3 -1 10 -2 10 -2c1 0 3 -1 3 -3c0 -3 -2 -3 -3 -3h-17h-14c-2 0 -2 2 -2 2c0 3 1 4 3 4c10 0 13 3 14 5l52 83c2 3 2 4 5 4c4 0 5 -1 5 -4l9 -85c0 -2 1 -3 2 -3h6h2c2 0 4 -1 4 -3z M78 32l-5 40l-23 -40h28z"
         id="glyph60" />
      <glyph
         glyph-name="B"
         unicode="B"
         horiz-adv-x="111"
         d="M108 30c0 -12 -14 -30 -40 -30h-55c-2 0 -4 0 -4 2c0 3 2 4 4 4h4h5c2 0 3 1 3 3l20 78c-1 0 -6 1 -7 1h-2c-2 0 -6 1 -6 3c0 3 4 3 6 3h52c15 0 27 -5 27 -17c0 -10 -11 -24 -29 -27c11 -1 22 -9 22 -20zM97 78c0 11 -10 10 -12 10h-19c-4 0 -5 0 -5 -2l-8 -34h20 c16 0 24 16 24 26zM88 32c0 12 -8 15 -11 15h-25l-9 -41h2h19c17 0 24 16 24 26z"
         id="glyph62" />
      <glyph
         glyph-name="C"
         unicode="C"
         horiz-adv-x="112"
         d="M117 61c-1 -2 -1 -3 -4 -3c-2 0 -4 0 -4 2c0 1 1 2 1 6c0 12 -9 25 -22 25c-9 0 -23 -3 -32 -14c-12 -15 -14 -45 -14 -50c0 -3 -1 -12 5 -17c5 -5 15 -6 19 -6c10 0 30 6 36 28c0 1 3 1 5 1s3 0 3 -2c0 -1 -4 -13 -15 -22c-10 -8 -22 -11 -32 -11c-21 0 -40 8 -40 34 c0 28 24 65 64 65c3 0 15 -1 24 -10l11 10c2 0 4 0 4 -2v-3z"
         id="glyph64" />
      <glyph
         glyph-name="D"
         unicode="D"
         horiz-adv-x="118"
         d="M122 61c0 -27 -21 -61 -58 -61h-51c-2 0 -4 0 -4 2c0 3 2 4 4 4h4h5c2 0 3 1 3 3l20 78c-1 0 -6 1 -7 1h-2c-2 0 -6 1 -6 3c0 3 4 3 6 3h51c17 0 35 -9 35 -33zM106 66c0 18 -15 22 -25 22h-14c-4 0 -6 0 -6 -2l-18 -80h3h14c13 0 27 7 33 18c6 10 13 36 13 42z"
         id="glyph66" />
      <glyph
         glyph-name="E"
         unicode="E"
         horiz-adv-x="101"
         d="M106 36v-4l-15 -30c-1 -2 -2 -2 -5 -2h-73c-2 0 -4 0 -4 2c0 3 2 4 4 4h4h5c2 0 3 1 3 3l20 78h-7h-5c-2 0 -3 0 -3 2c0 3 4 5 6 5h72c2 0 4 0 4 -2l-3 -28c0 -2 -1 -4 -4 -4c-1 0 -5 1 -5 3v2c0 3 1 6 1 8c0 15 -9 14 -26 14h-12l-8 -35h5c10 0 16 4 18 13c1 2 0 2 3 2 c1 0 4 0 4 -2c0 0 -1 -1 -1 -2l-6 -32c-1 -3 -3 -3 -5 -3c-1 0 -5 1 -5 3v1c0 2 3 7 3 8c0 4 -3 5 -11 5h-7l-9 -39h3h13c23 0 31 10 37 27c1 3 1 5 4 5c1 0 5 0 5 -2z"
         id="glyph68" />
      <glyph
         glyph-name="F"
         unicode="F"
         horiz-adv-x="98"
         d="M107 64c0 -2 -2 -4 -5 -4c-1 0 -4 1 -4 3v1c0 2 1 7 1 9c0 13 -8 14 -24 14h-12l-8 -36h4c10 0 16 3 18 12c1 2 0 3 3 3c1 0 3 0 3 -2v-3l-8 -31c-1 -3 -1 -3 -3 -3c-1 0 -6 0 -6 2l1 2c1 2 1 6 1 7c0 3 -2 6 -10 6h-5l-9 -38h8h5c2 0 4 -1 4 -3c0 -3 -3 -3 -4 -3h-25 h-21c-1 0 -2 0 -2 2c0 3 2 4 4 4h4h5c2 0 3 1 3 3l20 78h-7h-5c-2 0 -3 0 -3 2c0 3 4 5 6 5h70c2 0 4 0 4 -2z"
         id="glyph70" />
      <glyph
         glyph-name="G"
         unicode="G"
         horiz-adv-x="120"
         d="M121 36c0 -3 -3 -6 -6 -6h-4s-1 0 -1 -2l-8 -25c0 -1 -1 -3 -2 -3s-8 3 -11 6c-8 -6 -18 -8 -26 -8c-21 0 -40 9 -40 34c0 29 23 65 63 65c3 0 15 -1 24 -10l12 10c2 0 4 0 4 -2c0 0 -2 -1 -2 -3l-7 -31c-1 -2 -1 -3 -4 -3c-2 0 -4 0 -4 2c0 1 1 2 1 6c0 12 -9 25 -22 25 c-9 0 -22 -4 -32 -16c-11 -15 -14 -43 -14 -48c0 -9 4 -14 7 -17s9 -6 17 -6s18 4 20 12c0 1 5 14 5 14c0 1 -8 0 -9 0h-4c-2 0 -5 1 -5 3c0 3 4 5 5 5h22h17c2 0 4 -1 4 -2z"
         id="glyph72" />
      <glyph
         glyph-name="H"
         unicode="H"
         horiz-adv-x="120"
         d="M138 92c0 -3 -2 -4 -4 -4h-8c-2 0 -4 -1 -4 -3l-20 -79h8h2c2 0 4 -1 4 -3c0 -3 -2 -3 -3 -3h-22h-20c-1 0 -4 0 -4 2c0 3 4 4 6 4h2h6c2 0 3 1 3 3l9 37h-39l-10 -40h7h3c2 0 3 -1 3 -3c0 -3 -2 -3 -3 -3h-23h-20c-1 0 -2 0 -2 2c0 3 2 4 4 4h4h5c2 0 3 1 3 3l20 78 c-1 0 -6 1 -7 1h-2c-2 0 -6 1 -6 3c0 3 2 3 3 3h23h22c1 0 2 0 2 -2c0 -3 -3 -4 -5 -4h-9c-2 0 -3 -1 -3 -3l-8 -32h39l11 34c-1 0 -7 1 -8 1h-3c-2 0 -5 1 -5 3c0 3 3 3 4 3h22h21c1 0 2 0 2 -2z"
         id="glyph74" />
      <glyph
         glyph-name="I"
         unicode="I"
         horiz-adv-x="62"
         d="M81 92c0 -3 -2 -4 -4 -4h-4c-1 0 -6 -1 -7 -1c-2 0 -3 0 -3 -2l-19 -79h7h3c2 0 4 -1 4 -3c0 -3 -3 -3 -4 -3h-23h-20c-1 0 -3 0 -3 2c0 3 2 4 4 4h4h6c2 0 3 1 3 3l20 78c-1 0 -6 1 -7 1h-5c-2 0 -4 1 -4 3c0 3 3 3 4 3h23h23c3 0 2 -2 2 -2z"
         id="glyph76" />
      <glyph
         glyph-name="J"
         unicode="J"
         horiz-adv-x="83"
         d="M95 92c0 -3 -2 -4 -4 -4h-2h-4s-2 0 -2 -2l-18 -67c-2 -10 -13 -21 -34 -21c-12 0 -21 5 -21 14s8 14 12 14c5 0 8 -4 8 -8c0 -3 -2 -11 -8 -13c3 -3 7 -3 8 -3c8 0 17 9 19 19l16 66c-3 0 -4 1 -9 1h-5c-2 0 -5 1 -5 3c0 3 4 3 5 3h24h18c2 0 2 -1 2 -2z"
         id="glyph78" />
      <glyph
         glyph-name="K"
         unicode="K"
         horiz-adv-x="120"
         d="M114 3c0 -3 -2 -3 -3 -3h-17h-20c-1 0 -2 1 -2 2c0 3 3 4 5 4c0 0 4 -1 6 0l-18 40l-14 -13l-7 -27h7h3c2 0 3 -1 3 -3c0 -3 -2 -3 -3 -3h-23h-20c-1 0 -2 0 -2 2c0 3 2 4 4 4h4h8l20 81c-1 0 -6 1 -7 1h-2c-2 0 -6 1 -6 3c0 3 2 3 3 3h23h22c1 0 2 0 2 -2 c0 -3 -3 -4 -5 -4h-9c-2 0 -3 -1 -3 -3l-10 -39l56 41c-2 1 -8 1 -8 1c-1 0 -3 1 -3 3c0 3 3 3 4 3h18h12c1 0 3 -1 3 -2c0 -3 -2 -4 -3 -4c-8 0 -14 -2 -18 -5l-33 -26l21 -48c1 -2 3 -3 9 -3c2 0 3 -1 3 -3z"
         id="glyph80" />
      <glyph
         glyph-name="L"
         unicode="L"
         horiz-adv-x="93"
         d="M94 36v-4l-11 -29c-1 -3 -1 -3 -4 -3h-66c-2 0 -4 0 -4 2c0 3 2 4 4 4h4h5c2 0 3 1 3 3l20 78c-1 0 -6 1 -7 1h-2c-2 0 -6 1 -6 3c0 3 2 3 3 3h23h25c1 0 3 0 3 -2c0 -3 -2 -4 -4 -4h-6c-1 0 -6 -1 -7 -1c-3 0 -4 0 -4 -2l-19 -79h3h8c21 0 29 20 32 30c1 2 2 2 4 2 c1 0 3 0 3 -2z"
         id="glyph82" />
      <glyph
         glyph-name="M"
         unicode="M"
         horiz-adv-x="146"
         d="M163 92c0 -3 -2 -4 -4 -4h-10c-2 0 -3 -1 -3 -3l-19 -79h7h3c2 0 3 -1 3 -3c0 -3 -2 -3 -3 -3h-20h-20c-1 0 -3 0 -3 2c0 3 3 4 5 4h3h6c2 0 3 1 3 3l19 77v0l-53 -83c-1 -2 -3 -3 -6 -3s-6 0 -6 3l-12 81v0l-21 -76c3 -1 11 -2 12 -2c2 0 3 -1 3 -3c0 -3 -2 -3 -3 -3 h-17h-16c-2 0 -2 2 -2 2c0 3 2 4 4 4h9c3 1 3 2 3 4l20 77c-1 0 -6 1 -7 1h-2c-2 0 -6 1 -6 3c0 3 4 3 6 3h25c3 0 6 0 6 -3l13 -72l47 73c2 3 4 2 7 2h25c2 0 4 0 4 -2z"
         id="glyph84" />
      <glyph
         glyph-name="N"
         unicode="N"
         horiz-adv-x="120"
         d="M138 92c0 -3 -1 -4 -3 -4c-1 0 -5 0 -8 -1s-5 -1 -5 -3l-21 -81c-1 -3 -1 -3 -4 -3s-4 0 -5 2l-40 79l-20 -73c3 -1 11 -2 12 -2c2 0 3 -1 3 -3c0 -3 -2 -3 -3 -3h-17h-16c-2 0 -2 2 -2 2c0 3 2 4 4 4h9c3 1 3 2 3 4l20 76v1s-1 1 -6 1h-3c-2 0 -6 1 -6 3c0 3 4 3 6 3h24 c3 0 4 0 5 -2l34 -64l15 58c-3 1 -8 2 -9 2c-2 0 -5 1 -5 3c0 3 4 3 5 3h15h16c1 0 2 -1 2 -2z"
         id="glyph86" />
      <glyph
         glyph-name="O"
         unicode="O"
         horiz-adv-x="115"
         d="M120 61c0 -28 -23 -63 -62 -63c-21 0 -36 9 -36 32c0 27 21 67 61 67c19 0 37 -11 37 -36zM101 68c0 8 -2 24 -19 24c-6 0 -19 -3 -28 -18c-6 -12 -12 -38 -12 -48c0 -3 0 -11 4 -16c2 -3 7 -7 13 -7c8 0 18 6 27 18s15 38 15 47z"
         id="glyph88" />
      <glyph
         glyph-name="P"
         unicode="P"
         horiz-adv-x="105"
         d="M114 74c0 -17 -17 -32 -40 -32h-21l-9 -36h7h3c2 0 3 -1 3 -3c0 -3 -2 -3 -3 -3h-23h-20c-1 0 -2 0 -2 2c0 3 2 4 4 4h4h5c2 0 3 1 3 3l20 78c-1 0 -6 1 -7 1h-2c-2 0 -6 1 -6 3c0 3 4 3 6 3h50c12 0 28 -3 28 -20zM95 79c0 10 -10 9 -21 9h-8c-3 0 -5 0 -5 -2l-8 -39h15 c12 0 19 6 20 8c4 6 7 22 7 24z"
         id="glyph90" />
      <glyph
         glyph-name="Q"
         unicode="Q"
         horiz-adv-x="115"
         d="M108 0c0 -2 -8 -26 -25 -26c-12 0 -12 12 -12 16c0 2 1 7 1 9c-2 -1 -10 -1 -14 -1c-21 0 -36 9 -36 32c0 27 21 67 61 67c19 0 37 -11 37 -36c0 -17 -10 -49 -40 -60c2 -8 6 -7 8 -7c1 0 11 0 13 6c0 1 3 2 4 2s3 -1 3 -2zM101 67c0 3 0 13 -4 18c-2 2 -7 7 -15 7 s-20 -5 -29 -18s-13 -40 -13 -48s3 -16 9 -20c0 11 10 16 14 16c8 0 13 -7 15 -13c21 13 23 54 23 58zM72 5c0 8 -3 11 -8 11s-10 -4 -10 -8s3 -5 5 -5c5 0 12 2 13 2z"
         id="glyph92" />
      <glyph
         glyph-name="R"
         unicode="R"
         horiz-adv-x="116"
         d="M117 13c0 -2 -5 -15 -18 -15c-4 0 -24 -1 -24 14c0 2 1 6 3 12c1 3 1 7 1 9c0 10 -11 12 -13 12h-13l-10 -39h7h3c2 0 4 -1 4 -3c0 -3 -3 -3 -4 -3h-22h-20c-1 0 -2 0 -2 2c0 3 2 4 4 4h4h5c2 0 3 1 3 3l20 78c-1 0 -6 1 -7 1h-2c-2 0 -6 1 -6 3c0 3 4 3 6 3h46 c15 0 32 -4 32 -20c0 -12 -12 -24 -28 -27c8 -3 11 -11 11 -16c0 -1 1 -1 0 -6c-2 -11 -3 -13 -3 -15c0 -3 2 -8 6 -8c3 0 8 5 10 11c1 2 2 3 4 3c1 0 3 -1 3 -3zM94 78c0 10 -11 10 -21 10h-7c-3 0 -5 0 -5 -2l-7 -36h13c6 0 15 1 20 5s7 20 7 23z"
         id="glyph94" />
      <glyph
         glyph-name="S"
         unicode="S"
         horiz-adv-x="88"
         d="M85 33c0 -15 -12 -35 -36 -35c-10 0 -20 3 -24 7l-8 -6c-1 -1 -1 -1 -2 -1c0 0 -3 0 -3 2v1l7 27c1 2 2 2 5 2c2 0 3 1 3 -1v-1c0 -2 -1 -4 -1 -6c0 -15 15 -18 24 -18c16 0 21 16 21 22c0 9 -8 11 -13 12l-8 2c-6 1 -14 5 -18 10c-3 3 -4 9 -4 13c0 12 12 34 36 34 c8 0 16 -4 20 -8v0l8 6c1 1 1 2 2 2s3 0 3 -2v-3l-8 -27c-1 -2 0 -2 -3 -2c-2 0 -4 0 -4 2c0 0 1 5 1 8c0 13 -9 18 -19 18c-15 0 -20 -13 -20 -19c0 -9 7 -12 9 -12l8 -2c9 -2 15 -4 19 -8c4 -5 5 -14 5 -17z"
         id="glyph96" />
      <glyph
         glyph-name="T"
         unicode="T"
         horiz-adv-x="106"
         d="M116 63c0 -3 -2 -4 -4 -4c-1 0 -3 0 -3 2v3s1 9 1 13c0 9 -4 9 -17 9h-5c-2 0 -3 0 -3 -2l-20 -78h12h5c2 0 4 -1 4 -3c0 -3 -2 -3 -4 -3h-27h-27s-3 0 -3 2c0 3 2 4 4 4h7h11l19 80h-6c-17 0 -22 -5 -28 -23c-1 -2 -2 -4 -4 -4c-1 0 -3 0 -3 2c0 1 1 8 2 10l6 20 c1 2 3 2 6 2h77c2 0 5 0 5 -2c0 0 -1 -2 -1 -3z"
         id="glyph98" />
      <glyph
         glyph-name="U"
         unicode="U"
         horiz-adv-x="118"
         d="M137 92c0 -3 -2 -4 -4 -4c-1 0 -6 0 -9 -1s-4 -1 -4 -3l-13 -55c-3 -13 -18 -31 -44 -31c-21 0 -34 9 -34 26c0 3 1 6 1 7l15 56c-1 0 -6 1 -7 1h-2c-2 0 -6 1 -6 3c0 3 2 3 3 3h23h22c1 0 2 0 2 -2c0 -3 -3 -4 -5 -4h-9c-2 0 -3 -1 -3 -3l-13 -56c-1 -4 -1 -7 -1 -11 c0 -3 0 -9 3 -12c3 -2 8 -2 12 -2c15 0 30 8 34 27l14 55c-3 1 -9 2 -10 2c-2 0 -4 1 -4 3c0 3 2 3 3 3h16h17c1 0 3 -1 3 -2z"
         id="glyph100" />
      <glyph
         glyph-name="V"
         unicode="V"
         horiz-adv-x="116"
         d="M135 92c0 -3 -1 -4 -3 -4s-10 0 -12 -3c0 0 0 -1 -1 -2l-54 -82c-2 -3 -4 -3 -7 -3c-4 0 -4 1 -4 4l-11 84c0 2 -1 2 -3 2h-4h-3c-2 0 -4 1 -4 3c0 3 3 3 4 3h19h21c1 0 4 0 4 -2c0 -3 -4 -4 -6 -4s-8 -1 -10 -1l10 -64l41 63c-3 1 -7 2 -7 2c-1 0 -5 1 -5 3c0 3 4 3 5 3 h15h13c2 0 2 -1 2 -2z"
         id="glyph102" />
      <glyph
         glyph-name="W"
         unicode="W"
         horiz-adv-x="158"
         d="M176 92c0 -3 -4 -4 -6 -4c-8 0 -9 -2 -10 -5l-48 -82c-2 -3 -3 -3 -5 -3c-3 0 -6 0 -6 3l-6 60l-36 -60c-2 -3 -4 -3 -6 -3c-3 0 -3 1 -3 4l-8 85c-2 0 -4 1 -6 1h-3c-2 0 -4 1 -4 3c0 3 2 3 3 3h20h20c1 0 3 0 3 -2c0 -3 -4 -4 -7 -4c-2 0 -7 -1 -9 -1l6 -62l29 49 l-1 13c-2 0 -4 1 -6 1h-1c-2 0 -4 1 -4 3c0 3 3 3 4 3h19h19c3 0 3 -2 3 -2c0 -3 -3 -4 -6 -4c-2 0 -6 -1 -8 -1l4 -62l37 61v0c-3 1 -11 2 -11 2c-1 0 -3 1 -3 3c0 3 3 3 4 3h17h13c2 0 2 -1 2 -2z"
         id="glyph104" />
      <glyph
         glyph-name="X"
         unicode="X"
         horiz-adv-x="116"
         d="M112 3c0 -3 -2 -3 -3 -3h-20h-21c-2 0 -3 1 -3 2c0 3 5 4 6 4c0 0 4 -1 8 0l-14 33l-27 -31c3 -1 7 -2 8 -2c0 0 4 -1 4 -3c0 -3 -4 -3 -5 -3h-18h-16c-2 0 -2 1 -2 2c0 3 2 4 4 4c9 0 14 2 17 5l31 35l-14 40c-1 1 -1 2 -3 2h-5h-1c-2 0 -6 1 -6 3c0 3 4 3 5 3h18h22 c1 0 3 0 3 -2c0 -3 -2 -4 -3 -4c0 0 -7 0 -11 -1l12 -26l22 25c-3 1 -8 2 -8 2c-1 0 -5 1 -5 3c0 3 4 3 5 3h19h15c1 0 2 -1 2 -2c0 -3 -3 -4 -5 -4c-9 0 -12 -2 -15 -5l-27 -29l18 -45c1 -1 0 -3 2 -3h6h2c2 0 3 -1 3 -3z"
         id="glyph106" />
      <glyph
         glyph-name="Y"
         unicode="Y"
         horiz-adv-x="116"
         d="M136 92c0 -3 -2 -4 -3 -4c-10 0 -14 -2 -16 -5l-38 -45l-8 -32h7h3c2 0 4 -1 4 -3c0 -3 -3 -3 -4 -3h-22h-20c-1 0 -2 0 -2 2c0 3 3 4 5 4h3h5c2 0 3 1 3 3l6 29l-16 48c-1 1 -1 2 -3 2h-4h-4c-2 0 -4 1 -4 3c0 3 3 3 4 3h20h21c1 0 4 0 4 -2c0 -3 -3 -4 -5 -4 c-3 0 -6 -1 -9 -1l15 -38l33 38c-2 1 -4 1 -6 1c-1 0 -5 1 -5 3c0 3 5 3 6 3h14h14c2 0 2 -1 2 -2z"
         id="glyph108" />
      <glyph
         glyph-name="Z"
         unicode="Z"
         horiz-adv-x="96"
         d="M95 33l-10 -30c-1 -3 -1 -3 -4 -3h-64c-2 0 -5 0 -5 2s2 3 3 4l71 82h-14c-17 0 -28 -8 -33 -24c-1 -3 -3 -4 -6 -4c-1 0 -3 2 -3 4v2l9 26c1 2 3 2 5 2h62c2 0 3 1 3 -1c0 -1 0 -4 -1 -5l-72 -82h16c24 0 31 17 35 30c1 3 2 3 5 3c1 0 3 0 3 -2v-4z"
         id="glyph110" />
      <glyph
         glyph-name="a"
         unicode="a"
         d="M86 21c0 0 -2 -10 -5 -15c-2 -2 -7 -7 -13 -7c-5 0 -11 2 -13 6c-3 -2 -10 -6 -18 -6c-10 0 -22 6 -22 22c0 18 14 40 37 40c3 0 9 0 13 -4c2 2 5 2 7 2c3 0 7 -2 7 -5c0 0 -1 0 -1 -2l-11 -39c0 -2 -1 -3 -1 -5c0 -3 4 -5 5 -5c4 0 7 11 8 15c1 3 1 4 4 4c2 0 3 1 3 -1z M53 13c0 1 1 2 1 3l7 33c-1 5 -5 8 -9 8c-3 0 -12 -2 -16 -15c-1 -3 -7 -23 -7 -29c0 -8 5 -10 8 -10c4 0 11 2 16 10z"
         id="glyph112" />
      <glyph
         glyph-name="b"
         unicode="b"
         horiz-adv-x="71"
         d="M74 40c0 -18 -13 -41 -37 -41c-10 0 -22 5 -22 22c0 1 1 5 2 9l13 57c-1 0 -4 1 -5 1s-3 1 -3 3c0 3 2 3 3 3l18 1c2 0 4 0 4 -2v-2l-9 -33c2 1 9 3 14 3c10 0 22 -5 22 -21zM53 19c1 3 6 22 6 28c0 8 -4 10 -7 10c-5 0 -12 -3 -15 -7c-1 -1 -3 -3 -4 -6 c-1 -4 -1 -10 -2 -14c-2 -8 -3 -11 -3 -15c0 -2 1 -12 9 -12c2 0 12 3 16 16z"
         id="glyph114" />
      <glyph
         glyph-name="c"
         unicode="c"
         horiz-adv-x="71"
         d="M74 11c0 -1 -8 -6 -14 -9c-6 -2 -15 -3 -18 -3c-21 0 -27 12 -27 23c0 18 14 39 40 39c11 0 19 -5 19 -11c0 -5 -6 -11 -11 -11s-7 4 -7 6c0 0 1 7 7 9c-2 2 -7 3 -8 3c-4 0 -12 -2 -17 -12c-3 -6 -9 -24 -9 -29c0 -8 5 -13 13 -13c2 0 15 1 25 12c1 1 4 1 4 1 c1 0 3 -4 3 -5z"
         id="glyph116" />
      <glyph
         glyph-name="d"
         unicode="d"
         d="M86 21c0 0 -2 -10 -5 -15c-2 -2 -7 -7 -13 -7c-5 0 -11 2 -13 6c-3 -2 -10 -6 -18 -6c-10 0 -22 6 -22 22c0 18 14 40 37 40c3 0 8 -1 12 -4l8 30c-1 0 -6 1 -7 1s-4 1 -4 3c0 3 4 3 5 3l17 1c2 0 4 0 4 -2v-2l-20 -78c0 -2 -1 -3 -1 -5c0 -3 4 -5 5 -5c4 0 7 11 8 15 c1 3 1 4 4 4c2 0 3 1 3 -1zM53 13c0 1 1 2 1 3l7 33c-1 5 -5 8 -9 8c-3 0 -12 -2 -16 -15c-1 -3 -7 -23 -7 -29c0 -8 5 -10 8 -10c4 0 11 2 16 10z"
         id="glyph118" />
      <glyph
         glyph-name="e"
         unicode="e"
         horiz-adv-x="71"
         d="M74 11c0 -1 -8 -6 -14 -9c-6 -2 -14 -3 -18 -3c-17 0 -27 9 -27 24c0 21 16 38 40 38c10 0 19 -3 19 -11c0 -19 -28 -21 -36 -21h-7c-1 -4 -2 -10 -2 -13c0 -8 5 -13 13 -13c2 0 15 1 25 12c1 1 4 1 4 1c1 0 3 -4 3 -5zM64 50c0 4 -4 7 -9 7c-4 0 -10 -2 -13 -6 s-8 -12 -10 -18c8 0 32 4 32 17z"
         id="glyph120" />
      <glyph
         glyph-name="f"
         unicode="f"
         horiz-adv-x="54"
         d="M75 86c0 -5 -7 -9 -11 -9s-7 2 -7 5s3 8 6 9c-2 1 -5 1 -5 1c-2 0 -3 -2 -4 -4s-4 -22 -5 -28h14c2 0 4 0 4 -2c0 -3 -4 -3 -6 -3h-14l-8 -45c-1 -5 -1 -9 -3 -14c-6 -21 -20 -23 -24 -23c-8 0 -14 4 -14 10c0 5 4 11 8 11s7 -3 7 -6c0 -2 -1 -8 -5 -10c2 -1 4 -1 4 -1 c4 0 7 8 7 10c2 6 3 9 4 15l8 53h-10c-2 0 -5 0 -5 2c0 3 3 3 5 3h11l5 15c1 6 4 22 21 22c9 0 17 -5 17 -11z"
         id="glyph122" />
      <glyph
         glyph-name="g"
         unicode="g"
         horiz-adv-x="71"
         d="M61 -9c-3 -11 -16 -18 -33 -18c-10 0 -20 1 -20 9c0 5 6 10 10 10s7 -2 7 -5c0 -2 -1 -7 -4 -9c1 0 5 -1 8 -1c6 0 17 6 20 18l2 8c-4 -2 -10 -3 -14 -3c-12 0 -22 7 -22 22c0 17 14 39 37 39c4 0 10 -1 13 -4c1 1 4 2 7 2s7 -2 7 -5c0 0 -1 -1 -1 -3zM54 16l7 34 c-1 5 -5 7 -9 7c-3 0 -11 -2 -15 -13c-2 -4 -8 -21 -8 -29c0 -3 3 -11 9 -11s15 8 16 12z"
         id="glyph124" />
      <glyph
         glyph-name="h"
         unicode="h"
         d="M86 21c0 -3 -8 -22 -21 -22c-6 0 -14 4 -14 12c0 2 0 4 1 7c2 5 8 24 8 32c0 2 0 7 -5 7c-12 0 -21 -14 -22 -17l-8 -35c-1 -6 -7 -6 -8 -6c-3 0 -7 2 -7 5c0 1 1 2 1 4l19 79c-1 0 -4 1 -5 1s-3 1 -3 3c0 3 2 3 3 3l18 1c2 0 4 0 4 -2v-2l-9 -36c5 4 12 6 18 6 c10 0 19 -3 19 -14c0 -8 -7 -26 -9 -30s-2 -8 -2 -11c0 -2 0 -3 1 -3c8 0 13 15 14 18c0 2 2 1 4 1s3 1 3 -1z"
         id="glyph126" />
      <glyph
         glyph-name="i"
         unicode="i"
         horiz-adv-x="46"
         d="M54 21c0 -3 -10 -22 -23 -22c-6 0 -13 4 -13 12c0 2 0 3 1 5l12 34s1 3 1 5s-1 2 -2 2c-8 0 -11 -14 -12 -17c0 -2 -1 -1 -3 -1s-5 1 -5 3c0 3 8 19 21 19c6 0 15 -2 15 -10c0 -2 0 -4 -1 -6l-14 -34s-1 -3 -1 -5s1 -3 2 -3c8 0 13 15 14 18c0 2 2 1 4 1s4 1 4 -1zM55 85 c0 -5 -5 -12 -11 -12c-5 0 -11 4 -11 8c0 5 8 12 14 12c5 0 8 -5 8 -8z"
         id="glyph128" />
      <glyph
         glyph-name="j"
         unicode="j"
         horiz-adv-x="46"
         d="M38 -6c-3 -12 -17 -21 -28 -21c-8 0 -13 4 -13 9s3 10 8 10c4 0 7 -2 7 -5c0 -2 -1 -8 -4 -10h2c8 0 13 13 14 17l13 53c0 2 1 4 1 6c0 4 -4 4 -5 4c-3 0 -10 -2 -15 -15c-1 -2 0 -3 -3 -3c-2 0 -5 1 -5 3s10 19 26 19c8 0 16 -2 16 -11v-5zM55 85c0 -5 -5 -12 -11 -12 c-5 0 -11 4 -11 8c0 5 8 12 14 12c5 0 8 -5 8 -8z"
         id="glyph130" />
      <glyph
         glyph-name="k"
         unicode="k"
         horiz-adv-x="71"
         d="M79 21c0 -1 -7 -22 -20 -22c-9 0 -16 5 -16 13c0 1 1 3 1 4v3c0 6 -10 9 -14 10l-5 -25c-1 -3 -5 -5 -8 -5s-7 2 -7 5c0 1 1 2 1 4l19 79c-1 0 -4 1 -5 1s-3 1 -3 3c0 3 2 3 3 3l18 1c2 0 4 0 4 -2v-2l-15 -53c3 2 8 4 13 9c9 9 14 14 22 14s11 -5 11 -9 c0 -9 -8 -13 -11 -13c-4 0 -7 4 -7 7c0 4 6 8 11 9c0 1 -4 2 -4 2c-5 0 -11 -3 -20 -13c0 0 -6 -8 -10 -11c10 -1 21 -4 21 -14v-3c-1 -4 -1 -8 -1 -8c0 -4 1 -5 2 -5c4 0 10 7 12 15c1 3 1 4 4 4c2 0 4 1 4 -1z"
         id="glyph132" />
      <glyph
         glyph-name="l"
         unicode="l"
         horiz-adv-x="38"
         d="M46 21c0 0 -3 -10 -6 -15c-2 -2 -6 -7 -12 -7c-8 0 -16 4 -16 13v4l18 71c-1 0 -4 1 -5 1s-3 1 -3 3c0 3 2 3 3 3l18 1c2 0 4 0 4 -2v-2l-20 -78c0 -2 -1 -3 -1 -5c0 -3 1 -5 2 -5c4 0 9 11 10 15c1 3 1 4 4 4c2 0 4 1 4 -1z"
         id="glyph134" />
      <glyph
         glyph-name="m"
         unicode="m"
         horiz-adv-x="127"
         d="M135 21c0 -3 -8 -22 -21 -22c-6 0 -15 4 -15 12c0 2 1 4 2 7c2 5 10 24 10 32c0 2 -1 7 -6 7c-12 0 -21 -14 -22 -17l-8 -34c-2 -6 -9 -7 -10 -7c-3 0 -7 1 -7 5c0 1 1 8 2 11l6 23c1 5 2 9 2 12c0 2 0 7 -5 7c-12 0 -19 -14 -20 -17l-11 -34c-2 -6 -6 -7 -7 -7 c-3 0 -7 1 -7 5c0 1 1 2 1 4l9 39c0 2 1 4 1 6c0 3 -1 4 -2 4c-4 0 -8 -10 -9 -14c-1 -3 0 -4 -3 -4c-2 0 -5 1 -5 3c0 0 3 8 6 13c2 2 5 6 11 6c4 0 15 0 17 -8c9 9 17 8 20 8s16 1 19 -9c4 4 12 9 23 9c10 0 18 -3 18 -14c0 -8 -6 -26 -8 -30s-3 -8 -3 -11c0 -2 1 -3 2 -3 c8 0 12 15 13 18c0 2 2 1 4 1s3 1 3 -1z"
         id="glyph136" />
      <glyph
         glyph-name="n"
         unicode="n"
         horiz-adv-x="88"
         d="M94 21c0 -3 -7 -22 -20 -22c-6 0 -16 4 -16 12c0 2 1 4 2 7c2 5 8 24 8 32c0 2 0 7 -5 7c-12 0 -19 -14 -20 -17l-11 -34c-2 -6 -6 -7 -7 -7c-3 0 -7 1 -7 5c0 1 1 2 1 4l9 39c0 2 1 4 1 6c0 3 -1 4 -2 4c-4 0 -8 -10 -9 -14c-1 -3 0 -4 -3 -4c-2 0 -5 1 -5 3 c0 0 3 8 6 13c2 2 5 6 11 6c4 0 15 0 17 -8c9 9 17 8 20 8c10 0 19 -3 19 -14c0 -8 -6 -26 -8 -30s-2 -8 -2 -11c0 -2 0 -3 1 -3c8 0 11 15 12 18c0 2 3 1 5 1s3 1 3 -1z"
         id="glyph138" />
      <glyph
         glyph-name="o"
         unicode="o"
         d="M82 39c0 -17 -13 -40 -40 -40c-16 0 -27 10 -27 23c0 17 14 39 41 39c16 0 26 -9 26 -22zM59 17c3 6 7 23 7 28c0 10 -7 12 -11 12c-6 0 -15 -4 -18 -13c-3 -6 -8 -23 -8 -28c0 -10 9 -13 13 -13c6 0 14 5 17 14z"
         id="glyph140" />
      <glyph
         glyph-name="p"
         unicode="p"
         d="M83 40c0 -18 -15 -41 -38 -41c-3 0 -10 1 -14 4l-5 -24h6c1 0 5 0 5 -2c0 -3 -4 -3 -5 -3h-14h-13c-1 0 -2 1 -2 2c0 3 3 3 5 3c4 0 4 1 4 3l16 65c0 2 1 4 1 6c0 3 -1 4 -2 4c-4 0 -8 -10 -9 -14c-1 -3 0 -4 -3 -4c-2 0 -5 1 -5 3c0 0 3 8 6 13c2 2 5 6 11 6 c5 0 13 -2 15 -6c3 2 9 6 17 6c10 0 24 -5 24 -21zM60 19c1 3 7 22 7 28c0 8 -5 10 -8 10c-4 0 -10 -2 -15 -10v-2l-11 -33c1 -5 8 -9 12 -9c3 0 11 3 15 16z"
         id="glyph142" />
      <glyph
         glyph-name="q"
         unicode="q"
         horiz-adv-x="71"
         d="M68 -23c0 -3 -2 -3 -3 -3h-14h-15c-2 0 -4 1 -4 2c0 3 4 3 6 3h5c1 0 2 1 2 3l6 20c-2 -1 -9 -3 -14 -3c-10 0 -22 6 -22 22c0 18 14 40 37 40c3 0 9 0 13 -4c3 3 13 4 13 4c2 0 2 -2 2 -2v-2l-21 -78h6c1 0 3 0 3 -2zM53 15l8 34c-1 5 -5 8 -9 8c-3 0 -12 -2 -16 -15 c-1 -3 -7 -23 -7 -29c0 -8 5 -10 8 -10c6 0 15 8 16 12z"
         id="glyph144" />
      <glyph
         glyph-name="r"
         unicode="r"
         horiz-adv-x="66"
         d="M78 51c0 -5 -6 -12 -11 -12c-4 0 -7 4 -7 7c0 0 0 6 6 9c-2 2 -6 2 -7 2c-9 0 -15 -10 -16 -13l-11 -38c-2 -6 -6 -7 -7 -7c-3 0 -7 1 -7 5c0 1 1 2 1 4l9 39c0 2 1 4 1 6c0 3 -1 4 -2 4c-4 0 -8 -10 -9 -14c-1 -3 0 -4 -3 -4c-2 0 -5 1 -5 3c0 0 3 8 6 13c2 2 5 6 11 6 s14 -2 16 -6c5 5 11 6 16 6c10 0 19 -4 19 -10z"
         id="glyph146" />
      <glyph
         glyph-name="s"
         unicode="s"
         horiz-adv-x="64"
         d="M64 23c0 -4 -4 -15 -10 -19c-6 -5 -18 -5 -21 -5c-13 0 -22 4 -22 13c0 6 7 11 11 11c2 0 6 -1 6 -6c0 -6 -5 -9 -6 -9c4 -3 9 -5 11 -5c19 0 21 14 21 14c0 6 -9 8 -15 9c-4 1 -16 5 -16 16c0 4 2 11 6 14c2 2 10 5 20 5s17 -2 17 -10c0 -6 -5 -11 -8 -11s-5 3 -5 6 c0 0 -1 6 4 8c-3 3 -7 3 -8 3c-15 0 -17 -10 -17 -10c0 -4 8 -7 12 -8c6 -1 11 -3 14 -6c4 -3 6 -7 6 -10z"
         id="glyph148" />
      <glyph
         glyph-name="t"
         unicode="t"
         horiz-adv-x="50"
         d="M57 21c0 -2 -9 -22 -25 -22c-8 0 -15 4 -15 13v4l9 39h-9c-2 0 -5 0 -5 2c0 3 3 3 5 3h11l4 22c1 6 9 6 11 6c3 0 6 -2 6 -5c0 -1 -2 -7 -3 -10l-2 -13h9c2 0 4 0 4 -2c0 -3 -2 -3 -4 -3h-11l-12 -42v-5c0 -4 1 -5 2 -5c3 0 13 3 18 16c1 2 1 3 4 3c2 0 3 1 3 -1z"
         id="glyph150" />
      <glyph
         glyph-name="u"
         unicode="u"
         horiz-adv-x="84"
         d="M91 21c0 0 -3 -10 -6 -15c-2 -2 -5 -7 -11 -7c-5 0 -14 2 -16 6c-6 -6 -12 -6 -15 -6c-11 0 -21 5 -21 17c0 8 4 19 8 30c1 2 2 6 2 9c0 2 -1 2 -2 2c-8 0 -11 -14 -12 -17c0 -2 -1 -1 -3 -1s-5 1 -5 3c0 3 8 19 21 19c6 0 15 -2 15 -10c0 -2 0 -5 -1 -8 c-3 -9 -8 -22 -8 -30c0 -3 1 -10 7 -10c4 0 7 3 9 5c3 3 4 5 4 7l9 39c1 6 9 6 11 6c3 0 5 -1 5 -5v-3l-9 -39c0 -2 -1 -3 -1 -5c0 -3 1 -5 2 -5c4 0 7 11 8 15c1 3 1 4 4 4c2 0 5 1 5 -1z"
         id="glyph152" />
      <glyph
         glyph-name="v"
         unicode="v"
         horiz-adv-x="71"
         d="M78 51c0 -6 -9 -52 -33 -52c-8 0 -23 2 -23 18c0 6 3 16 8 29c1 2 2 6 2 9c0 2 -1 2 -2 2c-8 0 -11 -14 -12 -17c0 -2 -1 -1 -3 -1s-5 1 -5 3c0 3 8 19 21 19c6 0 15 -2 15 -10c0 -2 0 -5 -1 -8c-3 -9 -8 -22 -8 -30c0 -4 0 -10 8 -10c15 0 21 35 21 35c0 4 -4 7 -6 9 c-1 1 -3 3 -3 6c0 4 6 8 10 8c2 0 11 0 11 -10z"
         id="glyph154" />
      <glyph
         glyph-name="w"
         unicode="w"
         horiz-adv-x="103"
         d="M110 51c0 -6 -6 -25 -10 -34c-4 -11 -10 -18 -20 -18c-5 0 -17 1 -21 6c-3 -3 -7 -6 -13 -6c-9 0 -24 3 -24 18c0 6 4 16 8 29c1 2 2 6 2 9c0 2 -1 2 -2 2c-8 0 -11 -14 -12 -17c0 -2 -1 -1 -3 -1s-5 1 -5 3c0 3 8 19 21 19c6 0 15 -2 15 -10c0 -2 0 -5 -1 -7 c-4 -11 -8 -21 -8 -29c0 -2 -1 -12 9 -12c4 0 9 5 11 10c0 1 -1 3 -1 4c0 3 2 10 3 15l5 21c0 2 4 7 10 7c3 0 7 -1 7 -5c0 -1 -1 -5 -2 -9c-3 -13 -7 -29 -7 -33s0 -10 8 -10c5 0 10 6 13 12s6 21 6 23c0 4 -4 7 -6 9c-1 1 -2 3 -2 6c0 4 5 8 9 8c2 0 10 0 10 -10z"
         id="glyph156" />
      <glyph
         glyph-name="x"
         unicode="x"
         horiz-adv-x="75"
         d="M82 21c0 -4 -10 -22 -27 -22c-8 0 -14 2 -17 6c-2 -2 -8 -6 -14 -6c-8 0 -15 6 -15 12s5 11 10 11c4 0 7 -4 7 -7c0 0 -1 -8 -7 -10c2 -2 5 -2 5 -2c5 0 10 6 12 14l4 19c1 4 4 12 4 15c0 1 -2 6 -8 6c-5 0 -15 -4 -18 -15c-1 -2 -1 -3 -3 -3s-5 1 -5 3c0 4 10 19 27 19 c8 0 14 -2 17 -6c5 6 10 6 13 6c8 0 16 -4 16 -10s-5 -12 -9 -12s-8 4 -8 7c0 0 2 7 8 9c-2 2 -6 2 -7 2c-5 0 -9 -7 -10 -12l-7 -30v-5s0 -7 6 -7c5 0 16 7 19 18c1 2 2 1 4 1s3 1 3 -1z"
         id="glyph158" />
      <glyph
         glyph-name="y"
         unicode="y"
         horiz-adv-x="75"
         d="M67 -1c-3 -13 -19 -26 -36 -26c-10 0 -16 5 -16 11c0 5 4 11 9 11c2 0 6 -1 6 -6s-3 -9 -5 -10c2 -2 5 -2 6 -2c10 0 21 13 23 25c-2 -1 -6 -3 -11 -3c-11 0 -21 5 -21 17c0 8 4 19 8 30c1 2 2 6 2 9c0 2 -1 2 -2 2c-8 0 -11 -14 -12 -17c0 -2 -1 -1 -3 -1s-5 1 -5 3 c0 3 8 19 21 19c6 0 15 -2 15 -10c0 -2 0 -5 -1 -8c-3 -9 -8 -22 -8 -30c0 -3 1 -10 7 -10c4 0 7 2 8 3c4 3 5 6 5 7l9 41c2 6 10 6 11 6c3 0 5 -1 5 -5v-3z"
         id="glyph160" />
      <glyph
         glyph-name="z"
         unicode="z"
         horiz-adv-x="64"
         d="M73 21c0 -4 -11 -22 -26 -22c-4 0 -8 2 -11 5c-2 2 -6 4 -9 4c-4 0 -9 -5 -11 -8c-1 -1 -2 -1 -4 -1s-3 0 -3 2s9 12 15 18c3 3 11 9 16 13c9 8 13 14 16 17h-3h-9h-11c-4 0 -5 -2 -6 -3s-1 -2 -3 -2s-5 0 -5 2c0 4 9 15 20 15c3 0 8 -1 12 -4c3 -2 5 -4 8 -4 c2 0 6 5 7 7c1 1 3 1 5 1s4 1 4 -1s-8 -10 -16 -18c-3 -3 -10 -11 -15 -15c-9 -8 -14 -11 -17 -14h5h11c11 0 18 1 21 9c1 1 2 1 4 1s5 0 5 -2z"
         id="glyph162" />
      <glyph
         glyph-name="guillemotleft"
         unicode="«"
         horiz-adv-x="88"
         d="M45 2c0 -1 -1 -2 -2 -2h-1c-1 0 -2 0 -2 1c-1 11 -6 21 -12 29c0 1 -1 2 0 3c10 8 21 20 27 31c0 1 1 1 2 1h1c1 0 1 -1 1 -2c-4 -10 -10 -23 -16 -32c2 -9 3 -19 2 -29zM71 2c0 -1 -3 -2 -4 -2h-1c-1 0 -2 0 -2 1c-1 11 -5 21 -11 29c0 1 0 2 1 3c10 8 21 20 27 31 c0 1 1 1 2 1h1c1 0 1 -1 1 -2c-4 -10 -12 -23 -18 -32c2 -9 5 -19 4 -29z"
         id="glyph164" />
      <glyph
         glyph-name="guillemotright"
         unicode="»"
         horiz-adv-x="88"
         d="M78 30c-10 -8 -21 -18 -27 -29c0 -1 -1 -1 -2 -1h-2c-1 0 -1 1 -1 2c4 10 11 20 17 29c-2 9 -4 22 -3 32c0 1 2 2 3 2h1c1 0 2 0 2 -1c1 -11 7 -23 13 -31c0 -1 0 -2 -1 -3zM52 30c-10 -8 -21 -18 -27 -29c0 -1 0 -1 -1 -1h-1c-1 0 -2 1 -2 2c4 10 11 20 17 29 c-2 9 -2 22 -1 32c0 1 1 2 2 2h1c1 0 2 0 2 -1c1 -11 5 -23 11 -31c0 -1 0 -2 -1 -3z"
         id="glyph166" />
      <glyph
         glyph-name="Adieresis"
         unicode="Ä"
         horiz-adv-x="116"
         d="M112 3c0 -3 -3 -3 -4 -3h-20h-21c-3 0 -2 2 -2 2c0 3 3 4 6 4h9l-2 20h-33l-12 -18c3 -1 10 -2 10 -2c1 0 3 -1 3 -3c0 -3 -2 -3 -3 -3h-17h-14c-2 0 -2 2 -2 2c0 3 1 4 3 4c10 0 13 3 14 5l52 83c2 3 2 4 5 4c4 0 5 -1 5 -4l9 -85c0 -2 1 -3 2 -3h6h2c2 0 4 -1 4 -3z M78 32l-5 40l-23 -40h28zM78 113c0 -5 -8 -11 -13 -11c-4 0 -7 5 -7 8c0 5 5 11 10 11c4 0 10 -5 10 -8zM117 113c0 -5 -5 -11 -10 -11c-4 0 -9 5 -9 8c0 5 7 11 12 11c4 0 7 -5 7 -8z"
         id="glyph168" />
      <glyph
         glyph-name="AE"
         unicode="Æ"
         horiz-adv-x="140"
         d="M141 36v-4l-13 -30c-1 -2 -2 -2 -5 -2h-64c-2 0 -4 0 -4 2c0 3 2 4 4 4h1h5c2 0 2 1 2 3l10 34h-22l-22 -35c3 -1 9 -2 10 -2s3 -1 3 -3c0 -3 -2 -3 -3 -3h-17h-14c-2 0 -2 1 -2 2c0 3 2 4 3 4c10 0 12 3 14 5l50 77h-6c-2 0 -6 1 -6 3c0 3 4 3 6 3h72c3 0 5 -1 5 -5 l-4 -24c0 -3 0 -5 -3 -5c-2 0 -4 1 -4 4c0 1 1 2 1 3v8c0 13 -8 13 -23 13h-5c-3 0 -4 0 -4 -2l-11 -37h7c10 0 15 2 17 12c1 2 1 3 4 3c1 0 4 -1 4 -3v-2l-8 -31c-1 -3 -3 -2 -5 -2c-1 0 -3 0 -3 2v1s1 6 1 8c0 4 -2 6 -10 6h-8l-9 -37h3h12c21 0 28 11 34 27c1 3 1 5 4 5 c1 0 3 0 3 -2zM79 49l8 38h-3l-25 -38h20z"
         id="glyph170" />
      <glyph
         glyph-name="Odieresis"
         unicode="Ö"
         horiz-adv-x="115"
         d="M120 61c0 -28 -23 -63 -62 -63c-21 0 -36 9 -36 32c0 27 21 67 61 67c19 0 37 -11 37 -36zM101 68c0 8 -2 24 -19 24c-6 0 -19 -3 -28 -18c-6 -12 -12 -38 -12 -48c0 -3 0 -11 4 -16c2 -3 7 -7 13 -7c8 0 18 6 27 18s15 38 15 47zM77 113c0 -5 -7 -11 -12 -11 c-4 0 -8 5 -8 8c0 5 5 11 10 11c4 0 10 -5 10 -8zM116 113c0 -5 -5 -11 -10 -11c-4 0 -8 5 -8 8c0 5 6 11 11 11c4 0 7 -5 7 -8z"
         id="glyph172" />
      <glyph
         glyph-name="Udieresis"
         unicode="Ü"
         horiz-adv-x="118"
         d="M137 92c0 -3 -2 -4 -4 -4c-1 0 -6 0 -9 -1s-4 -1 -4 -3l-13 -55c-3 -13 -18 -31 -44 -31c-21 0 -34 9 -34 26c0 3 1 6 1 7l15 56c-1 0 -6 1 -7 1h-2c-2 0 -6 1 -6 3c0 3 2 3 3 3h23h22c1 0 2 0 2 -2c0 -3 -3 -4 -5 -4h-9c-2 0 -3 -1 -3 -3l-13 -56c-1 -4 -1 -7 -1 -11 c0 -3 0 -9 3 -12c3 -2 8 -2 12 -2c15 0 30 8 34 27l14 55c-3 1 -9 2 -10 2c-2 0 -4 1 -4 3c0 3 2 3 3 3h16h17c1 0 3 -1 3 -2zM82 113c0 -5 -6 -11 -11 -11c-4 0 -8 5 -8 8c0 5 6 11 11 11c4 0 8 -5 8 -8zM122 113c0 -5 -6 -11 -11 -11c-4 0 -6 5 -6 8c0 5 4 11 9 11 c4 0 8 -5 8 -8z"
         id="glyph174" />
      <glyph
         glyph-name="germandbls"
         unicode="ß"
         horiz-adv-x="89"
         d="M88 23c0 -12 -13 -24 -28 -24c-9 0 -15 5 -15 11c0 4 4 9 8 9c3 0 5 -4 5 -6c0 0 0 -3 -3 -5l-1 -2c2 -2 4 -3 6 -3c8 0 13 18 13 19c0 3 -4 5 -6 7c-3 3 -3 10 -3 13c0 8 4 12 9 17c2 2 4 6 6 12c0 1 2 9 2 11s-3 10 -13 10c-13 0 -15 -6 -17 -17l-12 -66 c-1 -4 -5 -10 -6 -14c-6 -21 -20 -22 -23 -22c-6 0 -12 4 -12 10s6 11 10 11s7 -3 7 -6s-4 -9 -7 -10c1 -1 2 -1 2 -1c6 0 11 14 13 26l8 52h-10c-2 0 -5 0 -5 2c0 3 3 3 5 3h11l4 13c4 25 23 24 32 24c19 0 27 -7 27 -15c0 -2 -1 -6 -7 -16l-9 -13c-1 -1 -4 -5 -4 -6 c0 -2 6 -8 7 -9c4 -4 6 -10 6 -15z"
         id="glyph176" />
      <glyph
         glyph-name="agrave"
         unicode="à"
         d="M86 21c0 0 -2 -10 -5 -15c-2 -2 -7 -7 -13 -7c-5 0 -11 2 -13 6c-3 -2 -10 -6 -18 -6c-10 0 -22 6 -22 22c0 18 14 40 37 40c3 0 9 0 13 -4c2 2 5 2 7 2c3 0 7 -2 7 -5c0 0 -1 0 -1 -2l-11 -39c0 -2 -1 -3 -1 -5c0 -3 4 -5 5 -5c4 0 7 11 8 15c1 3 1 4 4 4c2 0 3 1 3 -1z M53 13c0 1 1 2 1 3l7 33c-1 5 -5 8 -9 8c-3 0 -12 -2 -16 -15c-1 -3 -7 -23 -7 -29c0 -8 5 -10 8 -10c4 0 11 2 16 10zM68 74c0 -1 -5 -6 -7 -6c-1 0 -1 3 -1 3l-14 12c-1 1 -3 2 -1 6c2 3 6 8 9 8s4 -3 5 -5l9 -15v-3z"
         id="glyph178" />
      <glyph
         glyph-name="aacute"
         unicode="á"
         d="M86 21c0 0 -2 -10 -5 -15c-2 -2 -7 -7 -13 -7c-5 0 -11 2 -13 6c-3 -2 -10 -6 -18 -6c-10 0 -22 6 -22 22c0 18 14 40 37 40c3 0 9 0 13 -4c2 2 5 2 7 2c3 0 7 -2 7 -5c0 0 -1 0 -1 -2l-11 -39c0 -2 -1 -3 -1 -5c0 -3 4 -5 5 -5c4 0 7 11 8 15c1 3 1 4 4 4c2 0 3 1 3 -1z M53 13c0 1 1 2 1 3l7 33c-1 5 -5 8 -9 8c-3 0 -12 -2 -16 -15c-1 -3 -7 -23 -7 -29c0 -8 5 -10 8 -10c4 0 11 2 16 10zM83 89c0 -4 -3 -5 -5 -6l-23 -12c-1 0 0 -3 -1 -3c-2 0 -4 5 -4 6s1 2 2 3l15 15c2 2 7 5 10 5s6 -5 6 -8z"
         id="glyph180" />
      <glyph
         glyph-name="acircumflex"
         unicode="â"
         d="M86 21c0 0 -2 -10 -5 -15c-2 -2 -7 -7 -13 -7c-5 0 -11 2 -13 6c-3 -2 -10 -6 -18 -6c-10 0 -22 6 -22 22c0 18 14 40 37 40c3 0 9 0 13 -4c2 2 5 2 7 2c3 0 7 -2 7 -5c0 0 -1 0 -1 -2l-11 -39c0 -2 -1 -3 -1 -5c0 -3 4 -5 5 -5c4 0 7 11 8 15c1 3 1 4 4 4c2 0 3 1 3 -1z M53 13c0 1 1 2 1 3l7 33c-1 5 -5 8 -9 8c-3 0 -12 -2 -16 -15c-1 -3 -7 -23 -7 -29c0 -8 5 -10 8 -10c4 0 11 2 16 10zM83 72l-2 -4l-21 15l-23 -15l-4 4l30 25z"
         id="glyph182" />
      <glyph
         glyph-name="atilde"
         unicode="ã"
         d="M86 21c0 0 -2 -10 -5 -15c-2 -2 -7 -7 -13 -7c-5 0 -11 2 -13 6c-3 -2 -10 -6 -18 -6c-10 0 -22 6 -22 22c0 18 14 40 37 40c3 0 9 0 13 -4c2 2 5 2 7 2c3 0 7 -2 7 -5c0 0 -1 0 -1 -2l-11 -39c0 -2 -1 -3 -1 -5c0 -3 4 -5 5 -5c4 0 7 11 8 15c1 3 1 4 4 4c2 0 3 1 3 -1z M53 13c0 1 1 2 1 3l7 33c-1 5 -5 8 -9 8c-3 0 -12 -2 -16 -15c-1 -3 -7 -23 -7 -29c0 -8 5 -10 8 -10c4 0 11 2 16 10zM87 88c0 -2 -5 -5 -7 -7c-3 -2 -11 -6 -14 -6c-2 0 -5 2 -9 6c-1 2 -2 2 -4 2c-3 0 -10 -4 -13 -6c-1 -1 -1 -2 -2 -2c-2 0 -2 2 -2 3c0 2 6 6 8 7 c2 2 8 6 12 6c2 0 5 -2 8 -5c2 -3 5 -3 7 -3c3 0 9 5 11 6c1 1 2 2 3 2s2 -2 2 -3z"
         id="glyph184" />
      <glyph
         glyph-name="adieresis"
         unicode="ä"
         d="M86 21c0 0 -2 -10 -5 -15c-2 -2 -7 -7 -13 -7c-5 0 -11 2 -13 6c-3 -2 -10 -6 -18 -6c-10 0 -22 6 -22 22c0 18 14 40 37 40c3 0 9 0 13 -4c2 2 5 2 7 2c3 0 7 -2 7 -5c0 0 -1 0 -1 -2l-11 -39c0 -2 -1 -3 -1 -5c0 -3 4 -5 5 -5c4 0 7 11 8 15c1 3 1 4 4 4c2 0 3 1 3 -1z M53 13c0 1 1 2 1 3l7 33c-1 5 -5 8 -9 8c-3 0 -12 -2 -16 -15c-1 -3 -7 -23 -7 -29c0 -8 5 -10 8 -10c4 0 11 2 16 10zM54 85c0 -5 -6 -11 -11 -11c-4 0 -7 5 -7 8c0 5 5 10 10 10c4 0 8 -4 8 -7zM87 85c0 -5 -4 -11 -9 -11c-4 0 -10 5 -10 8c0 5 8 10 13 10c4 0 6 -4 6 -7z "
         id="glyph186" />
      <glyph
         glyph-name="ae"
         unicode="æ"
         horiz-adv-x="112"
         d="M111 11c0 -2 -10 -12 -29 -12c-5 0 -14 2 -18 5c-2 -4 -6 -5 -7 -5c-2 0 -5 1 -5 4c-6 -4 -13 -4 -15 -4c-15 0 -25 7 -25 16c0 2 1 14 16 25c11 8 28 14 36 16c1 4 8 5 9 5c4 0 6 -3 6 -4c4 2 12 4 18 4c9 0 17 -3 17 -11c0 -19 -27 -21 -36 -21h-6c-2 -6 -4 -10 -4 -11 c0 -10 8 -15 14 -15c3 0 15 2 24 12c1 1 1 1 2 1s3 -4 3 -5zM106 50c0 3 -3 7 -9 7c-3 0 -11 -1 -16 -6c-3 -3 -7 -13 -8 -18h4c8 0 29 4 29 17zM55 17l8 34c-9 -3 -19 -13 -24 -18c-11 -11 -12 -23 -12 -23c0 -6 8 -7 10 -7c9 0 17 10 18 14z"
         id="glyph188" />
      <glyph
         glyph-name="ccedilla"
         unicode="ç"
         horiz-adv-x="71"
         d="M74 11c0 -1 -8 -6 -14 -9c-4 -1 -8 -3 -11 -3l-3 -5c6 0 13 -5 12 -11c-2 -10 -23 -10 -39 -10c-2 0 -3 1 -3 3s3 5 5 5c8 0 21 0 21 2c1 2 -9 2 -14 2l3 15c-13 3 -16 13 -16 22c0 18 14 39 40 39c11 0 19 -5 19 -11c0 -5 -6 -11 -11 -11s-7 4 -7 6c0 0 1 7 7 9 c-2 2 -7 3 -8 3c-4 0 -12 -2 -17 -12c-3 -6 -9 -24 -9 -29c0 -8 5 -13 13 -13c2 0 15 1 25 12c1 1 4 1 4 1c1 0 3 -4 3 -5z"
         id="glyph190" />
      <glyph
         glyph-name="egrave"
         unicode="è"
         horiz-adv-x="71"
         d="M74 11c0 -1 -8 -6 -14 -9c-6 -2 -14 -3 -18 -3c-17 0 -27 9 -27 24c0 21 16 38 40 38c10 0 19 -3 19 -11c0 -19 -28 -21 -36 -21h-7c-1 -4 -2 -10 -2 -13c0 -8 5 -13 13 -13c2 0 15 1 25 12c1 1 4 1 4 1c1 0 3 -4 3 -5zM64 50c0 4 -4 7 -9 7c-4 0 -10 -2 -13 -6 s-8 -12 -10 -18c8 0 32 4 32 17zM64 74c0 -1 -4 -6 -6 -6c-1 0 -2 3 -2 3l-14 12c-1 1 -4 2 -2 6c2 3 8 8 11 8s3 -3 4 -5l9 -15v-3z"
         id="glyph192" />
      <glyph
         glyph-name="eacute"
         unicode="é"
         horiz-adv-x="71"
         d="M74 11c0 -1 -8 -6 -14 -9c-6 -2 -14 -3 -18 -3c-17 0 -27 9 -27 24c0 21 16 38 40 38c10 0 19 -3 19 -11c0 -19 -28 -21 -36 -21h-7c-1 -4 -2 -10 -2 -13c0 -8 5 -13 13 -13c2 0 15 1 25 12c1 1 4 1 4 1c1 0 3 -4 3 -5zM64 50c0 4 -4 7 -9 7c-4 0 -10 -2 -13 -6 s-8 -12 -10 -18c8 0 32 4 32 17zM79 89c0 -4 -4 -5 -6 -6l-21 -12c-1 0 -1 -3 -2 -3c-2 0 -4 5 -4 6s0 2 1 3l17 15c2 2 5 5 8 5s7 -5 7 -8z"
         id="glyph194" />
      <glyph
         glyph-name="ecircumflex"
         unicode="ê"
         horiz-adv-x="71"
         d="M74 11c0 -1 -8 -6 -14 -9c-6 -2 -14 -3 -18 -3c-17 0 -27 9 -27 24c0 21 16 38 40 38c10 0 19 -3 19 -11c0 -19 -28 -21 -36 -21h-7c-1 -4 -2 -10 -2 -13c0 -8 5 -13 13 -13c2 0 15 1 25 12c1 1 4 1 4 1c1 0 3 -4 3 -5zM64 50c0 4 -4 7 -9 7c-4 0 -10 -2 -13 -6 s-8 -12 -10 -18c8 0 32 4 32 17zM80 72l-3 -4l-21 15l-25 -15l-1 4l28 25z"
         id="glyph196" />
      <glyph
         glyph-name="edieresis"
         unicode="ë"
         horiz-adv-x="71"
         d="M74 11c0 -1 -8 -6 -14 -9c-6 -2 -14 -3 -18 -3c-17 0 -27 9 -27 24c0 21 16 38 40 38c10 0 19 -3 19 -11c0 -19 -28 -21 -36 -21h-7c-1 -4 -2 -10 -2 -13c0 -8 5 -13 13 -13c2 0 15 1 25 12c1 1 4 1 4 1c1 0 3 -4 3 -5zM64 50c0 4 -4 7 -9 7c-4 0 -10 -2 -13 -6 s-8 -12 -10 -18c8 0 32 4 32 17zM50 85c0 -5 -6 -11 -11 -11c-4 0 -9 5 -9 8c0 5 8 10 13 10c4 0 7 -4 7 -7zM84 85c0 -5 -6 -11 -11 -11c-4 0 -8 5 -8 8c0 5 7 10 12 10c4 0 7 -4 7 -7z"
         id="glyph198" />
      <glyph
         glyph-name="icircumflex"
         unicode="î"
         horiz-adv-x="46"
         d="M54 21c0 -3 -10 -22 -23 -22c-6 0 -13 4 -13 12c0 2 0 3 1 5l12 34s1 3 1 5s-1 2 -2 2c-8 0 -11 -14 -12 -17c0 -2 -1 -1 -3 -1s-5 1 -5 3c0 3 8 19 21 19c6 0 15 -2 15 -10c0 -2 0 -4 -1 -6l-14 -34s-1 -3 -1 -5s1 -3 2 -3c8 0 13 15 14 18c0 2 2 1 4 1s4 1 4 -1zM66 72 l-3 -4l-18 15l-24 -15l-3 4l29 25z"
         id="glyph200" />
      <glyph
         glyph-name="idieresis"
         unicode="ï"
         horiz-adv-x="46"
         d="M54 21c0 -3 -10 -22 -23 -22c-6 0 -13 4 -13 12c0 2 0 3 1 5l12 34s1 3 1 5s-1 2 -2 2c-8 0 -11 -14 -12 -17c0 -2 -1 -1 -3 -1s-5 1 -5 3c0 3 8 19 21 19c6 0 15 -2 15 -10c0 -2 0 -4 -1 -6l-14 -34s-1 -3 -1 -5s1 -3 2 -3c8 0 13 15 14 18c0 2 2 1 4 1s4 1 4 -1zM38 85 c0 -5 -7 -11 -12 -11c-4 0 -8 5 -8 8c0 5 6 10 11 10c4 0 9 -4 9 -7zM72 85c0 -5 -7 -11 -12 -11c-4 0 -7 5 -7 8c0 5 6 10 11 10c4 0 8 -4 8 -7z"
         id="glyph202" />
      <glyph
         glyph-name="ocircumflex"
         unicode="ô"
         d="M82 39c0 -17 -13 -40 -40 -40c-16 0 -27 10 -27 23c0 17 14 39 41 39c16 0 26 -9 26 -22zM59 17c3 6 7 23 7 28c0 10 -7 12 -11 12c-6 0 -15 -4 -18 -13c-3 -6 -8 -23 -8 -28c0 -10 9 -13 13 -13c6 0 14 5 17 14zM83 72l-2 -4l-21 15l-23 -15l-4 4l30 25z"
         id="glyph204" />
      <glyph
         glyph-name="odieresis"
         unicode="ö"
         d="M82 39c0 -17 -13 -40 -40 -40c-16 0 -27 10 -27 23c0 17 14 39 41 39c16 0 26 -9 26 -22zM59 17c3 6 7 23 7 28c0 10 -7 12 -11 12c-6 0 -15 -4 -18 -13c-3 -6 -8 -23 -8 -28c0 -10 9 -13 13 -13c6 0 14 5 17 14zM54 85c0 -5 -6 -11 -11 -11c-4 0 -7 5 -7 8 c0 5 5 10 10 10c4 0 8 -4 8 -7zM87 85c0 -5 -4 -11 -9 -11c-4 0 -10 5 -10 8c0 5 8 10 13 10c4 0 6 -4 6 -7z"
         id="glyph206" />
      <glyph
         glyph-name="ugrave"
         unicode="ù"
         horiz-adv-x="84"
         d="M91 21c0 0 -3 -10 -6 -15c-2 -2 -5 -7 -11 -7c-5 0 -14 2 -16 6c-6 -6 -12 -6 -15 -6c-11 0 -21 5 -21 17c0 8 4 19 8 30c1 2 2 6 2 9c0 2 -1 2 -2 2c-8 0 -11 -14 -12 -17c0 -2 -1 -1 -3 -1s-5 1 -5 3c0 3 8 19 21 19c6 0 15 -2 15 -10c0 -2 0 -5 -1 -8 c-3 -9 -8 -22 -8 -30c0 -3 1 -10 7 -10c4 0 7 3 9 5c3 3 4 5 4 7l9 39c1 6 9 6 11 6c3 0 5 -1 5 -5v-3l-9 -39c0 -2 -1 -3 -1 -5c0 -3 1 -5 2 -5c4 0 7 11 8 15c1 3 1 4 4 4c2 0 5 1 5 -1zM72 74c0 -1 -6 -6 -8 -6c-1 0 -1 3 -1 3l-14 12c-1 1 -5 2 -3 6c2 3 7 8 10 8 s4 -3 5 -5l10 -15c0 -1 1 -2 1 -3z"
         id="glyph208" />
      <glyph
         glyph-name="ucircumflex"
         unicode="û"
         horiz-adv-x="84"
         d="M91 21c0 0 -3 -10 -6 -15c-2 -2 -5 -7 -11 -7c-5 0 -14 2 -16 6c-6 -6 -12 -6 -15 -6c-11 0 -21 5 -21 17c0 8 4 19 8 30c1 2 2 6 2 9c0 2 -1 2 -2 2c-8 0 -11 -14 -12 -17c0 -2 -1 -1 -3 -1s-5 1 -5 3c0 3 8 19 21 19c6 0 15 -2 15 -10c0 -2 0 -5 -1 -8 c-3 -9 -8 -22 -8 -30c0 -3 1 -10 7 -10c4 0 7 3 9 5c3 3 4 5 4 7l9 39c1 6 9 6 11 6c3 0 5 -1 5 -5v-3l-9 -39c0 -2 -1 -3 -1 -5c0 -3 1 -5 2 -5c4 0 7 11 8 15c1 3 1 4 4 4c2 0 5 1 5 -1zM85 72l-3 -4l-21 15l-22 -15l-2 4l28 25z"
         id="glyph210" />
      <glyph
         glyph-name="udieresis"
         unicode="ü"
         horiz-adv-x="84"
         d="M91 21c0 0 -3 -10 -6 -15c-2 -2 -5 -7 -11 -7c-5 0 -14 2 -16 6c-6 -6 -12 -6 -15 -6c-11 0 -21 5 -21 17c0 8 4 19 8 30c1 2 2 6 2 9c0 2 -1 2 -2 2c-8 0 -11 -14 -12 -17c0 -2 -1 -1 -3 -1s-5 1 -5 3c0 3 8 19 21 19c6 0 15 -2 15 -10c0 -2 0 -5 -1 -8 c-3 -9 -8 -22 -8 -30c0 -3 1 -10 7 -10c4 0 7 3 9 5c3 3 4 5 4 7l9 39c1 6 9 6 11 6c3 0 5 -1 5 -5v-3l-9 -39c0 -2 -1 -3 -1 -5c0 -3 1 -5 2 -5c4 0 7 11 8 15c1 3 1 4 4 4c2 0 5 1 5 -1zM56 85c0 -5 -6 -11 -11 -11c-4 0 -8 5 -8 8c0 5 7 10 12 10c4 0 7 -4 7 -7zM89 85 c0 -5 -4 -11 -9 -11c-4 0 -8 5 -8 8c0 5 6 10 11 10c4 0 6 -4 6 -7z"
         id="glyph212" />
      <glyph
         glyph-name="OE"
         unicode="Œ"
         horiz-adv-x="155"
         d="M157 36v-4l-14 -30c-1 -2 -1 -2 -4 -2h-51c-3 0 -6 0 -11 -1s-11 -1 -14 -1c-18 0 -38 7 -38 33c0 28 22 66 62 66c2 0 7 -1 13 -2c4 -1 9 -1 12 -1h48c3 0 4 -1 4 -5l-3 -24c0 -3 -1 -5 -4 -5c-2 0 -4 1 -4 4c0 1 1 6 1 10c0 15 -8 14 -24 14h-7c-3 0 -4 0 -4 -2l-8 -33 h10c10 0 15 2 17 12c1 3 1 3 4 3c1 0 4 -1 4 -3v-1l-8 -32c-1 -3 -2 -3 -4 -3c-1 0 -4 0 -4 2v1c0 1 2 6 2 8c0 3 -2 6 -12 6h-11l-10 -40h2h14c22 0 28 10 34 27c1 3 2 5 5 5c1 0 3 0 3 -2zM86 24l12 47c1 2 1 9 1 12c0 5 -2 9 -12 9c-28 0 -43 -39 -43 -63 c0 -17 8 -27 20 -27c9 0 18 3 22 22z"
         id="glyph214" />
      <glyph
         glyph-name="oe"
         unicode="œ"
         horiz-adv-x="112"
         d="M111 11c0 -2 -10 -12 -29 -12c-11 0 -20 5 -22 9c-8 -6 -15 -9 -23 -9c-10 0 -22 5 -22 22c0 18 13 42 37 42c6 0 15 -4 19 -10c8 6 18 8 26 8c9 0 17 -3 17 -11c0 -19 -27 -21 -35 -21h-6c-2 -6 -2 -9 -2 -12c0 -2 0 -14 11 -14c3 0 15 2 24 12c1 1 1 1 2 1s3 -4 3 -5z M106 50c0 3 -3 7 -9 7c-5 0 -12 -2 -15 -5c-2 -2 -6 -10 -8 -19c10 0 32 4 32 17zM53 17c2 5 6 24 6 30c0 8 -3 10 -7 10c-5 0 -12 -3 -16 -15c-1 -3 -8 -23 -8 -29c0 -5 4 -10 9 -10c3 0 12 2 16 14z"
         id="glyph216" />
      </font>
</defs>
</svg>
