<svg xmlns="http://www.w3.org/2000/svg">
<defs>
<font
       id="InstrumentSerif-Regular"
       horiz-adv-x="81">
      <font-face
         font-family="Instrument Serif"
         font-weight="400"
         font-stretch="normal"
         units-per-em="150"
         panose-1="0 0 0 0 0 0 0 0 0 0"
         ascent="120"
         descent="-30"
         x-height="76"
         cap-height="108"
         bbox="-9 -32 104 124"
         underline-thickness="5.7"
         underline-position="-29.85"
         unicode-range="U+0020-2212"
         id="font-face4" />
      <missing-glyph
         id="missing-glyph6" />
      <glyph
         glyph-name="A"
         unicode="A"
         horiz-adv-x="68"
         d="M-0 0q-2 0 -3 2q0 2 2 1l3 1q3 1 4.5 3t2.5 6l23 94q0 2 1 2.5l1 0.5q1 0 1.5 -0.5t1.5 -2.5l23 -95q1 -4 2.5 -6t4.5 -2l2 -1q2 1 2 -1t-2 -2h-26q-2 0 -2 2t3 1l3 1q3 0 3.5 1.5t-0.5 4.5l-6 23q-1 4 -5 4h-16q-4 0 -5 -4l-5 -20q-2 -9 5 -9l2 -1q3 0 3 -1q0 -2 -2 -2 h-21zM23 42h16q2 0 2 2l-9 40h-1l-10 -40q0 -2 2 -2z"
         id="glyph8" />
      <glyph
         glyph-name="B"
         unicode="B"
         horiz-adv-x="71"
         d="M5 0q-2 0 -2 2q0 1 2 1l3 1q3 1 4 2t1 4v88q0 3 -1 4t-4 2l-3 1q-2 0 -2 1q0 2 2 2h31q8 0 13.5 -3t9 -8.5t3.5 -12.5t-4 -12.5t-12 -9.5q-1 0 -1 -1t1 -1q10 -3 16 -11t6 -18q0 -9 -4.5 -16t-11.5 -11t-16 -4h-31zM32 62q8 0 13.5 6t5.5 15t-5.5 15t-13.5 6t-8 -6v-28 q0 -4 2 -6t6 -2zM34 4q10 0 16 7.5t6 19.5t-6 19.5t-17 7.5q-9 0 -9 -7v-37q0 -10 10 -10z"
         id="glyph10" />
      <glyph
         glyph-name="C"
         unicode="C"
         horiz-adv-x="72"
         d="M43 -1q-11 0 -19.5 6.5t-13 19.5t-4.5 30q0 16 5 28.5t13.5 19.5t18.5 7q6 0 11 -1.5t8 -3.5q2 -1 2 -3l1 -22q0 -3 -2 -3t-2 2l-2 5q-3 12 -7 16.5t-10 4.5q-10 0 -17 -13t-7 -37q0 -17 3.5 -28.5t9 -17.5t11.5 -6q7 0 11 4t7 16l2 8q0 2 2 2t2 -3l-1 -24q0 -2 -2 -3 q-4 -2 -8.5 -3t-11.5 -1z"
         id="glyph12" />
      <glyph
         glyph-name="D"
         unicode="D"
         horiz-adv-x="79"
         d="M5 0q-2 0 -2 2q0 1 2 1l3 1q5 1 5 6v88q0 3 -1 4t-4 2l-3 1q-2 0 -2 1q0 2 2 2h30q12 0 20.5 -7t13.5 -19t5 -28t-5 -28.5t-14 -19t-21 -6.5h-29zM34 4q13 0 20.5 12.5t7.5 37.5q0 24 -7 37t-20 13q-11 0 -11 -11v-78q0 -6 2 -8.5t8 -2.5z"
         id="glyph14" />
      <glyph
         glyph-name="E"
         unicode="E"
         horiz-adv-x="67"
         d="M5 0q-2 0 -2 2q0 1 2 1l3 1q3 1 4 2t1 4v88q0 3 -1 4t-4 2l-3 1q-2 0 -2 1q0 2 2 2h51q3 0 3 -3l1 -25q0 -3 -2 -3t-2 2v6q-2 10 -7 14.5t-14 4.5q-6 0 -8.5 -1.5t-2.5 -6.5v-36q0 -2 2 -2h8q7 0 8 7l1 8q1 2 3 2t1 -3v-34q0 -2 -1 -2q-2 0 -3 2l-1 7q-1 5 -3 7t-6 2h-7 q-2 0 -2 -2v-38q0 -5 3 -7.5t10 -2.5q8 0 13 3.5t7 14.5l2 9q0 2 2 2t2 -3q1 0 -1 -27q0 -3 -4 -3h-53z"
         id="glyph16" />
      <glyph
         glyph-name="F"
         unicode="F"
         horiz-adv-x="61"
         d="M5 0q-2 0 -2 2q0 1 2 1l3 1q3 1 4 2t1 4v88q0 3 -1 4t-4 2l-3 1q-2 0 -2 1q0 2 2 2h48q3 0 4 -3l1 -25q0 -3 -2 -3t-2 2v5q-1 8 -4.5 12t-7 6t-7.5 2q-7 0 -9 -2t-2 -6v-36q0 -2 2 -2h5q7 0 8 7l2 8q0 2 2 2t2 -3v-34q0 -3 -2 -2q-2 0 -2 2l-2 7q-1 5 -2.5 7t-5.5 2h-5 q-2 0 -2 -2v-41q0 -3 1 -4.5q1 -2.5 4 -2.5l7 -1q2 0 2 -1q0 -2 -2 -2h-31z"
         id="glyph18" />
      <glyph
         glyph-name="G"
         unicode="G"
         horiz-adv-x="78"
         d="M44 -1q-12 0 -20.5 6.5t-13 19.5t-4.5 30q0 16 5 28.5t14 19.5t21 7q6 0 10.5 -1.5t8.5 -3.5q2 -1 2 -3v-22q0 -3 -2 -3t-2 2l-1 4q-3 12 -7.5 17t-11.5 5q-11 0 -18 -13t-7 -37q0 -25 7 -38.5t19 -13.5q6 0 9 2.5t3 9.5v33q0 3 -1 4.5t-4 1.5l-6 1q-2 0 -2 2t2 1h28 q2 0 2 -2q1 -1 -1 -1l-3 -1q-3 0 -3.5 -1.5t-0.5 -4.5v-40q0 -2 -1 -3t-3 -2q-4 -2 -8.5 -3t-10.5 -1z"
         id="glyph20" />
      <glyph
         glyph-name="H"
         unicode="H"
         d="M5 0q-2 0 -2 2q0 1 2 1l3 1q3 1 4 2t1 4v88q0 3 -1 4t-4 2l-3 1q-2 0 -2 1q0 2 2 2h28q2 0 2 -2q0 -1 -2 -1l-4 -1q-3 0 -4 -1.5t-1 -4.5v-38q0 -2 2 -2h30q2 0 2 2v38q0 3 -1 4.5t-4 1.5l-4 1q-2 0 -2 1q0 2 2 2h28q2 0 2 -2q0 -1 -2 -1l-3 -1q-3 -1 -4 -2t-1 -4v-88 q0 -3 0.5 -4t4.5 -2l3 -1q2 0 2 -1q0 -2 -2 -2h-28q-2 0 -2 2q0 1 2 1l4 1q3 0 4 1.5t1 4.5v42q0 2 -2 2h-30q-2 0 -2 -2v-42q0 -3 1 -4.5t4 -1.5l4 -1q2 0 2 -1q0 -2 -2 -2h-28z"
         id="glyph22" />
      <glyph
         glyph-name="I"
         unicode="I"
         horiz-adv-x="37"
         d="M5 0q-2 0 -2 2q0 1 2 1l3 1q3 1 4 2t1 4v88q0 3 -1 4t-4 2l-3 1q-2 0 -2 1q0 2 2 2h27q2 0 2 -2q0 -1 -1 -1l-4 -1q-3 -1 -4 -2t-1 -4v-88q0 -3 1 -4t4 -2l4 -1q1 0 1 -1q0 -2 -2 -2h-27z"
         id="glyph24" />
      <glyph
         glyph-name="J"
         unicode="J"
         horiz-adv-x="37"
         d="M2 -32q-5 0 -7.5 2.5t-2.5 6.5q0 3 1.5 5t4.5 2t3.5 -1.5t1.5 -3.5t2 -3.5t3 -1.5q3 0 4 3t1 9v112q0 3 -1 4t-4 2l-3 1q-2 0 -2 1q0 2 2 2h27q2 0 2 -2q0 -1 -1 -1l-4 -1q-3 -1 -4 -2t-1 -4v-91q0 -18 -6 -28.5t-16 -10.5z"
         id="glyph26" />
      <glyph
         glyph-name="K"
         unicode="K"
         horiz-adv-x="74"
         d="M5 0q-2 0 -2 2q0 1 2 1l3 1q3 1 4 2t1 4v88q0 3 -1 4t-4 2l-3 1q-2 0 -2 1q0 2 2 2h28q2 0 2 -2q0 -1 -2 -1l-4 -1q-3 0 -4 -1.5t-1 -4.5v-41q0 -2 1 -2t2 2l24 38q5 8 -1 9l-3 1q-2 -1 -2 1t2 2h25q2 0 3 -2q0 -2 -2 -1l-3 -1q-5 0 -8 -2.5t-7 -8.5l-17 -26q-2 -3 0 -5 l28 -53q1 -2 2.5 -3.5t3.5 -1.5l4 -1q2 0 1 -1q0 -2 -2 -2h-26q-3 0 -3 2t2 1l3 1q6 1 2 7l-21 41l-1.5 1.5t-1.5 -1.5l-3 -5l-1.5 -3t-0.5 -3v-31q0 -3 1 -4.5t4 -1.5l4 -1q2 0 2 -1q0 -2 -2 -2h-28z"
         id="glyph28" />
      <glyph
         glyph-name="L"
         unicode="L"
         horiz-adv-x="61"
         d="M5 0q-2 0 -2 2q0 1 2 1l3 1q3 1 4 2t1 4v88q0 3 -1 4t-4 2l-3 1q-2 0 -2 1q0 2 2 2h28q2 0 2 -2q0 -1 -2 -1l-4 -1q-3 0 -4 -1.5t-1 -4.5v-84q0 -5 3 -7.5t8 -2.5q3 0 7 1.5t7 5.5t4 11l2 10q0 2 2 2t2 -2l-2 -29q0 -3 -3 -3h-49z"
         id="glyph30" />
      <glyph
         glyph-name="M"
         unicode="M"
         horiz-adv-x="99"
         d="M47 2h-1.5t-0.5 2l-23 92q0 1 -0.5 1t-0.5 -1l-3 -83q0 -4 1 -6.5t5 -2.5l2 -1q2 0 2 -1q0 -2 -2 -2h-22q-2 0 -2 2t2 1l2 1q4 1 5.5 3t1.5 6l3 85q0 3 -1 4t-5 2l-3 1q-2 0 -2 1q0 2 2 2h18q5 0 6 -4l18 -75q0 -1 1 -1t1 1l19 75q1 4 5 4h17q2 0 3 -2q0 -1 -2 -1l-4 -1 q-3 -1 -4 -2t-1 -4l3 -88q0 -3 1 -4t4 -2l4 -1q2 0 2 -1q0 -2 -3 -2h-27q-2 0 -2 2q0 1 2 1l3 1q3 1 4.5 2q0.5 1 0.5 4l-2 86q0 1 -0.5 1t-1.5 -1l-22 -92q0 -2 -1 -2h-2z"
         id="glyph32" />
      <glyph
         glyph-name="N"
         unicode="N"
         d="M64 -1q-2 0 -4 3l-40 88q0 1 -1 1t-1 -1v-77q0 -4 1.5 -6.5t4.5 -2.5l2 -1q2 0 2 -1q0 -2 -2 -2h-21q-2 0 -3 2q0 2 2 1l2 1q4 1 5.5 3t1.5 6v85q0 3 -1 4t-4 2l-4 1q-2 0 -2 1q0 2 3 2h16q4 0 5 -3l35 -78q0 -1 1 -1t1 1v68q0 5 -1.5 7t-4.5 2l-2 1q-2 0 -2 1q0 2 2 2 h21q2 0 3 -2q0 -2 -2 -1l-2 -1q-4 -1 -5.5 -2.5t-1.5 -6.5v-92q0 -3 -1 -3.5t-3 -0.5z"
         id="glyph34" />
      <glyph
         glyph-name="O"
         unicode="O"
         d="M40 -1q-7 0 -13 4t-11 11.5t-7.5 17.5t-2.5 22t2.5 22t7.5 17.5t11 12q5 4.5 13 4.5q7 0 13.5 -4.5t11.5 -12t7.5 -17.5t2.5 -22t-2.5 -22t-7.5 -17.5t-11.5 -11.5t-13.5 -4zM40 3q11 0 17 12.5t6 38.5t-6 38.5q-7 12.5 -17 12.5t-16 -12.5t-6 -38.5t6 -38.5t16 -12.5z "
         id="glyph36" />
      <glyph
         glyph-name="P"
         unicode="P"
         horiz-adv-x="69"
         d="M5 0q-2 0 -2 2q0 1 2 1l3 1q3 1 4 2t1 4v88q0 3 -1 4t-4 2l-3 1q-2 0 -2 1q0 2 2 2h31q9 0 16 -4t10.5 -10.5t3.5 -15.5t-3.5 -15.5t-10 -10t-15.5 -3.5h-11q-2 0 -2 -2v-37q0 -3 1 -4t6 -2l5 -1q2 0 2 -1q0 -2 -2 -2h-31zM24 61q0 -8 10 -8t15.5 6.5t5.5 18.5t-5.5 19 t-16.5 7q-9 0 -9 -6v-37z"
         id="glyph38" />
      <glyph
         glyph-name="Q"
         unicode="Q"
         d="M65 -32q-4 0 -9 2t-9 6.5t-6 12.5q-1 5 -2.5 7t-5.5 4q-8 3 -14 10.5t-9.5 19t-3.5 24.5q0 12 2.5 22t7.5 17.5t11 12q5 4.5 13 4.5q7 0 13.5 -4.5t11.5 -12t7.5 -17.5t2.5 -22q0 -14 -3.5 -25.5t-10 -19t-14.5 -9.5q-1 0 -1 -1t1 -2q2 -1 3 -3t2 -5q3 -9 7 -13t10 -4 q4 0 9 3q1 1 2 0.5t1 -1.5t-1 -2q-2 -2 -6 -3t-9 -1zM40 3q11 0 17 12.5t6 38.5t-6 38.5q-7 12.5 -17 12.5t-16 -12.5t-6 -38.5t6 -38.5t16 -12.5z"
         id="glyph40" />
      <glyph
         glyph-name="R"
         unicode="R"
         horiz-adv-x="76"
         d="M68 -1q-13 0 -17 17l-4 16q-2 8 -3.5 12.5t-5 6q-4.5 1.5 -10.5 1.5q-2 0 -3 -1t-1 -3v-38q0 -3 1 -4t6 -2l5 -1q2 0 2 -1q0 -2 -2 -2h-31q-2 0 -2 2q0 1 2 1l3 1q3 1 4 2t1 4v88q0 3 -1 4t-4 2l-3 1q-2 0 -2 1q0 2 2 2h31q9 0 15.5 -3.5t10.5 -9.5t4 -14q0 -9 -5.5 -17 t-14.5 -11q-1 0 -1 -0.5t1 -1.5q5 -2 7.5 -6t4.5 -11l3 -15q2 -8 4 -11.5q1 -3.5 5 -3.5q1 0 2.5 0.5t2.5 1.5t2 0.5t1 -1.5q0 -3 -3 -4.5t-7 -1.5zM34 56q10 0 15.5 6.5t5.5 18.5q0 11 -6 17t-17 6q-8 0 -8 -6v-34q0 -8 10 -8z"
         id="glyph42" />
      <glyph
         glyph-name="S"
         unicode="S"
         horiz-adv-x="61"
         d="M28 -1q-3 0 -7 0.5t-7 1.5t-5 2l-1.5 1.5t-0.5 1.5l-1 24q0 3 2 3t2 -3l2 -6q5 -21 19 -21q8 0 12 5t4 14t-4.5 16.5t-14.5 15.5q-11 8 -16 15.5t-5 15.5q0 11 7.5 18t19.5 7q4 0 8.5 -1.5t7.5 -3.5l1.5 -1.5t0.5 -1.5v-22q0 -3 -2 -3q-1 0 -2 2l-1 4q-3 12 -6.5 17 t-10.5 5q-6 0 -10 -4t-4 -12q0 -6 4 -12t15 -15t16.5 -17.5t5.5 -17.5q0 -8 -4 -14.5t-10.5 -10t-14.5 -3.5z"
         id="glyph44" />
      <glyph
         glyph-name="T"
         unicode="T"
         horiz-adv-x="69"
         d="M18 0q-2 0 -3 2q0 2 2 1q0 -1 7 1q3 0 4 1.5t1 4.5v90q0 2 -1 3t-3 1q-6 0 -11.5 -4.5t-6.5 -15.5l-1 -5q0 -2 -2 -2t-2 3l1 27q0 3 3 3q1 0 2 -0.5t3 -1t7 -0.5h33q5 0 7 0.5t3 1t2 0.5q2 0 3 -3l1 -27q0 -3 -2 -3t-2 2v5q-2 11 -7.5 15.5t-10.5 4.5q-3 0 -4 -1t-1 -3 v-90q0 -3 1 -4q1 -2 4 -2l7 -1q2 0 2 -1q0 -2 -3 -2h-33z"
         id="glyph46" />
      <glyph
         glyph-name="U"
         unicode="U"
         horiz-adv-x="80"
         d="M41 -1q-8 0 -14 3.5t-9.5 10.5t-3.5 16v69q0 3 -1 4t-4 2l-4 1q-2 0 -2 1q0 2 3 2h27q2 0 2 -2q0 -1 -1 -1l-4 -1q-3 0 -4.5 -1.5t-1.5 -4.5v-69q0 -11 5.5 -17.5t14.5 -6.5t14 6t5 18v66q0 8 -5 9l-4 1q-2 0 -2 1q0 2 3 2h21q2 0 3 -2q0 -1 -2 -1l-4 -1q-5 -1 -5 -9v-66 q0 -14 -7.5 -22t-19.5 -8z"
         id="glyph48" />
      <glyph
         glyph-name="V"
         unicode="V"
         horiz-adv-x="68"
         d="M34 -2q-1 0 -1.5 0.5t-0.5 2.5l-24 95q-1 4 -2 6t-4 2l-3 1q-2 -1 -2 1t3 2h25q2 0 2 -2t-2 -1l-3 -1q-3 0 -3.5 -1.5t0.5 -4.5l17 -72q0 -1 1 -1t1 1l17 69q2 9 -4 9l-3 1q-3 0 -2 1q0 2 2 2h21q2 0 2 -2t-2 -1l-2 -1q-3 -1 -4.5 -3t-2.5 -6l-23 -94q0 -2 -1 -2.5 t-2 -0.5z"
         id="glyph50" />
      <glyph
         glyph-name="W"
         unicode="W"
         horiz-adv-x="97"
         d="M65 -2q-1 0 -1.5 0.5t-0.5 2.5l-12 46q0 1 -0.5 1t-1.5 -1l-13 -46q0 -2 -0.5 -2.5t-1.5 -0.5t-1.5 0.5t-0.5 2.5l-24 95q-1 4 -2 6t-4 2l-3 1q-2 -1 -2 1t3 2h24q2 0 2 -2q0 -1 -2 -1l-2 -1q-3 0 -3.5 -1.5t0.5 -4.5l17 -73q0 -1 1 -1t1 1l7 24q2 6 2 10.5t-2 10.5 l-6 26q-1 4 -2 6t-3 2l-2 1q-2 -1 -2 1t2 2h21q2 0 2 -2q0 -1 -2 -1l-2 -1q-2 0 -2.5 -1.5t0.5 -4.5l5 -22q0 -1 1 -1q1 -1 1 1l6 19q2 6 1 7.5t-2 1.5l-2 1q-2 0 -2 1q0 2 2 2h15q3 0 2 -2q0 -2 -2 -1l-2 -1q-2 0 -3.5 -2t-2.5 -7l-6 -20q-2 -6 -2 -10.5t2 -10.5l6 -28 q0 -1 1 -1t1 1l18 69q2 9 -3 9l-2 1q-2 -1 -2 1t2 2h17q3 0 2 -2q0 -2 -2 -1l-2 -1q-2 0 -3.5 -2t-2.5 -7l-23 -94q0 -2 -0.5 -2.5t-1.5 -0.5z"
         id="glyph52" />
      <glyph
         glyph-name="X"
         unicode="X"
         d="M6 0q-2 0 -2.5 0.5t-0.5 1.5q0 2 2 2h3q5 1 7.5 3t4.5 7l15 35q1 2 1 3.5t-1 3.5q-1 0 -19 42l-3 4.5t-3 1.5l-3 1q-2 -1 -3 1q0 2 3 2h26q3 0 3 -2t-3 -1l-2 -1q-3 0 -4 -1.5t0 -4.5l15 -32q1 -1 1.5 -1t1.5 1l12 30q1 3 1 5q0 3 -3 3h-4q-3 0 -2 2q0 2 2 2h23 q2 0 2.5 -0.5t0.5 -1.5q0 -2 -2 -2h-3q-4 -1 -6.5 -3q-1.5 -2 -3.5 -7l-15 -33q-1 -2 -1 -3.5t1 -4.5l20 -43q2 -4 3.5 -5t3.5 -1h2q3 0 3 -2t-3 -2h-26q-3 0 -3 2q1 1 3 2h2q3 0 4 1.5t0 4.5l-16 34l-1.5 1.5t-0.5 -1.5l-14 -32q-1 -3 -0.5 -5q0.5 -3 2.5 -3h4q3 0 3 -2 t-3 -2h-24z"
         id="glyph54" />
      <glyph
         glyph-name="Y"
         unicode="Y"
         horiz-adv-x="71"
         d="M19 0q-2 0 -2 2t2 1q1 -1 7 1q3 0 4 1.5t1 4.5v36q0 3 -2 6l-22 46q-1 3 -2.5 4.5t-3.5 1.5l-2 1q-2 -1 -2 1t3 2h25q2 0 2 -2t-2 -1l-3 -1q-3 0 -4 -1.5t1 -4.5l18 -39q1 -1 2 -1t1 1l18 36q2 4 1 6.5t-5 2.5l-3 1q-3 0 -2 1q0 2 2 2h21q2 0 2 -2t-2 -1l-1 -1 q-2 0 -4 -2t-4 -7l-20 -40q-1 -2 -1.5 -4t-0.5 -4v-37q0 -3 1.5 -4q1.5 -2 3.5 -2l7 -1q2 0 2 -1q0 -2 -2 -2h-34z"
         id="glyph56" />
      <glyph
         glyph-name="Z"
         unicode="Z"
         horiz-adv-x="64"
         d="M6 0q-2 0 -3 1t0 3q-1 0 43 97q1 3 -1 3h-15q-6 0 -10.5 -4t-7.5 -13l-2 -8q0 -2 -2 -2t-2 3l3 28q0 3 2 3q1 0 2 -0.5l3 -1.5t7 -1h33q2 0 3 -1t0 -3l-43 -97q-1 -3 1 -3h17q4 0 8 1.5t7.5 5.5t4.5 11l2 10q0 2 2 2t2 -2l-2 -29q0 -3 -3 -3h-49z"
         id="glyph58" />
      <glyph
         glyph-name="a"
         unicode="a"
         horiz-adv-x="59"
         d="M18 -1q-6 0 -10 4t-4 10t4 12t11 10.5t16 7.5q2 1 2 3v14q0 7 -2.5 10t-6.5 3t-7 -3.5t-4 -11.5q-1 -5 -3.5 -7t-4.5 -2q-4 0 -4 4t2.5 8.5t6.5 8t8.5 5.5t9.5 2q15 0 15 -17v-46q0 -6 3 -6q2 0 3.5 2.5q1.5 3.5 1.5 9.5q0 2 2 2t2 -3q0 -11 -4 -15.5t-8 -4.5t-6 2.5 t-3 7.5q0 2 -1 1.5t-2 -1.5q-4 -5 -7.5 -7.5t-9.5 -2.5zM22 6q4 0 7.5 2.5t5.5 7t2 10.5v11q0 3 -3 2q-9 -3 -14.5 -9t-5.5 -14q0 -10 8 -10z"
         id="glyph60" />
      <glyph
         glyph-name="b"
         unicode="b"
         horiz-adv-x="66"
         d="M31 -1q-6 0 -12 4q-3 2 -6 -2q-2 -2 -2.5 -2h-1.5q-2 0 -1 2q1 3 1 8.5v14.5v72q0 3 -0.5 4t-2.5 1h-4q-2 0 -1 2q0 2 1 2q4 1 7 2t5 3t4 1q2 0 2 -2v-37q0 -1 0.5 -1.5t2.5 0.5q6 7 14 6q7 0 12 -4.5t8 -12.5t3 -19q0 -12 -3.5 -22t-10.5 -15t-15 -5zM31 2q8 0 13 10 t5 27q0 15 -4.5 23.5t-12.5 8.5q-5 0 -8.5 -4.5t-3.5 -11.5v-38q0 -7 3 -11t8 -4z"
         id="glyph62" />
      <glyph
         glyph-name="c"
         unicode="c"
         horiz-adv-x="50"
         d="M27 -1q-7 0 -12 4.5t-8.5 12.5t-3.5 19q0 13 4 22.5t10.5 14.5t14.5 5q7 0 11 -2q2 -1 2 -4v-18q0 -2 -2 -2t-2 2q-2 8 -4 12.5t-4 6.5t-5 2t-6 -3.5t-5 -11.5t-2 -20q0 -16 4 -24.5t10 -8.5q5 0 9 4.5t6 15.5q0 2 2 2t1 -3q-2 -10 -4.5 -16t-6.5 -8t-9 -2z"
         id="glyph64" />
      <glyph
         glyph-name="d"
         unicode="d"
         horiz-adv-x="68"
         d="M27 -1q-7 0 -12 4.5t-8 12.5t-3 19q0 13 4 22.5t11 14.5t16 5h4t4 -1t2 1v19q0 3 -0.5 4t-2.5 1h-4q-2 0 -2 2t2 2q5 1 7.5 2t4.5 3t4 1q2 0 2 -2v-95q0 -6 3 -6q2 0 3.5 2.5q1.5 3.5 1.5 9.5q0 2 2 2t2 -3q0 -11 -4 -15.5t-8 -4.5t-6.5 2.5t-3.5 7.5q0 1 -1 1t-2 -1 q-4 -6 -7.5 -8t-8.5 -2zM30 6q4 0 7.5 2.5t5.5 7t2 9.5v34q0 7 -3 11t-8 4q-8 0 -13 -10t-5 -27q0 -15 3.5 -23t10.5 -8z"
         id="glyph66" />
      <glyph
         glyph-name="e"
         unicode="e"
         horiz-adv-x="53"
         d="M29 -1q-7 0 -13 4.5t-9.5 13.5t-3.5 20q0 12 3.5 21t9.5 14t14 5q9 0 14.5 -7q5.5 -8 5.5 -24q0 -5 -4 -4h-29q-3 0 -3 -4q0 -16 5 -24t12 -8q6 0 9.5 4t5.5 14q0 2 2 2t1 -3q-2 -13 -7 -18.5t-13 -5.5zM17 45h15q7 0 7 8q0 10 -2.5 15.5t-6.5 5.5q-6 0 -10 -7t-5 -19 q-1 -3 2 -3z"
         id="glyph68" />
      <glyph
         glyph-name="f"
         unicode="f"
         horiz-adv-x="43"
         d="M13 10v59q0 4 -4 3h-3q-2 0 -2 2t2 1q7 1 7 7v0q0 8 2 15t6.5 11t11.5 4q6 0 10 -3.5q4 -4.5 4 -8.5q0 -3 -1.5 -4t-3.5 -1q-3 0 -4.5 2t-2.5 4.5t-2 4.5t-4 2t-4.5 -3.5q-1.5 -2.5 -1.5 -12.5v-14q0 -2 2 -2h13q2 0 2 -2t-2 -2h-13q-2 0 -2 -2v-60q0 -3 1 -4.5t4 -1.5 l8 -1q2 0 2 -1q0 -2 -3 -2h-31q-2 0 -2 2t2 1l4 1q3 0 4 1.5t1 4.5z"
         id="glyph70" />
      <glyph
         glyph-name="g"
         unicode="g"
         horiz-adv-x="60"
         d="M27 -32q-11 0 -18 4.5t-7 10.5q0 3 1 5t3.5 5t7.5 8q2 2 1.5 3t-1.5 2q-5 2 -6.5 5.5t2.5 6.5l11 9q2 2 -1 3q-6 3 -9.5 9.5t-3.5 13.5t3 12.5t8 8.5t12 3q4 0 6 -1t3 2q1 6 5 9t7 3t5.5 -2t2.5 -5t-1.5 -4.5t-3.5 -1.5t-3 1l-1.5 1.5t-2.5 0.5q-4 0 -5 -4q0 -2 0.5 -2.5 l1.5 -1.5q4 -3 6 -8.5t2 -11.5q0 -7 -3 -12.5t-8 -9t-11 -3.5q-3 0 -5 -1t-4 -3l-3 -3q-2 -2 -1 -4.5t4 -2.5h13q11 0 17.5 -5.5t6.5 -14.5q0 -7 -4.5 -13t-11 -9t-15.5 -3zM29 31q5 0 8.5 5.5t3.5 15.5t-3 16t-9 6q-5 0 -8 -6t-3 -16t3 -15.5t8 -5.5zM28 -29q5 0 10 2.5 t7.5 6.5t2.5 10q0 7 -4 10.5t-11 3.5h-3q-5 0 -7.5 -1t-4.5 -3q-5 -5 -6 -8t-1 -6q0 -7 4.5 -11t12.5 -4z"
         id="glyph72" />
      <glyph
         glyph-name="h"
         unicode="h"
         horiz-adv-x="70"
         d="M4 0q-2 0 -2 2t2 1l2 1q3 0 4 1.5t1 4.5v86q0 3 -1 4t-3 1h-3q-2 0 -1 2q0 2 1 2q4 1 7 2t5 3t4 1q2 0 1 -2v-40q0 -1 1 -1.5t2 0.5q6 5 10.5 7t9.5 2q7 0 11 -4.5t4 -13.5v-49q0 -3 1 -4.5t4 -1.5l3 -1q2 0 2 -1q0 -2 -2 -2h-25q-2 0 -2 2t1 1q1 0 3 1q3 0 4 1.5t1 4.5 v47q0 7 -3 10t-8 3t-8.5 -2.5t-6 -7t-2.5 -10.5v-40q0 -3 1 -4.5t4 -1.5l4 -1q2 0 2 -1q0 -2 -2 -2h-26z"
         id="glyph74" />
      <glyph
         glyph-name="i"
         unicode="i"
         horiz-adv-x="33"
         d="M17 91q-3 0 -5 2t-2 6q0 3 2 5t5 2t5 -2t2 -5t-2 -5.5t-5 -2.5zM4 0q-2 0 -2 2q0 1 2 1l2 1q4 1 5 2t1 4v50q0 3 -1 4t-3 1l-3 1q-2 0 -2 2q0 1 2 1q5 1 8 2.5t5 4.5q1 1 3 1q1 0 1 -2v-65q0 -3 1 -4.5t3 -1.5l4 -1q2 0 2 -1q0 -2 -2 -2h-26z"
         id="glyph76" />
      <glyph
         glyph-name="j"
         unicode="j"
         horiz-adv-x="32"
         d="M17 91q-3 0 -5 2t-2 6q0 3 2 5t5 2t5 -2t2 -5t-2 -5.5t-5 -2.5zM1 -32q-4 0 -7 2t-3 6q0 3 1.5 4.5t3.5 1.5t3.5 -1t2 -3t1.5 -3t3 -1q3 0 4.5 3t1.5 9v74q0 3 -1 4t-3 1l-3 1q-2 0 -2 2q0 1 2 1q5 1 8 2.5t5 4.5q1 1 3 1q1 0 1 -2v-68q0 -18 -5.5 -28.5t-15.5 -10.5z "
         id="glyph78" />
      <glyph
         glyph-name="k"
         unicode="k"
         horiz-adv-x="67"
         d="M4 0q-2 0 -2 2t2 1l2 1q3 0 4 1.5t1 4.5v86q0 3 -1 4t-3 1h-3q-2 0 -1 2q0 2 1 2q4 1 7 2t5 3t4 1q2 0 1 -2v-63q0 -2 1.5 -2t2.5 1l18 19q3 3 2.5 5.5t-3.5 2.5l-4 1q-2 0 -2 2q0 1 2 1h26q2 0 2 -1q0 -2 -2 -2h-1q-3 0 -6.5 -2.5t-8.5 -7.5l-9 -10q-3 -3 -2 -7l19 -36 q2 -3 4 -4.5t4 -1.5l2 -1q2 0 2 -1q0 -2 -2 -2h-27q-2 0 -2 2t2 1l3 1q6 1 2 7l-14 28q-1 2 -2.5 2t-2.5 -2l-1 -1q-1 -1 -2 -2.5t-1 -3.5v-22q0 -3 1 -4.5t4 -1.5l4 -1q2 0 2 -1q0 -2 -2 -2h-26z"
         id="glyph80" />
      <glyph
         glyph-name="l"
         unicode="l"
         horiz-adv-x="33"
         d="M3 0q-2 0 -2 2t2 1l2 1q3 0 4.5 1.5t1.5 4.5v86q0 3 -1 4t-3 1h-3q-2 0 -2 2t2 2q4 1 7 2t5 3t4 1q2 0 1 -2v-99q0 -3 1 -4.5t4 -1.5l4 -1q2 0 2 -1q0 -2 -2 -2h-27z"
         id="glyph82" />
      <glyph
         glyph-name="m"
         unicode="m"
         horiz-adv-x="105"
         d="M4 0q-2 0 -2 2q0 1 2 1l2 1q3 1 4 2t1 4v50q0 3 -1 4t-3 1l-3 1q-2 0 -2 2q0 1 3 1q5 1 7 2.5t5 4.5q1 1 2 1t2 -2v-7q0 -1 0.5 -1.5t1.5 0.5q6 6 11 8t9 2t7.5 -2t5.5 -7q0 -1 1.5 -1.5t2.5 1.5q6 6 10.5 7.5t9.5 1.5q6 0 10 -4.5t4 -13.5v-49q0 -3 1 -4.5t4 -1.5l3 -1 q2 0 2 -1q0 -2 -2 -2h-26q-2 0 -2 2t2 1l2 1q3 0 4.5 1.5t1.5 4.5v47q0 7 -3 10t-7 3t-8 -2.5t-6 -7t-2 -10.5v-40q0 -3 1 -4.5t4 -1.5l3 -1q2 0 2 -1q0 -2 -2 -2h-25q-2 0 -2 2t1 1l2 1q3 0 4 1.5t1 4.5v47q0 7 -2.5 10t-6.5 3t-8 -2.5t-6.5 -7t-2.5 -10.5v-40q0 -3 1 -4.5 t4 -1.5l4 -1q2 0 2 -1q0 -2 -2 -2h-26z"
         id="glyph84" />
      <glyph
         glyph-name="n"
         unicode="n"
         horiz-adv-x="70"
         d="M4 0q-2 0 -2 2q0 1 2 1l2 1q3 1 4 2t1 4v50q0 3 -1 4t-3 1l-3 1q-2 0 -2 2q0 1 3 1q5 1 7 2.5t5 4.5q1 1 2 1t2 -2v-7q0 -1 0.5 -1.5t2.5 1.5q6 6 10.5 7.5t9.5 1.5q7 0 11 -4.5t4 -13.5v-49q0 -3 1 -4.5t4 -1.5l3 -1q2 0 2 -1q0 -2 -2 -2h-25q-2 0 -2 2t1 1q1 0 3 1 q3 0 4 1.5t1 4.5v47q0 7 -3 10t-8 3t-8.5 -2.5t-6 -7t-2.5 -10.5v-40q0 -3 1 -4.5t4 -1.5l4 -1q2 0 2 -1q0 -2 -2 -2h-26z"
         id="glyph86" />
      <glyph
         glyph-name="o"
         unicode="o"
         horiz-adv-x="61"
         d="M30 -1q-8 0 -13.5 5t-9.5 14t-4 20t4 20t10 14t13 5q8 0 14 -5t9.5 -14t3.5 -20t-3.5 -20t-9.5 -14t-14 -5zM30 2q16 0 16 36t-16 36t-15 -36q-1 -36 15 -36z"
         id="glyph88" />
      <glyph
         glyph-name="p"
         unicode="p"
         horiz-adv-x="66"
         d="M4 -31q-2 0 -2 2t2 2h2q3 0 4 1.5t1 4.5v81q0 3 -1 4t-3 1l-3 1q-2 0 -2 2q0 1 2 1q5 1 7.5 2.5t5.5 4.5q1 1 2 1t1 -2v-5q0 -1 1 -1t2 1l2 2q3 3 6 4t7 1q7 0 12.5 -4.5t8.5 -12.5t3 -19q0 -12 -4 -22t-10.5 -15t-15.5 -5q-4 0 -8 1q-3 1 -3 -1v-20q0 -3 1 -4t4 -2h6 q2 0 1 -2q0 -2 -2 -2h-27zM32 2q8 0 13.5 10t5.5 27q0 15 -4.5 23.5t-12.5 8.5q-5 0 -9 -4.5t-4 -11.5v-38q0 -7 3 -11t8 -4z"
         id="glyph90" />
      <glyph
         glyph-name="q"
         unicode="q"
         horiz-adv-x="66"
         d="M35 -31q-2 0 -2 2q0 1 2 2h5q3 0 4 1.5t1 4.5v28q0 1 -1 1.5q-1 1.5 -2 -0.5q-4 -5 -7 -7t-8 -2q-7 0 -12 4.5t-8 12.5t-3 19q0 13 4 22.5t11 14.5t16 5q3 0 5.5 -0.5t5.5 -2.5t6 1q2 2 2.5 2h1.5q2 0 1 -2q-1 -3 -1 -8.5v-14.5v-73q0 -3 1 -4.5t4 -1.5h2q2 0 2 -2t-2 -2 h-28zM30 6q4 0 7.5 2.5t5.5 7t2 9.5v34q0 7 -3 11t-8 4q-8 0 -13 -10t-5 -27q0 -15 3.5 -23t10.5 -8z"
         id="glyph92" />
      <glyph
         glyph-name="r"
         unicode="r"
         horiz-adv-x="47"
         d="M23 67q6 10 15 10q5 0 7.5 -2.5t2.5 -6.5q0 -3 -1.5 -4.5t-4.5 -1.5q-2 0 -3.5 1t-2 2.5t-1.5 2.5t-3 1q-3 0 -5.5 -3t-4 -8.5t-1.5 -12.5v-35q0 -3 1 -4.5t4 -1.5l4 -1q2 0 2 -1q0 -2 -2 -2h-26q-2 0 -2 2q0 1 2 1l2 1q3 1 4 2t1 4v50q0 3 -1 4t-3 1l-3 1q-2 0 -2 2 q0 1 3 1q5 1 7 2.5t5 4.5q1 1 2 1t2 -2v-8q0 -1 0.5 -1t1.5 1z"
         id="glyph94" />
      <glyph
         glyph-name="s"
         unicode="s"
         horiz-adv-x="46"
         d="M20 -1q-3 0 -7.5 0.5t-6.5 2.5q-1 1 -1 2l-1 17q0 3 2 2q2 0 2 -2q3 -11 6.5 -14.5t9.5 -3.5q4 0 7 3t3 9t-3.5 11t-11.5 10t-11.5 10.5t-3.5 11.5q0 9 6 14t16 5q3 0 6 -0.5t5 -1.5q1 -1 1 -3l1 -16q0 -2 -2 -3q-1 0 -1.5 1t-0.5 2q-3 10 -6 13.5t-8 3.5q-4 0 -6.5 -2.5 t-2.5 -6.5q0 -5 3.5 -9t11.5 -10q8 -5 11.5 -11.5t3.5 -13.5q0 -10 -6 -15.5t-16 -5.5z"
         id="glyph96" />
      <glyph
         glyph-name="t"
         unicode="t"
         horiz-adv-x="38"
         d="M22 -1q-5 0 -8.5 3.5t-3.5 11.5v56q0 2 -2 2h-4q-2 0 -2 2q0 1 1 2q5 3 8 7.5t5 10.5q1 3 3 4q2 0 1 -3v-16q0 -3 2 -3h10q2 0 2 -2t-2 -2h-10q-2 0 -2 -2v-56q0 -3 1 -5t4 -2t5 3.5t3 10.5q0 2 2 2t2 -3q0 -12 -4.5 -16.5t-10.5 -4.5z"
         id="glyph98" />
      <glyph
         glyph-name="u"
         unicode="u"
         horiz-adv-x="68"
         d="M26 -1q-4 0 -7.5 1.5t-6 5t-2.5 9.5v52q0 3 -0.5 4t-2.5 1l-3 1q-3 0 -2 2q0 1 2 1h14q2 0 3 -2v-56q0 -7 2.5 -9.5t7.5 -2.5t8 2.5t5.5 7t2.5 9.5v42q0 3 -1 4t-3 1q-1 0 -3 1q-3 0 -2 2q0 1 3 1h14q2 0 2 -2v-58q0 -3 1 -4t3 -1h3q2 0 2 -2q0 -1 -3 -2q-5 -1 -7.5 -2.5 t-4.5 -3.5l-2 -2q-1 0 -1 2v7q0 1 -1 1.5t-2 -0.5q-6 -6 -10 -8t-9 -2z"
         id="glyph100" />
      <glyph
         glyph-name="v"
         unicode="v"
         horiz-adv-x="58"
         d="M29 -1q-1 0 -2 1l-20 66q-1 4 -2 5t-3 2h-2q-2 0 -2 2q0 1 2 1h25q2 0 2 -1q0 -2 -2 -2h-3q-4 0 -4.5 -1.5t0.5 -5.5l12 -43q0 -2 1.5 -2t1.5 2l13 41q1 4 0.5 6t-4.5 2l-3 1q-2 0 -2 2q0 1 2 1h19q2 0 2 -1q0 -2 -2 -2l-1 -1q-2 -1 -3.5 -2.5t-3.5 -6.5l-19 -63 q-1 -1 -2 -1z"
         id="glyph102" />
      <glyph
         glyph-name="w"
         unicode="w"
         horiz-adv-x="89"
         d="M28 -1q-2 0 -3 3l-18 64q-1 4 -2 5t-3 2h-2q-2 0 -2 2q0 1 2 1h24q2 0 2 -1q0 -2 -2 -2h-2q-4 0 -4.5 -1.5t0.5 -5.5l11 -43q0 -2 1.5 -2t1.5 2l10 39q0 1 0.5 2t-0.5 3q-1 4 -2 4.5l-3 1.5h-2q-2 0 -2 2q0 1 2 1h25q2 0 2 -1q0 -2 -2 -2h-3q-4 0 -4.5 -1.5t0.5 -5.5 l9 -43q0 -2 1.5 -1.5t1.5 1.5q-1 0 11 41q1 4 1 6t-4 2l-3 1q-2 0 -2 2q0 1 2 1h19q2 0 2 -1q0 -2 -2 -2l-1 -1q-2 -1 -4 -2.5t-3 -6.5l-17 -61q-1 -3 -3 -3t-3 3l-12 48q0 2 -1 1.5t-1 -1.5l-13 -48q-1 -3 -3 -3z"
         id="glyph104" />
      <glyph
         glyph-name="x"
         unicode="x"
         horiz-adv-x="57"
         d="M34 0q-2 0 -2 2t2 1l2 1q4 1 3 5l-11 21q-1 1 -1.5 1t-1.5 -1l-10 -18q-3 -6 1 -8l4 -1q2 1 2 -1t-2 -2h-19q-2 0 -2 2t2 2h1q3 1 5 2.5t5 7.5l11 20q1 2 1 4l-15 28l-3 4.5t-2 2.5h-2q-2 0 -2 2q0 1 2 1h22q2 0 2 -1q0 -2 -2 -2h-2q-4 -1 -2 -5l10 -20q1 -1 1.5 -1 t0.5 1l9 17q3 6 -1 7l-4 1q-2 0 -2 2q0 1 3 1h19q2 0 2 -1q0 -2 -2 -2l-2 -1q-3 -1 -4.5 -2t-4.5 -7l-11 -19q-1 -2 0 -5l15 -29q2 -4 3 -5t2 -1l2 -1q2 1 2 -1t-2 -2h-22z"
         id="glyph106" />
      <glyph
         glyph-name="y"
         unicode="y"
         horiz-adv-x="60"
         d="M12 -31q-4 0 -6 3t-2 6t1.5 5t4.5 2q2 0 3 -1t1.5 -2.5t1 -2.5t1.5 -1q2 0 3.5 2.5t3.5 9.5q2 4 2 8t-0.5 7.5t-1.5 8.5l-17 52q-1 4 -2 5t-3 2h-2q-2 0 -2 2q0 1 2 1h25q2 0 2 -1q0 -2 -2 -2h-3q-4 0 -4.5 -1.5t0.5 -5.5l13 -44q0 -2 1.5 -1.5q1.5 -0.5 1.5 1.5l13 42 q1 4 0.5 6t-4.5 2l-3 1q-2 0 -2 2q0 1 2 1h19q2 0 2 -1q0 -2 -1 -2l-2 -1q-2 -1 -3.5 -2.5t-3.5 -6.5l-22 -70q-3 -10 -6 -15.5t-5.5 -7t-5.5 -1.5z"
         id="glyph108" />
      <glyph
         glyph-name="z"
         unicode="z"
         horiz-adv-x="52"
         d="M4 0q-2 0 -2 2q0 1 0.5 1.5t1.5 2.5l33 64q1 1 0.5 2t-1.5 1h-7q-7 0 -10.5 -2.5t-5.5 -7.5l-4 -7q-1 -2 -2 -2q-2 0 -1 2l3 20q1 4 3 4q1 0 1.5 -1l1 -2t3.5 -1h30q2 0 3 -1q0 -1 -0.5 -2t-1.5 -2l-33 -64q-1 -1 -0.5 -2t1.5 -1h7q9 0 12.5 2.5t5.5 7.5l5 11q1 2 2 2 q2 0 2 -2l-4 -22q0 -3 -3 -3h-40z"
         id="glyph110" />
      <glyph
         glyph-name="zero"
         unicode="0"
         horiz-adv-x="69"
         d="M34 -1q-9 0 -15 7t-10 20t-4 28q0 16 4 28.5t10.5 20t14.5 7.5q9 0 15.5 -7.5t10.5 -20t4 -28.5t-4 -28.5t-10.5 -19.5t-15.5 -7zM34 3q9 0 14 12.5t5 38.5t-4.5 38.5t-14.5 12.5q-9 0 -13.5 -12.5t-4.5 -38.5t4.5 -38.5t13.5 -12.5z"
         id="glyph112" />
      <glyph
         glyph-name="one"
         unicode="1"
         horiz-adv-x="37"
         d="M3 0q-2 0 -2 2t2 1l6 1q3 0 4 1.5t1 4.5v89q0 3 -1.5 3.5t-3.5 0.5l-6 -1q-3 0 -2 2q0 2 2 2q8 1 12 2.5t5 1.5q3 0 4 -3v-97q0 -3 1 -4.5t4 -1.5l5 -1q2 0 2 -1q0 -2 -2 -2h-31z"
         id="glyph114" />
      <glyph
         glyph-name="two"
         unicode="2"
         horiz-adv-x="60"
         d="M6 0q-3 0 -3 2q0 1 1 3l18 27q11 17 16 29.5t5 22.5q0 9 -3.5 14.5t-11.5 5.5q-7 0 -12.5 -5.5q-5.5 -6.5 -7.5 -16.5q0 -2 -2 -2t-2 3q1 10 5 16t10 8.5t12 2.5q10 0 16.5 -6.5t6.5 -17.5q0 -8 -3.5 -16t-10 -18t-14.5 -22l-12 -18q-1 -1 0 -2t2 -1h16q6 0 10 1.5t6 5 t3 9.5l2 7q0 2 2 2t2 -2l-2 -29q0 -3 -4 -3h-45z"
         id="glyph116" />
      <glyph
         glyph-name="three"
         unicode="3"
         horiz-adv-x="55"
         d="M20 -1q-8 0 -12.5 2.5t-4.5 7.5q0 3 1.5 4t3.5 1q3 0 4 -1.5t1.5 -4t2 -4t5.5 -1.5q9 0 14 8t5 21q0 29 -16 29q-6 0 -10 -3q-2 -2 -4 -1q-1 2 1 4l11 10q7 6 10 11.5t3 10.5q0 6 -2.5 8.5t-7.5 2.5q-6 0 -9.5 -4t-4.5 -11q0 -2 -3 -3q-2 0 -1 3q1 9 7 15t14 6t12.5 -4.5 t4.5 -11.5q1 -12 -19 -25l-4 -2q-1 0 -0.5 -1t1.5 -1q3 1 5 1q7 0 12 -4t8 -11t3 -16q0 -7 -2.5 -13.5t-7 -11.5t-10 -8t-11.5 -3z"
         id="glyph118" />
      <glyph
         glyph-name="four"
         unicode="4"
         horiz-adv-x="58"
         d="M26 0q-2 0 -3 2q0 2 2 1l7 1q3 0 4 1.5t1 4.5v19q0 3 -2 3h-31q-2 0 -2 2v1.5t1 2.5l36 68q1 2 2 2h3q3 0 2 -3l-36 -63q-1 -2 1 -2h24q2 0 2 2v29q0 1 1 3l6 3q1 1 1.5 0.5t0.5 -1.5v-34q0 -2 2 -2h7q2 0 2 -2v-5q0 -1 -2 -1h-7q-2 0 -2 -3v-19q0 -3 1 -4t4 -2l4 -1 q2 0 2 -1q0 -2 -2 -2h-29z"
         id="glyph120" />
      <glyph
         glyph-name="five"
         unicode="5"
         horiz-adv-x="57"
         d="M20 -1q-4 0 -8.5 1t-7 3.5t-2.5 5.5q0 2 1 3.5t3 1.5q3 0 4 -1.5t2 -4t3 -4t6 -1.5q5 0 9.5 2.5t8 9t3.5 16.5q0 14 -7 22t-23 9q-2 0 -2 3l8 41q0 2 2 2h24q3 0 4 1t1.5 2t1.5 1t1.5 -1t0.5 -2l-3 -8q0 -2 -2 -2h-25q-2 0 -2 -2l-4 -23q0 -2 2 -2q12 -1 19 -6.5 t10.5 -13.5t3.5 -18q0 -11 -4.5 -19t-12 -12t-15.5 -4z"
         id="glyph122" />
      <glyph
         glyph-name="six"
         unicode="6"
         horiz-adv-x="60"
         d="M31 -1q-8 0 -13.5 5t-9 14t-3.5 21t3.5 24t10 21.5t15 16t17.5 8.5q2 0 2.5 -0.5l0.5 -0.5q0 -2 -2 -2q-13 -4 -21 -14t-12 -26q0 -1 0.5 -1.5t1.5 0.5q5 3 11 3q7 0 12.5 -4t8.5 -12t3 -18t-3 -18t-9 -12.5t-13 -4.5zM31 3q8 0 11.5 7.5t3.5 23.5t-3.5 23.5t-11.5 7.5 q-16 0 -16 -32q1 -30 16 -30z"
         id="glyph124" />
      <glyph
         glyph-name="seven"
         unicode="7"
         horiz-adv-x="54"
         d="M15 0q-2 0 -2 2l34 95q1 2 -2 2h-33q-2 0 -3.5 -1t-2.5 -2t-2 -1t-1 1v2l2 8q0 2 2 2h45q2 0 2 -2q0 -1 -1 -5l-32 -99q0 -2 -2 -2h-4z"
         id="glyph126" />
      <glyph
         glyph-name="eight"
         unicode="8"
         horiz-adv-x="64"
         d="M32 -1q-9 0 -15 4t-9.5 10t-3.5 13q0 9 5.5 16.5t14.5 12.5q1 0 1 1t-1 1q-8 6 -12 13t-4 15t3.5 13t9.5 8.5t13 3.5t12.5 -3.5t8.5 -8.5t3 -12q0 -8 -4.5 -14.5t-12.5 -11.5q-1 0 -1 -0.5t1 -1.5q11 -7 15.5 -14t4.5 -16q0 -8 -4 -15t-10.5 -10.5t-14.5 -3.5zM34 62 q2 -1 4 0q6 4 8.5 10.5t2.5 13.5q0 9 -3.5 14t-11.5 5t-12.5 -4.5t-4.5 -12.5q0 -4 1 -8.5t5 -9t11 -8.5zM33 3q9 0 14 5.5t5 14.5q0 8 -3 13t-7.5 9.5t-10.5 7.5q-2 1 -4 0q-14 -9 -14 -28q0 -6 2 -11t6.5 -8t11.5 -3z"
         id="glyph128" />
      <glyph
         glyph-name="nine"
         unicode="9"
         horiz-adv-x="60"
         d="M14 -1q-2 0 -2.5 0.5t-0.5 1.5t1 2q12 4 19.5 14.5t10.5 27.5q0 1 -0.5 1.5t-1.5 -0.5q-6 -4 -12 -3q-7 0 -12.5 4t-8.5 11.5t-3 16.5t3.5 17t9 13t12.5 5q8 0 13.5 -5.5t9 -14.5t3.5 -21q0 -19 -5.5 -33.5t-15 -24t-20.5 -12.5zM15 76q0 -30 14 -30q8 0 11.5 8t3.5 23 q0 14 -3.5 21t-11.5 7q-14 0 -14 -29z"
         id="glyph130" />
      <glyph
         glyph-name="period"
         unicode="."
         horiz-adv-x="31"
         d="M16 -1q-3 0 -5.5 2t-2.5 6q0 3 2.5 5t5.5 2t5.5 -2t2.5 -5q0 -4 -2.5 -6t-5.5 -2z"
         id="glyph132" />
      <glyph
         glyph-name="comma"
         unicode=","
         horiz-adv-x="32"
         d="M11 -23q-2 -2 -2 -1q-1 1 0 3q4 4 6 8t2 8q0 2 -1 3.5t-2.5 2.5t-3 2.5t-1.5 3.5q0 3 2 5t5 2q4 0 6 -2.5t2 -7.5q0 -8 -3.5 -15t-9.5 -12z"
         id="glyph134" />
      <glyph
         glyph-name="colon"
         unicode=":"
         horiz-adv-x="31"
         d="M16 -1q-3 0 -5.5 2t-2.5 6q0 3 2.5 5t5.5 2t5.5 -2t2.5 -5q0 -4 -2.5 -6t-5.5 -2zM16 56q-3 0 -5.5 2t-2.5 6q0 3 2.5 5t5.5 2t5.5 -2t2.5 -5q0 -4 -2.5 -6t-5.5 -2z"
         id="glyph136" />
      <glyph
         glyph-name="exclam"
         unicode="!"
         horiz-adv-x="35"
         d="M18 27q-2 0 -2 2q0 8 -0.5 17t-1.5 18.5t-1.5 17.5t-1 14t-0.5 8q0 4 1.5 6t5.5 2q3 0 4.5 -2t1.5 -6q0 -3 -0.5 -8.5t-1 -13.5t-1 -17.5t-1 -18.5t-1.5 -17q1 -2 -1 -2zM18 -1q-3 0 -5.5 2t-2.5 6q0 3 2 5t6 2q3 0 5 -2t2 -5q0 -4 -2 -6t-5 -2z"
         id="glyph138" />
      <glyph
         glyph-name="question"
         unicode="?"
         horiz-adv-x="47"
         d="M19 27q-2 0 -2 2l-1 27q0 5 1 8t4 6l3 4q5 5 7.5 9q2.5 3 2.5 11t-2.5 11t-6.5 3q-6 0 -10 -5t-7 -16q-1 -2 -2 -3q-2 0 -2 3l1 18q0 1 0.5 2l0.5 1q2 2 6.5 3t8.5 1q10 0 16 -5t6 -15q0 -9 -3.5 -14.5t-9.5 -12.5l-6 -5q-2 -2 -2.5 -3.5t-0.5 -5.5v-22q0 -2 -2 -2z M18 -1q-3 0 -5.5 2t-2.5 6q0 3 2.5 5t5.5 2t5.5 -2t2.5 -5q0 -4 -2.5 -6t-5.5 -2z"
         id="glyph140" />
      <glyph
         glyph-name="emdash"
         unicode="—"
         horiz-adv-x="108"
         d="M14 39q-2 0 -2 1v2q0 2 2 2h80q2 0 2 -2v-2q0 -2 -2 -1h-80z"
         id="glyph142" />
      <glyph
         glyph-name="parenleft"
         unicode="("
         horiz-adv-x="51"
         d="M44 -16h-1q-5 4 -11 10t-11 14t-8 18.5t-3 21.5q0 12 3 22t8 18t10.5 14.5t11.5 9.5q1 0 1 1q1 0 1 -1t-1 -2q-12 -11 -17.5 -27t-5.5 -35q0 -18 5.5 -34t17.5 -27q1 -1 1 -2t-1 -1z"
         id="glyph144" />
      <glyph
         glyph-name="parenright"
         unicode=")"
         horiz-adv-x="51"
         d="M7 -16q-1 0 -1 1t1 2q12 11 17.5 27t5.5 34t-5.5 34.5t-17.5 27.5q-1 1 -1 2t1 1t1 -1q5 -4 11 -10t10.5 -14t7.5 -18t3 -22t-3 -22t-7.5 -18t-10 -14t-11.5 -10h-1z"
         id="glyph146" />
      <glyph
         glyph-name="quotesinglbase"
         unicode="‚"
         horiz-adv-x="24"
         d="M8 -19.0996q-2 -1 -3 0q-1 0 -0.5 1t1.5 1q5 4 6.5 7t1.5 5q0 3 -1.5 4.5t-3 2.5t-2.5 2t-1 4t2 5t5 2q4 0 6 -3t2 -8q0 -7 -3 -12.5t-10 -10.5z"
         id="glyph148" />
      <glyph
         glyph-name="quotedblleft"
         unicode="“"
         horiz-adv-x="47"
         d="M28 84q-4 0 -6 3t-2 7q0 7 3 13t10 11q2 1 3 0q1 0 1 -1t-1 -2q-5 -4 -7 -6q-1 -2 -1 -5t1 -4l3 -3q2 -1 2 -2q1 -1 1 -4t-1 -5q-3 -2 -6 -2zM6 84q-4 0 -6 3t-2 7q0 7 3 13t10 11q3 1 3 0q1 0 0 -1q0 -1 -1 -2q-5 -4 -6 -6t-2 -5q0 -3 1 -4l3 -3q2 -1 3 -2t1 -4t-2 -5 t-5 -2z"
         id="glyph150" />
      <glyph
         glyph-name="quotedblright"
         unicode="”"
         horiz-adv-x="47"
         d="M8 76q-2 -1 -3 0q-1 0 -0.5 1t1.5 1q5 4 6.5 7t1.5 5q0 3 -1.5 4.5t-3 2.5t-2.5 2t-1 4t2 5t5 2q4 0 6 -3t2 -8q0 -7 -3 -12.5t-10 -10.5zM30.5 76q-2 -1 -3 0q-1 0 -0.5 1t1.5 1q5 4 6.5 7t1.5 5q0 3 -1.5 4.5t-3 2.5t-2.5 2t-1 4t2 5t5 2q4 0 6 -3t2 -8q0 -7 -3 -12.5 t-10 -10.5z"
         id="glyph152" />
      <glyph
         glyph-name="quoteright"
         unicode="’"
         horiz-adv-x="24"
         d="M8 76q-2 -1 -3 0q-1 0 -0.5 1t1.5 1q5 4 6.5 7t1.5 5q0 3 -1.5 4.5t-3 2.5t-2.5 2t-1 4t2 5t5 2q4 0 6 -3t2 -8q0 -7 -3 -12.5t-10 -10.5z"
         id="glyph154" />
      <glyph
         glyph-name="dollar"
         unicode="$"
         horiz-adv-x="62"
         d="M28 -1q-3 0 -7 0.5t-7 1.5t-5 2l-1.5 1.5t-0.5 1.5l-1 24q0 3 2 3t2 -3l2 -6q5 -21 18 -21v49l-2 2q-11 8 -16 15.5t-5 15.5q0 10 6.5 16.5t16.5 7.5v14q0 1 2 1h1q1 0 1 -1q0 1 0 -13v0q4 0 8.5 -1.5t7.5 -3.5l1.5 -1.5t0.5 -1.5v-22q0 -3 -2 -3q-1 0 -2 2l-1 4 q-3 10 -5.5 15t-7.5 7v-42l1 -1q11 -9 16.5 -17.5t5.5 -17.5q0 -11 -6.5 -18.5t-16.5 -9.5v-14q0 -1 -1 -1q1 0 -1 0q-1 0 -2 1v14h-2zM16 89q0 -6 3 -11t11 -12v39v0q-6 0 -10 -4t-4 -12zM47 22q0 7 -3 14t-10 13v-46q6 1 9.5 6t3.5 13z"
         id="glyph156" />
      </font>
</defs>
</svg>
