<svg xmlns="http://www.w3.org/2000/svg">
<defs>
<font
       vert-adv-y="1024"
       vert-origin-y="768"
       vert-origin-x="512"
       horiz-origin-y="0"
       horiz-origin-x="0"
       horiz-adv-x="81"
       id="Baumans-Regular">
      <font-face
         id="font-face4"
         unicode-range="U+0020-2212"
         underline-position="-14.4459"
         underline-thickness="7.22293"
         bbox="-6 -37 125 145.114"
         cap-height="114"
         x-height="78"
         descent="-37"
         ascent="125"
         panose-1="2 0 5 6 2 0 0 2 0 3"
         units-per-em="162"
         font-stretch="normal"
         font-weight="400"
         font-family="Baumans" />
      <missing-glyph
         id="missing-glyph6" />
      <glyph
         id="glyph8"
         d="M47 116q29 0 32 -28h-16q-1 13 -18 13q-18 0 -17 -15q0 -11 6.5 -15t15.5 -4h42v-13h-9v-21q0 -9 -3.5 -16.5t-7.5 -10.5t-9 -5t-9 -2h-9q-20 0 -28 10q-7 8 -9 24q0 9 6 17t17 10v1q-18 6 -18 27q0 12 8 19q5 4 11 6.5t15 2.5zM46 13q8 0 14 4.5t7 16.5v0v20h-14 q-14 0 -21.5 -5t-7.5 -15q0 -11 5.5 -16t16.5 -5z"
         horiz-adv-x="94"
         unicode="&amp;"
         glyph-name="ampersand" />
      <glyph
         id="glyph10"
         d="M5 114h15l-1 -36h-12z"
         horiz-adv-x="24"
         unicode="'"
         glyph-name="quotesingle" />
      <glyph
         id="glyph12"
         d="M56 -13l-9 -10q-19 14 -27 34t-8 41q0 20 8 38.5t26 33.5l10 -9q-29 -22 -30 -62q1 -43 30 -66z"
         horiz-adv-x="61"
         unicode="("
         glyph-name="parenleft" />
      <glyph
         id="glyph14"
         d="M7 115l8 9q19 -14 27 -34.5t8 -39.5q0 -20 -8 -39t-27 -34l-8 9q29 23 29 62q0 44 -29 67z"
         horiz-adv-x="61"
         unicode=")"
         glyph-name="parenright" />
      <glyph
         id="glyph16"
         d="M40 45v33h14v-33h32v-12h-32v-33h-14v33h-33v12h33z"
         horiz-adv-x="92"
         unicode="+"
         glyph-name="plus" />
      <glyph
         id="glyph18"
         d="M14 -25l-9 5q6 12 8 20h-12l6 14h22q0 -22 -15 -39z"
         horiz-adv-x="34"
         unicode=","
         glyph-name="comma" />
      <glyph
         id="glyph20"
         d="M41 33h-36v12h36v-12z"
         horiz-adv-x="46"
         unicode="-"
         glyph-name="hyphen" />
      <glyph
         id="glyph22"
         d="M4 1q-3 3 -3 7t3 7.5t8 3.5q4 0 7 -3t3 -8q0 -4 -2.5 -6.5t-7.5 -2.5q-5 -1 -8 2z"
         horiz-adv-x="26"
         unicode="."
         glyph-name="period" />
      <glyph
         id="glyph24"
         d="M9 40q0 3 -0.5 8t-0.5 10q0 11 2 21t6 18t11.5 13.5t19.5 5.5q13 0 21 -6t12.5 -14t5.5 -18.5t1 -19.5q0 -11 -1 -22t-5.5 -19.5t-12 -13t-21.5 -4.5q-11 0 -17.5 3t-10.5 9.5t-6.5 14t-3.5 14.5zM29 22q5 -8 18 -9q6 0 11.5 2t8 6.5t4 13t1.5 23.5q0 13 -1.5 21.5 t-4 13.5t-7 7t-12.5 2q-6 0 -10 -2t-7 -7t-4.5 -14t-1.5 -21q1 -28 5 -36z"
         horiz-adv-x="94"
         unicode="0"
         glyph-name="zero" />
      <glyph
         id="glyph26"
         d="M40 0h-15v98h-21l7 16h29v-114z"
         horiz-adv-x="50"
         unicode="1"
         glyph-name="one" />
      <glyph
         id="glyph28"
         d="M76 83q0 -11 -4 -18t-12 -14.5t-12.5 -10.5t-9.5 -7.5t-9.5 -9t-5.5 -8.5h52v-15h-69v7q0 3 1 7t3.5 9t8 12t28.5 25q13 9 13 24q0 6 -5 11t-15 5q-15 0 -22 -17l-13 10q12 22 35 23q18 0 27 -9t9 -24z"
         horiz-adv-x="85"
         unicode="2"
         glyph-name="two" />
      <glyph
         id="glyph30"
         d="M80 36q0 -18 -10.5 -27.5t-28.5 -9.5q-15 0 -24.5 5t-11.5 17l13 12q2 -8 8 -14t15 -6q22 0 22 23q0 21 -25 21h-9v15q9 3 17.5 10t11.5 16h-47v16h62v-5q0 -27 -20 -40q14 -3 20.5 -11.5t6.5 -21.5z"
         horiz-adv-x="85"
         unicode="3"
         glyph-name="three" />
      <glyph
         id="glyph32"
         d="M57 114h15v-74h13v-14h-13v-26h-15v26h-50v7q0 21 20 45zM38 72q-14 -20 -15 -32h34v53z"
         horiz-adv-x="90"
         unicode="4"
         glyph-name="four" />
      <glyph
         id="glyph34"
         d="M80 37q0 -18 -10.5 -28t-28.5 -10q-15 0 -24.5 5t-11.5 17l14 6q4 -7 9 -10.5t13 -3.5q11 0 16.5 5.5t5.5 18.5q0 12 -5 17.5t-17 5.5h-28v54h62v-16h-48v-24h14q19 0 29 -9t10 -28z"
         horiz-adv-x="85"
         unicode="5"
         glyph-name="five" />
      <glyph
         id="glyph36"
         d="M67 37q0 22 -19 21q-7 0 -14 -2v12q7 3 16 4q15 0 24.5 -9t9.5 -26q0 -18 -10 -28t-26 -10q-22 0 -31.5 13.5t-9.5 44.5q0 26 15 41.5t41 15.5h10v-15h-12q-19 0 -28.5 -10.5t-9.5 -31.5q0 -24 6 -34.5t18 -10.5q8 0 14 6.5t6 18.5z"
         horiz-adv-x="90"
         unicode="6"
         glyph-name="six" />
      <glyph
         id="glyph38"
         d="M67 114v-5q0 -12 -3 -22.5t-7.5 -18.5t-10 -17t-8.5 -19.5t-3 -24.5v-7h-16v7q0 13 2.5 23.5t7 19.5t8.5 16t8.5 15.5t6.5 17.5h-50v15h65z"
         horiz-adv-x="71"
         unicode="7"
         glyph-name="seven" />
      <glyph
         id="glyph40"
         d="M79 85q0 -19 -15 -25v-1q18 -6 18 -30q0 -6 -2.5 -11.5t-7 -10t-11 -6.5t-16.5 -2q-8 0 -15 2t-12 6.5t-7.5 10t-2.5 11.5q0 23 18 30v1q-15 6 -15 25q0 6 2 11.5t6.5 9t11 7t14.5 3.5t14.5 -3.5t11 -7t6.5 -9t2 -11.5zM26 83q0 -8 5.5 -13.5t13.5 -5.5t13.5 5t5.5 14 q0 8 -4 13.5t-15 5.5q-9 0 -14 -5.5t-5 -13.5zM45 54q-9 0 -14.5 -6.5t-5.5 -15.5q0 -8 5 -14.5t15 -6.5q21 0 20 21q0 9 -5.5 15.5t-14.5 6.5z"
         horiz-adv-x="89"
         unicode="8"
         glyph-name="eight" />
      <glyph
         id="glyph42"
         d="M23 77q0 -22 18 -21q7 0 16 2v-14q-7 -3 -17 -3q-15 0 -24 10t-9 26q0 18 9.5 28.5t25.5 10.5q22 0 32 -14.5t10 -44.5q0 -26 -15 -41.5t-42 -15.5h-8v14h10q19 0 28.5 11t9.5 32q0 24 -5.5 34t-19.5 10q-8 0 -13.5 -6t-5.5 -18z"
         horiz-adv-x="90"
         unicode="9"
         glyph-name="nine" />
      <glyph
         id="glyph44"
         d="M4 61q-3 3 -3 7.5t3 7t8 2.5t7.5 -2.5t2.5 -7t-2.5 -7t-7.5 -3t-8 2.5zM4 1q-3 3 -3 7.5t3 7.5t8 3t7.5 -3t2.5 -7.5t-2.5 -7t-7.5 -3t-8 2.5z"
         horiz-adv-x="26"
         unicode=":"
         glyph-name="colon" />
      <glyph
         id="glyph46"
         d="M14 -25l-9 5q6 12 8 20h-12l6 14h22q0 -22 -15 -39zM11 61q-3 3 -3.5 7.5t2.5 7t7.5 2.5t7 -2.5t2.5 -7t-2.5 -7t-6.5 -3t-7 2.5z"
         horiz-adv-x="41"
         unicode=";"
         glyph-name="semicolon" />
      <glyph
         id="glyph48"
         d="M86 61v-13h-79v13h79zM86 29v-12h-79v12h79z"
         horiz-adv-x="92"
         unicode="="
         glyph-name="equal" />
      <glyph
         id="glyph50"
         d="M35 1q-3 3 -3 7t3 7.5t6 3.5q4 0 8 -3t4 -8q0 -4 -4 -6.5t-8 -2.5q-3 -1 -6 2zM32 69l-10 -9q-9 6 -10 22q0 6 3 11.5t6.5 8.5t9.5 5t11 2q6 0 12 -1.5t10 -5t6.5 -9t2.5 -13.5q0 -5 -2 -9.5t-4.5 -8.5t-5.5 -8t-5 -8t-5 -7t-3 -6h-14q0 3 0.5 5t1.5 4t3 5t5 7l6 7 q8 11 9 17q0 4 -1.5 7.5t-3.5 6t-5.5 3.5t-7.5 1q-6 0 -10.5 -4t-4.5 -12q1 -7 6 -11z"
         horiz-adv-x="84"
         unicode="?"
         glyph-name="question" />
      <glyph
         id="glyph52"
         d="M101 22v-14q-14 -11 -33 -10q-25 0 -42.5 17t-17.5 42q0 18 9.5 31t22.5 19q12 6 27 8q13 0 25 -7q11 -5 19 -15.5t8 -26.5q0 -15 -8 -26.5t-17 -11.5q-12 0 -14 15v9q0 22 -15 21q-7 0 -11 -5t-4 -11t4.5 -11.5t10.5 -5.5t11 3v-11q-4 -3 -12 -4q-12 0 -19.5 7.5 t-7.5 21.5q0 18 16 26q5 3 13 3q14 0 22 -11q6 -7 6 -23v-8q0 -3 2 -3q3 0 6 7.5t3 15.5q0 22 -18 33v0q-8 4 -21 5q-12 0 -22 -5q-9 -5 -15.5 -17t-6.5 -24q0 -20 12.5 -32.5t32.5 -12.5q11 0 18.5 2.5t15.5 8.5z"
         horiz-adv-x="125"
         unicode="@"
         glyph-name="at" />
      <glyph
         id="glyph54"
         d="M24 0h-15v72q0 18 12 30t29 12h37v-114h-15v99h-22q-12 0 -19 -7t-7 -23v-12q8 9 26 8h15v-13h-15q-9 0 -15 -3t-11 -8v-41z"
         horiz-adv-x="96"
         unicode="A"
         glyph-name="A" />
      <glyph
         id="glyph56"
         d="M26 0h-15v77q0 17 11 28t25 11q18 0 27 -9t9 -22q0 -17 -16 -24v0q21 -6 22 -29q0 -32 -36 -32h-21v14h20q11 0 16 4.5t5 15.5q0 8 -5.5 13t-14.5 5h-17v13h10q8 0 14.5 5t6.5 13q0 7 -4 12.5t-16 5.5q-9 0 -15 -6t-6 -18v-77z"
         horiz-adv-x="94"
         unicode="B"
         glyph-name="B" />
      <glyph
         id="glyph58"
         d="M9 57q0 27 15 42t41 15h11v-15h-12q-19 0 -28.5 -12t-9.5 -30q0 -19 9.5 -31t28.5 -12h12v-14h-11q-26 0 -41 15t-15 42z"
         horiz-adv-x="84"
         unicode="C"
         glyph-name="C" />
      <glyph
         id="glyph60"
         d="M89 57q0 -27 -14.5 -42t-40.5 -15h-23v114h23q26 0 40.5 -15t14.5 -42zM35 14q19 0 28.5 12t9.5 31t-9.5 30.5t-28.5 11.5h-9v-85h9z"
         horiz-adv-x="98"
         unicode="D"
         glyph-name="D" />
      <glyph
         id="glyph62"
         d="M75 0h-64v86q0 12 8 19q5 4 11 6.5t15 2.5h30v-15h-32q-18 0 -17 -15v-19h37v-13h-37v-38h49v-14z"
         unicode="E"
         glyph-name="E" />
      <glyph
         id="glyph64"
         d="M26 84v-21h30v-16h-30v-47h-15v86q0 12 8 19q5 4 11 6.5t15 2.5h18v-15h-20q-17 0 -17 -15z"
         horiz-adv-x="65"
         unicode="F"
         glyph-name="F" />
      <glyph
         id="glyph66"
         d="M64 14h11v33h-16v16h31v-63h-25q-26 0 -41 14.5t-15 42.5q0 27 15 42t41 15h19v-15h-20q-19 0 -28.5 -12t-9.5 -30q0 -19 9.5 -31t28.5 -12z"
         horiz-adv-x="98"
         unicode="G"
         glyph-name="G" />
      <glyph
         id="glyph68"
         d="M26 0h-15v114h15v-49h50v49h16v-114h-16v52h-50v-52z"
         horiz-adv-x="102"
         unicode="H"
         glyph-name="H" />
      <glyph
         id="glyph70"
         d="M26 0h-15v114h15v-114z"
         horiz-adv-x="36"
         unicode="I"
         glyph-name="I" />
      <glyph
         id="glyph72"
         d="M36 29v70h-30v15h46v-87q0 -12 -9 -20q-5 -4 -11 -5.5t-15 -1.5h-12v14h14q17 0 17 15z"
         horiz-adv-x="61"
         unicode="J"
         glyph-name="J" />
      <glyph
         id="glyph74"
         d="M80 21v-21h-15v21q0 19 -8.5 26t-30.5 7v-54h-15v114h15v-47q12 0 15 -1l23 48h16l-25 -51q25 -8 25 -42z"
         horiz-adv-x="87"
         unicode="K"
         glyph-name="K" />
      <glyph
         id="glyph76"
         d="M74 14v-14h-24h-10t-9.5 2t-9.5 5q-6 5 -8 13t-2 18v76h15v-75q0 -9 2 -15q4 -9 18 -10h28z"
         horiz-adv-x="76"
         unicode="L"
         glyph-name="L" />
      <glyph
         id="glyph78"
         d="M64 35h1l13 50q4 17 13 23t27 6v-114h-16v97q-4 -2 -6 -5.5t-4 -9.5l-20 -70h-14l-21 70q-2 6 -4 9.5t-7 5.5v-97h-15v114q18 0 26.5 -6.5t14.5 -22.5z"
         horiz-adv-x="127"
         unicode="M"
         glyph-name="M" />
      <glyph
         id="glyph80"
         d="M26 0h-15v114h41q20 0 30 -9t10 -29v-76h-16v78q0 11 -6.5 16t-17.5 5h-26v-99z"
         horiz-adv-x="100"
         unicode="N"
         glyph-name="N" />
      <glyph
         id="glyph82"
         d="M100 57q0 8 -2.5 16.5t-7.5 14.5t-11.5 9.5t-15.5 3.5q-8 0 -15 -3.5t-11.5 -9.5t-7.5 -14.5t-3 -16.5t3 -16.5t7.5 -14.5t11.5 -9.5t15 -3.5t15 3.5t12 9.5t7.5 14.5t2.5 16.5zM9 57q0 13 4.5 24t11.5 18t17 12t21 5q12 0 22 -5t16.5 -12t11 -18.5t4.5 -23.5 q0 -13 -4.5 -24t-11 -19t-16.5 -11.5t-22 -3.5t-21.5 3.5t-16.5 11.5t-11.5 19t-4.5 24z"
         horiz-adv-x="124"
         unicode="O"
         glyph-name="O" />
      <glyph
         id="glyph84"
         d="M26 0h-15v75q0 20 10.5 30.5t25.5 10.5q19 0 29 -10.5t10 -27.5q0 -9 -3.5 -16.5t-10 -12t-13 -6.5t-15.5 -2h-11v15h13q11 0 17.5 6t6.5 16q0 9 -5.5 16t-17.5 7q-11 0 -16 -7t-5 -19v-75z"
         horiz-adv-x="90"
         unicode="P"
         glyph-name="P" />
      <glyph
         id="glyph86"
         d="M105 -9h13v-15h-13q-8 0 -14 3t-11 8t-9.5 8.5t-9.5 3.5v0q-12 0 -21 4t-15.5 11.5t-11 18t-4.5 24.5q0 13 4.5 24t11.5 18t17 12t21 5q12 0 22 -5t16.5 -12t11 -18.5t4.5 -23.5q0 -21 -9 -35.5t-25 -20.5q5 -4 10 -7t12 -3zM100 57q0 8 -2.5 16.5t-7.5 14.5t-11.5 9.5 t-15.5 3.5q-8 0 -15 -3.5t-11.5 -9.5t-7.5 -14.5t-3 -16.5t3 -16.5t7.5 -14.5t11.5 -9.5t15 -3.5t15 3.5t12 9.5t7.5 14.5t2.5 16.5z"
         horiz-adv-x="124"
         unicode="Q"
         glyph-name="Q" />
      <glyph
         id="glyph88"
         d="M11 0v74q0 20 9 31t27 11q19 0 28.5 -9t9.5 -25q0 -9 -5 -16t-17 -11v0q12 -4 16.5 -13t4.5 -30v-12h-16v21q0 12 -6.5 18.5t-20.5 6.5h-8v15h9q15 0 21 6.5t6 15.5q0 8 -5.5 13t-16.5 5t-16 -6.5t-5 -20.5v-74h-15z"
         horiz-adv-x="91"
         unicode="R"
         glyph-name="R" />
      <glyph
         id="glyph90"
         d="M68 114v-15h-28q-17 0 -16 -13q0 -7 7 -12.5t19 -9.5q5 -2 9 -4t8.5 -5t6 -9.5t1.5 -12.5q0 -7 -3.5 -14.5t-8.5 -11t-11 -5.5t-11 -2h-6h-26v14h25q11 0 18 5t7 14q0 4 -1.5 7t-6 5t-8 5t-8.5 4q-1 0 -2 1q-25 9 -26 31q0 14 9 21t23 7h29z"
         unicode="S"
         glyph-name="S" />
      <glyph
         id="glyph92"
         d="M4 99v15h71v-15h-28v-99h-14v99h-29z"
         horiz-adv-x="78"
         unicode="T"
         glyph-name="T" />
      <glyph
         id="glyph94"
         d="M75 114h15v-78q0 -20 -10 -28.5t-29.5 -8.5t-29.5 9t-10 28v78h15v-80q0 -11 6.5 -16t17.5 -5t18 5t7 16v80z"
         horiz-adv-x="99"
         unicode="U"
         glyph-name="U" />
      <glyph
         id="glyph96"
         d="M89 114v-55q0 -22 -10.5 -38.5t-30.5 -23.5q-20 7 -30 23t-10 38v56h16v-54q0 -17 5.5 -28t18.5 -19q14 7 20 18.5t6 28.5v54h15z"
         horiz-adv-x="95"
         unicode="V"
         glyph-name="V" />
      <glyph
         id="glyph98"
         d="M94 14q12 12 12 40l3 60h16l-3 -61q-1 -22 -8 -35t-20 -21q-13 8 -19 22t-8 38h-1q-1 -24 -5.5 -36.5t-19.5 -23.5q-15 8 -21.5 21.5t-7.5 34.5l-4 61h16l3 -60q1 -26 13 -40q7 6 12 20t8 44h14q4 -25 8 -39t6.5 -18.5t5.5 -6.5z"
         horiz-adv-x="133"
         unicode="W"
         glyph-name="W" />
      <glyph
         id="glyph100"
         d="M7 112v2h16v-2q0 -33 22 -46q13 7 18 18.5t5 27.5v2h16v-5q0 -34 -25 -49q25 -18 25 -52v-8h-16v7q0 15 -5 26.5t-18 19.5q-23 -13 -22 -46v-7h-16v7q0 35 26 53q-26 17 -26 52z"
         horiz-adv-x="89"
         unicode="X"
         glyph-name="X" />
      <glyph
         id="glyph102"
         d="M80 114v-9q0 -20 -7 -36t-20 -25v-44h-16v43q-14 8 -22 25t-8 36v10h16v-9q0 -17 5 -28.5t16 -18.5q22 14 21 47v9h15z"
         horiz-adv-x="86"
         unicode="Y"
         glyph-name="Y" />
      <glyph
         id="glyph104"
         d="M7 0v7q0 17 7 28.5t19 24.5q7 7 11 11.5t9.5 12.5t7.5 15h-54v15h70q0 -18 -3 -27q-6 -20 -29 -39q-9 -8 -15 -15.5t-7 -18.5h54v-14h-70z"
         horiz-adv-x="83"
         unicode="Z"
         glyph-name="Z" />
      <glyph
         id="glyph106"
         d="M35 92l-9 -7l-21 20l10 12z"
         horiz-adv-x="39"
         unicode="`"
         glyph-name="grave" />
      <glyph
         id="glyph108"
         d="M54 45v-13q-6 4 -16 4q-7 0 -11.5 -3.5t-4.5 -8.5q0 -11 16 -10h21v30q0 20 -19 20h-26v14h27q15 0 23.5 -8t8.5 -23v-47h-36q-14 0 -22 6t-8 18t8.5 17.5t21.5 5.5q9 0 17 -2z"
         horiz-adv-x="79"
         unicode="a"
         glyph-name="a" />
      <glyph
         id="glyph110"
         d="M9 114h15v-75q0 -13 6.5 -20t17.5 -7q12 0 19.5 7t7.5 20q0 12 -7.5 19t-20.5 7q-9 0 -16 -5v15q8 4 17 4q18 0 29.5 -10.5t11.5 -29.5q0 -20 -12 -30t-30 -10t-28 11t-10 29v75z"
         horiz-adv-x="94"
         unicode="b"
         glyph-name="b" />
      <glyph
         id="glyph112"
         d="M63 18l10 -11q-11 -8 -27 -8q-19 0 -29 11.5t-10 28.5q0 18 12 29t27 11q14 0 27 -9l-10 -9q-6 5 -17 4q-11 0 -17 -6.5t-6 -19t6.5 -20t16.5 -7.5q11 1 17 6z"
         horiz-adv-x="75"
         unicode="c"
         glyph-name="c" />
      <glyph
         id="glyph114"
         d="M70 114h15v-114h-39q-18 0 -28.5 11.5t-10.5 28.5t12 28t26 11q9 0 19 -4v-15q-7 5 -19 5q-9 0 -15.5 -6.5t-6.5 -18.5t6.5 -19t16.5 -7h24v100z"
         horiz-adv-x="93"
         unicode="d"
         glyph-name="d" />
      <glyph
         id="glyph116"
         d="M47 79q27 -1 28 -22q0 -27 -35 -28h-6v13h7q11 0 15 3t4 12q0 5 -3 7t-11 2q-12 0 -17.5 -8t-5.5 -19q0 -12 7 -19.5t17 -7.5q9 0 17 6l10 -11q-11 -8 -27 -8q-19 0 -29.5 10.5t-10.5 27.5q0 20 10.5 31.5t29.5 10.5z"
         unicode="e"
         glyph-name="e" />
      <glyph
         id="glyph118"
         d="M47 64h-18v-64h-14v64h-12l6 14h6q0 17 11 26.5t29 9.5v-14q-25 0 -26 -22h18v-14z"
         horiz-adv-x="50"
         unicode="f"
         glyph-name="f" />
      <glyph
         id="glyph120"
         d="M45 0q-17 0 -27.5 11t-10.5 27q0 17 12 28.5t27 11.5h39v-76q0 -7 -1.5 -13t-5 -10t-7 -6t-6.5 -5q-9 -5 -25 -5h-17v14h16q14 0 21 3q11 6 10 21v63h-24q-12 0 -18 -7t-6 -19q0 -11 7 -17.5t16 -6.5q11 0 19 6v-16q-10 -4 -19 -4z"
         horiz-adv-x="93"
         unicode="g"
         glyph-name="g" />
      <glyph
         id="glyph122"
         d="M24 114v-36h14q19 0 25 -5q6 -4 8.5 -11t2.5 -19v-43h-14v43v6t-1 5.5t-2.5 4.5t-5.5 3.5t-9 1.5h-18v-64h-15v114h15z"
         horiz-adv-x="83"
         unicode="h"
         glyph-name="h" />
      <glyph
         id="glyph124"
         d="M31 0h-14v64h-14l6 14h22v-78zM17 94q-2 3 -2.5 6t2 5.5t6.5 2.5t6 -2.5t2 -5.5t-2 -5.5t-6 -2.5t-6 2z"
         horiz-adv-x="42"
         unicode="i"
         glyph-name="i" />
      <glyph
         id="glyph126"
         d="M26 78v-84q0 -17 -7 -24t-25 -7v14h6.5t5.5 1.5t4.5 5.5t1.5 10v70h-13l6 14h21zM12 94q-2 3 -2.5 6t2 5.5t7 2.5t6.5 -2.5t2 -5.5t-2 -5.5t-6.5 -2.5t-6.5 2z"
         horiz-adv-x="37"
         unicode="j"
         glyph-name="j" />
      <glyph
         id="glyph128"
         d="M55 78h15l-20 -35q20 -5 20 -31v-12h-13v12q0 11 -7 17t-18 6q-3 0 -8 -1v-34h-15v114h15v-68q6 1 14 0z"
         horiz-adv-x="76"
         unicode="k"
         glyph-name="k" />
      <glyph
         id="glyph130"
         d="M9 31v83h15v-83q0 -5 1.5 -9t4.5 -6t5.5 -2h6.5v-14q-19 0 -26 7t-7 24z"
         horiz-adv-x="43"
         unicode="l"
         glyph-name="l" />
      <glyph
         id="glyph132"
         d="M11 78h71q12 0 18 -5q6 -4 9 -10.5t3 -17.5v-45h-14v45q0 13 -8 17q-4 2 -16 2h-7v-64h-13v64h-29v-64h-14v78z"
         horiz-adv-x="119"
         unicode="m"
         glyph-name="m" />
      <glyph
         id="glyph134"
         d="M11 78h27q19 0 26 -5q6 -4 8.5 -11t2.5 -19v-43h-14v43v6t-1 5.5t-2.5 4.5t-6 3.5t-8.5 1.5h-18v-64h-14v78z"
         horiz-adv-x="83"
         unicode="n"
         glyph-name="n" />
      <glyph
         id="glyph136"
         d="M19 67q11 12 27 12q8 0 15.5 -3t13 -8.5t9 -13t3.5 -15.5t-3.5 -16t-9 -13.5t-12 -8t-16.5 -2.5q-8 0 -15 2.5t-12.5 8t-8.5 13.5t-3 16q1 16 12 28zM46 65q-11 0 -17.5 -6.5t-6.5 -19t7 -20t17 -7.5q12 0 19 7.5t7 20t-7 19t-19 6.5z"
         horiz-adv-x="92"
         unicode="o"
         glyph-name="o" />
      <glyph
         id="glyph138"
         d="M9 -37v76q0 8 4 15.5t8.5 13t12 8.5t14.5 3q8 0 16 -3t13.5 -8.5t8.5 -13t3 -15.5t-3 -16t-8 -13.5t-12.5 -8t-17.5 -2.5q-11 0 -17 4v15q7 -5 17 -6q5 0 10.5 2.5t8.5 5.5t5.5 8t2.5 11q0 5 -2.5 10.5t-5.5 9t-7 5t-12 1.5q-5 0 -9 -1.5t-7.5 -5t-5.5 -9t-2 -10.5v-76 h-15z"
         horiz-adv-x="94"
         unicode="p"
         glyph-name="p" />
      <glyph
         id="glyph140"
         d="M87 39v-76h-15v76q0 27 -26 26q-5 0 -9.5 -1.5t-8 -5t-5 -9t-1.5 -10.5t1.5 -10.5t5 -8.5t8 -5.5t9.5 -2.5q11 0 19 6v-15q-8 -4 -19 -4q-8 0 -15 2.5t-12.5 8t-8.5 13.5t-3 16t3 15.5t8.5 13t13 8.5t14.5 3q8 0 16 -2.5t13 -7.5t8.5 -13t3.5 -17z"
         horiz-adv-x="92"
         unicode="q"
         glyph-name="q" />
      <glyph
         id="glyph142"
         d="M7 0v44q0 19 7 25q3 3 8 5.5t9 3t10 0.5h15v-14h-18h-4.5t-4.5 -1t-4 -3q-3 -4 -3 -16v-44h-15z"
         horiz-adv-x="54"
         unicode="r"
         glyph-name="r" />
      <glyph
         id="glyph144"
         d="M64 78v-14h-29q-4 0 -7.5 -1.5t-3.5 -4.5q0 -2 0.5 -3.5t1.5 -3t3.5 -3t3.5 -1.5t10.5 -3t13.5 -4.5t6 -4.5t3 -6.5t1 -6.5q0 -22 -30 -22h-29v14h29q15 0 16 8q0 4 -5 6.5t-11 4.5t-12.5 4t-11.5 7.5t-5 13.5q0 9 8 14.5t19 5.5h29z"
         horiz-adv-x="72"
         unicode="s"
         glyph-name="s" />
      <glyph
         id="glyph146"
         d="M1 64l30 30v-16h22v-14h-22v-33q0 -5 2 -9t5 -6t6 -2h9v-14q-19 0 -27.5 7t-8.5 24v33h-16z"
         horiz-adv-x="56"
         unicode="t"
         glyph-name="t" />
      <glyph
         id="glyph148"
         d="M74 0h-29q-19 0 -24 5q-6 4 -9 11t-3 18v44h15v-44v-5t1 -5t2.5 -5t5.5 -3.5t8 -1.5h19v64h14v-78z"
         horiz-adv-x="83"
         unicode="u"
         glyph-name="u" />
      <glyph
         id="glyph150"
         d="M38 -2q-14 13 -20.5 29t-13.5 51h15q6 -39 19 -59q12 20 19 59h13q-6 -35 -12 -51t-20 -29z"
         horiz-adv-x="74"
         unicode="v"
         glyph-name="v" />
      <glyph
         id="glyph152"
         d="M78 -1q-12 8 -16 17.5t-6 27.5h-1q-2 -19 -6.5 -28t-15.5 -17q-11 5 -18.5 19.5t-8.5 36.5l-1 23h15l2 -23q1 -26 10 -38l4 6t3.5 7t2.5 7t2 8t1 7.5t0.5 7t1.5 5.5h16q0 -1 0.5 -5.5t1 -7t1 -7.5t1.5 -8t3 -7t4 -7.5t4 -5.5q8 12 11 38l1 23h14l-1 -23 q-1 -22 -7.5 -36.5t-17.5 -19.5z"
         horiz-adv-x="109"
         unicode="w"
         glyph-name="w" />
      <glyph
         id="glyph154"
         d="M55 78h13v-3q0 -22 -16 -35q8 -6 12 -14.5t4 -20.5v-5h-13v5q0 8 -5 16t-13 13q-8 -4 -12.5 -12t-4.5 -18v-4h-15v4q0 23 18 36q-18 13 -18 36v2h15v-2q0 -8 4.5 -15.5t12.5 -13.5q18 7 18 28v3z"
         horiz-adv-x="74"
         unicode="x"
         glyph-name="x" />
      <glyph
         id="glyph156"
         d="M7 78h15v-41q0 -13 3.5 -18t14.5 -5h18v64h14v-74q0 -21 -11 -31t-33 -10h-11v14h9q29 0 32 23h-15q-22 0 -29 7.5t-7 30.5v40z"
         horiz-adv-x="79"
         unicode="y"
         glyph-name="y" />
      <glyph
         id="glyph158"
         d="M5 0v6q0 7 4 14.5t9 13t10.5 10t10 10t6.5 9.5h-40v15h57v-9q0 -7 -3 -13t-9 -11.5t-11 -9.5t-10.5 -9.5t-7.5 -11.5h42v-14h-58z"
         horiz-adv-x="68"
         unicode="z"
         glyph-name="z" />
      <glyph
         id="glyph160"
         d="M8 95q-2 2 -2.5 6t2.5 6t7 2t6.5 -2t2.5 -6t-2.5 -6t-7 -2t-6.5 2zM37 95q-2 2 -2 6t2.5 6t6 2t7 -2t3.5 -6t-3.5 -6t-7.5 -2t-6 2z"
         horiz-adv-x="56"
         unicode="¨"
         glyph-name="dieresis" />
      <glyph
         id="glyph162"
         d="M24 39l20 -25h-15l-21 25l21 25h15zM56 39l19 -25h-15l-20 25l20 25h15z"
         horiz-adv-x="76"
         unicode="«"
         glyph-name="guillemotleft" />
      <glyph
         id="glyph164"
         d="M14 85l-9 7l20 25l10 -12z"
         horiz-adv-x="39"
         unicode="´"
         glyph-name="acute" />
      <glyph
         id="glyph166"
         d="M23 39l-21 25h17l19 -25l-19 -25h-17zM54 39l-20 25h14l20 -25l-20 -25h-14z"
         horiz-adv-x="76"
         unicode="»"
         glyph-name="guillemotright" />
      <glyph
         id="glyph168"
         d="M24 0h-15v72q0 18 12 30t29 12h37v-114h-15v99h-22q-12 0 -19 -7t-7 -23v-12q8 9 26 8h15v-13h-15q-9 0 -15 -3t-11 -8v-41zM35.8604 131.114q-2 2 -2.5 6t2.5 6t7 2t6.5 -2t2.5 -6t-2.5 -6t-7 -2t-6.5 2zM64.8604 131.114q-2 2 -2 6t2.5 6t6 2t7 -2t3.5 -6t-3.5 -6 t-7.5 -2t-6 2z"
         horiz-adv-x="96"
         unicode="Ä"
         glyph-name="Adieresis" />
      <glyph
         id="glyph170"
         d="M100 57q0 8 -2.5 16.5t-7.5 14.5t-11.5 9.5t-15.5 3.5q-8 0 -15 -3.5t-11.5 -9.5t-7.5 -14.5t-3 -16.5t3 -16.5t7.5 -14.5t11.5 -9.5t15 -3.5t15 3.5t12 9.5t7.5 14.5t2.5 16.5zM9 57q0 13 4.5 24t11.5 18t17 12t21 5q12 0 22 -5t16.5 -12t11 -18.5t4.5 -23.5 q0 -13 -4.5 -24t-11 -19t-16.5 -11.5t-22 -3.5t-21.5 3.5t-16.5 11.5t-11.5 19t-4.5 24zM42.0508 131.114q-2 2 -2.5 6t2.5 6t7 2t6.5 -2t2.5 -6t-2.5 -6t-7 -2t-6.5 2zM71.0508 131.114q-2 2 -2 6t2.5 6t6 2t7 -2t3.5 -6t-3.5 -6t-7.5 -2t-6 2z"
         horiz-adv-x="124"
         unicode="Ö"
         glyph-name="Odieresis" />
      <glyph
         id="glyph172"
         d="M75 114h15v-78q0 -20 -10 -28.5t-29.5 -8.5t-29.5 9t-10 28v78h15v-80q0 -11 6.5 -16t17.5 -5t18 5t7 16v80zM30.7002 131.114q-2 2 -2.5 6t2.5 6t7 2t6.5 -2t2.5 -6t-2.5 -6t-7 -2t-6.5 2zM59.7002 131.114q-2 2 -2 6t2.5 6t6 2t7 -2t3.5 -6t-3.5 -6t-7.5 -2t-6 2z"
         horiz-adv-x="99"
         unicode="Ü"
         glyph-name="Udieresis" />
      <glyph
         id="glyph174"
         d="M0 64l6 14h5q0 17 10 26.5t24 9.5q12 0 18.5 -7.5t6.5 -17.5q0 -6 -3 -11.5t-15 -15.5q-3 -2 -4 -5q0 -2 2.5 -3.5t9 -5t10 -6t5.5 -6.5t2 -11q0 -5 -1 -9t-3.5 -8t-8 -6t-14.5 -2h-14v14h14q12 0 13 11q0 4 -3 7t-8 5t-8.5 3.5t-6.5 6.5t-3 10q0 7 7 15q1 1 7 4.5 t7.5 6.5t1.5 6q0 4 -3.5 7.5t-8.5 3.5q-20 0 -20 -27v-73h-14v64h-11z"
         horiz-adv-x="82"
         unicode="ß"
         glyph-name="germandbls" />
      <glyph
         id="glyph176"
         d="M54 45v-13q-6 4 -16 4q-7 0 -11.5 -3.5t-4.5 -8.5q0 -11 16 -10h21v30q0 20 -19 20h-26v14h27q15 0 23.5 -8t8.5 -23v-47h-36q-14 0 -22 6t-8 18t8.5 17.5t21.5 5.5q9 0 17 -2zM53.5732 92l-9 -7l-21 20l10 12z"
         horiz-adv-x="79"
         unicode="à"
         glyph-name="agrave" />
      <glyph
         id="glyph178"
         d="M54 45v-13q-6 4 -16 4q-7 0 -11.5 -3.5t-4.5 -8.5q0 -11 16 -10h21v30q0 20 -19 20h-26v14h27q15 0 23.5 -8t8.5 -23v-47h-36q-14 0 -22 6t-8 18t8.5 17.5t21.5 5.5q9 0 17 -2zM40.8281 85l-9 7l20 25l10 -12z"
         horiz-adv-x="79"
         unicode="á"
         glyph-name="aacute" />
      <glyph
         id="glyph180"
         d="M54 45v-13q-6 4 -16 4q-7 0 -11.5 -3.5t-4.5 -8.5q0 -11 16 -10h21v30q0 20 -19 20h-26v14h27q15 0 23.5 -8t8.5 -23v-47h-36q-14 0 -22 6t-8 18t8.5 17.5t21.5 5.5q9 0 17 -2zM40 105l-12 -15h-14l18 24h16l18 -24h-14z"
         horiz-adv-x="79"
         unicode="â"
         glyph-name="acircumflex" />
      <glyph
         id="glyph182"
         d="M54 45v-13q-6 4 -16 4q-7 0 -11.5 -3.5t-4.5 -8.5q0 -11 16 -10h21v30q0 20 -19 20h-26v14h27q15 0 23.5 -8t8.5 -23v-47h-36q-14 0 -22 6t-8 18t8.5 17.5t21.5 5.5q9 0 17 -2zM17.2871 95q-2 2 -2.5 6t2.5 6t7 2t6.5 -2t2.5 -6t-2.5 -6t-7 -2t-6.5 2zM46.2871 95 q-2 2 -2 6t2.5 6t6 2t7 -2t3.5 -6t-3.5 -6t-7.5 -2t-6 2z"
         horiz-adv-x="79"
         unicode="ä"
         glyph-name="adieresis" />
      <glyph
         id="glyph184"
         d="M37 -17l-2 4l4 12q-14 2 -23 13.5t-9 26.5q0 18 12 29t27 11q14 0 27 -9l-10 -9q-6 5 -17 4q-11 0 -17 -6.5t-6 -19t6.5 -20t16.5 -7.5q9 0 17 6l10 -11q-11 -8 -25 -8l-3 -7h7q7 0 10 -4.5t3 -9.5q0 -6 -5 -10.5t-16 -4.5q-7 0 -16 4l4 7q6 -2 10 -3q9 0 11 7q0 3 -3 5 t-7 2z"
         horiz-adv-x="75"
         unicode="ç"
         glyph-name="ccedilla" />
      <glyph
         id="glyph186"
         d="M47 79q27 -1 28 -22q0 -27 -35 -28h-6v13h7q11 0 15 3t4 12q0 5 -3 7t-11 2q-12 0 -17.5 -8t-5.5 -19q0 -12 7 -19.5t17 -7.5q9 0 17 6l10 -11q-11 -8 -27 -8q-19 0 -29.5 10.5t-10.5 27.5q0 20 10.5 31.5t29.5 10.5zM53.5732 92l-9 -7l-21 20l10 12z"
         unicode="è"
         glyph-name="egrave" />
      <glyph
         id="glyph188"
         d="M47 79q27 -1 28 -22q0 -27 -35 -28h-6v13h7q11 0 15 3t4 12q0 5 -3 7t-11 2q-12 0 -17.5 -8t-5.5 -19q0 -12 7 -19.5t17 -7.5q9 0 17 6l10 -11q-11 -8 -27 -8q-19 0 -29.5 10.5t-10.5 27.5q0 20 10.5 31.5t29.5 10.5zM44.9551 85l-9 7l20 25l10 -12z"
         unicode="é"
         glyph-name="eacute" />
      <glyph
         id="glyph190"
         d="M47 79q27 -1 28 -22q0 -27 -35 -28h-6v13h7q11 0 15 3t4 12q0 5 -3 7t-11 2q-12 0 -17.5 -8t-5.5 -19q0 -12 7 -19.5t17 -7.5q9 0 17 6l10 -11q-11 -8 -27 -8q-19 0 -29.5 10.5t-10.5 27.5q0 20 10.5 31.5t29.5 10.5zM46 105l-12 -15h-14l18 24h16l18 -24h-14z"
         unicode="ê"
         glyph-name="ecircumflex" />
      <glyph
         id="glyph192"
         d="M47 79q27 -1 28 -22q0 -27 -35 -28h-6v13h7q11 0 15 3t4 12q0 5 -3 7t-11 2q-12 0 -17.5 -8t-5.5 -19q0 -12 7 -19.5t17 -7.5q9 0 17 6l10 -11q-11 -8 -27 -8q-19 0 -29.5 10.5t-10.5 27.5q0 20 10.5 31.5t29.5 10.5zM21.4141 95q-2 2 -2.5 6t2.5 6t7 2t6.5 -2t2.5 -6 t-2.5 -6t-7 -2t-6.5 2zM50.4141 95q-2 2 -2 6t2.5 6t6 2t7 -2t3.5 -6t-3.5 -6t-7.5 -2t-6 2z"
         unicode="ë"
         glyph-name="edieresis" />
      <glyph
         id="glyph194"
         d="M31 0h-14v64h-14l6 14h22v-78zM22 105l-12 -15h-14l18 24h16l18 -24h-14z"
         horiz-adv-x="42"
         unicode="î"
         glyph-name="icircumflex" />
      <glyph
         id="glyph196"
         d="M31 0h-14v64h-14l6 14h22v-78zM0.777344 95q-2 2 -2.5 6t2.5 6t7 2t6.5 -2t2.5 -6t-2.5 -6t-7 -2t-6.5 2zM29.7773 95q-2 2 -2 6t2.5 6t6 2t7 -2t3.5 -6t-3.5 -6t-7.5 -2t-6 2z"
         horiz-adv-x="42"
         unicode="ï"
         glyph-name="idieresis" />
      <glyph
         id="glyph198"
         d="M19 67q11 12 27 12q8 0 15.5 -3t13 -8.5t9 -13t3.5 -15.5t-3.5 -16t-9 -13.5t-12 -8t-16.5 -2.5q-8 0 -15 2.5t-12.5 8t-8.5 13.5t-3 16q1 16 12 28zM46 65q-11 0 -17.5 -6.5t-6.5 -19t7 -20t17 -7.5q12 0 19 7.5t7 20t-7 19t-19 6.5zM48 105l-12 -15h-14l18 24h16 l18 -24h-14z"
         horiz-adv-x="92"
         unicode="ô"
         glyph-name="ocircumflex" />
      <glyph
         id="glyph200"
         d="M19 67q11 12 27 12q8 0 15.5 -3t13 -8.5t9 -13t3.5 -15.5t-3.5 -16t-9 -13.5t-12 -8t-16.5 -2.5q-8 0 -15 2.5t-12.5 8t-8.5 13.5t-3 16q1 16 12 28zM46 65q-11 0 -17.5 -6.5t-6.5 -19t7 -20t17 -7.5q12 0 19 7.5t7 20t-7 19t-19 6.5zM25.541 95q-2 2 -2.5 6t2.5 6t7 2 t6.5 -2t2.5 -6t-2.5 -6t-7 -2t-6.5 2zM54.541 95q-2 2 -2 6t2.5 6t6 2t7 -2t3.5 -6t-3.5 -6t-7.5 -2t-6 2z"
         horiz-adv-x="92"
         unicode="ö"
         glyph-name="odieresis" />
      <glyph
         id="glyph202"
         d="M74 0h-29q-19 0 -24 5q-6 4 -9 11t-3 18v44h15v-44v-5t1 -5t2.5 -5t5.5 -3.5t8 -1.5h19v64h14v-78zM49.4463 92l-9 -7l-21 20l10 12z"
         horiz-adv-x="83"
         unicode="ù"
         glyph-name="ugrave" />
      <glyph
         id="glyph204"
         d="M74 0h-29q-19 0 -24 5q-6 4 -9 11t-3 18v44h15v-44v-5t1 -5t2.5 -5t5.5 -3.5t8 -1.5h19v64h14v-78zM42 105l-12 -15h-14l18 24h16l18 -24h-14z"
         horiz-adv-x="83"
         unicode="û"
         glyph-name="ucircumflex" />
      <glyph
         id="glyph206"
         d="M74 0h-29q-19 0 -24 5q-6 4 -9 11t-3 18v44h15v-44v-5t1 -5t2.5 -5t5.5 -3.5t8 -1.5h19v64h14v-78zM21.4141 95q-2 2 -2.5 6t2.5 6t7 2t6.5 -2t2.5 -6t-2.5 -6t-7 -2t-6.5 2zM50.4141 95q-2 2 -2 6t2.5 6t6 2t7 -2t3.5 -6t-3.5 -6t-7.5 -2t-6 2z"
         horiz-adv-x="83"
         unicode="ü"
         glyph-name="udieresis" />
      <glyph
         id="glyph208"
         d="M31 0h-14v64h-14l6 14h22v-78z"
         horiz-adv-x="42"
         unicode="ı"
         glyph-name="dotlessi" />
      <glyph
         id="glyph210"
         d="M31 105l-12 -15h-14l18 24h16l18 -24h-14z"
         horiz-adv-x="60"
         unicode="ˆ"
         glyph-name="circumflex" />
    </font>
</defs>
</svg>
