<svg xmlns="http://www.w3.org/2000/svg">
<defs>
<font
       id="GrandHotel-Regular"
       horiz-adv-x="62"
       horiz-origin-x="0"
       horiz-origin-y="0"
       vert-origin-x="512"
       vert-origin-y="768"
       vert-adv-y="1024">
      <font-face
         font-family="Grand Hotel"
         font-weight="400"
         font-stretch="normal"
         units-per-em="173"
         panose-1="2 0 6 6 0 0 0 2 0 3"
         ascent="120"
         descent="-53"
         x-height="66"
         cap-height="121"
         bbox="-15 -71 145 164"
         underline-thickness="8.65"
         underline-position="-17.3"
         unicode-range="U+0020-FB02"
         id="font-face2454" />
      <missing-glyph
         id="missing-glyph2456" />
      <glyph
         glyph-name="B"
         unicode="B"
         horiz-adv-x="100"
         d="M35 28v63c0 3 -1 4 -1 5c0 2 2 3 4 3c6 0 10 -3 10 -7v-65c0 -17 6 -23 16 -23s17 8 17 18c0 16 -12 20 -23 20c-3 0 -6 13 -1 13c8 0 28 5 28 30c0 13 -9 27 -30 27c-28 0 -39 -18 -39 -39c0 -15 7 -20 7 -21c2 1 2 -1 2 -3c0 -3 -4 -15 -9 -11c-3 3 -13 14 -13 34 c0 32 21 53 52 53c26 0 43 -14 43 -39c0 -19 -9 -30 -22 -37c10 -3 18 -12 18 -27c0 -17 -13 -30 -30 -30c-23 0 -29 15 -29 36z"
         id="glyph2458" />
      <glyph
         glyph-name="C"
         unicode="C"
         horiz-adv-x="84"
         d="M39 72c13 0 31 14 31 29c0 4 -2 10 -10 10c-23 0 -40 -35 -40 -63c0 -21 7 -42 27 -42c15 0 24 10 24 10c4 7 12 -5 8 -9c-1 -1 -13 -14 -34 -14c-25 0 -39 22 -39 55c0 34 22 75 56 75c12 0 22 -7 22 -22c0 -21 -27 -41 -46 -41c-4 0 -7 2 -7 8c0 2 1 6 2 6s1 -2 6 -2z "
         id="glyph2460" />
      <glyph
         glyph-name="D"
         unicode="D"
         horiz-adv-x="105"
         d="M48 89v-68c0 -10 2 -14 9 -14c13 0 29 26 29 61c0 23 -10 43 -33 43c-29 0 -36 -22 -36 -40c0 -17 8 -25 9 -26c2 1 2 -1 2 -3c0 -4 -4 -10 -8 -10c-1 0 -2 0 -3 1c-1 0 -14 13 -14 37c0 31 20 54 50 54c32 0 47 -27 47 -55c0 -49 -25 -76 -44 -76c-16 0 -22 11 -22 29 v66c0 3 -1 5 -1 6c0 2 3 3 5 3c6 0 10 -4 10 -8z"
         id="glyph2462" />
      <glyph
         glyph-name="E"
         unicode="E"
         horiz-adv-x="77"
         d="M73 12c-3 -5 -14 -19 -36 -19c-17 0 -30 10 -30 28c0 13 7 22 15 26c-8 5 -15 13 -15 28c0 23 21 49 46 49c16 0 25 -10 25 -23c0 -18 -15 -36 -32 -36c-4 0 -9 3 -9 9c0 2 0 6 1 6s2 -2 7 -2c11 0 19 12 19 23c0 6 -5 10 -11 10c-17 0 -32 -18 -32 -35 c0 -13 10 -22 18 -23h1c2 0 3 -2 3 -4c0 -4 -2 -9 -4 -9c-7 -1 -18 -5 -18 -19c0 -9 7 -15 17 -15c15 0 23 9 25 14c1 2 3 3 4 3c3 0 7 -4 7 -8c0 -1 -1 -2 -1 -3z"
         id="glyph2464" />
      <glyph
         glyph-name="F"
         unicode="F"
         horiz-adv-x="100"
         d="M71 10c0 -15 -3 -22 -9 -22c-4 0 -12 7 -12 10c0 2 1 1 3 1c3 0 5 4 5 13v27h-9c-4 0 -6 5 -6 9c0 2 0 3 2 3h13v56c-24 -2 -41 -10 -41 -37c0 -12 6 -19 10 -23c2 1 2 -1 2 -3c0 -4 -4 -10 -8 -10c-1 0 -2 0 -3 1c-5 4 -15 17 -15 35c0 33 21 51 63 51h39c3 0 4 1 5 1 s3 -3 3 -6c0 -4 -3 -9 -8 -9c-3 0 -23 1 -34 1v-57h22c5 4 2 -12 -2 -12h-20v-29z"
         id="glyph2466" />
      <glyph
         glyph-name="G"
         unicode="G"
         horiz-adv-x="88"
         d="M66 10c-7 -11 -16 -17 -27 -17c-21 0 -33 22 -33 54c0 34 22 77 56 77c12 0 22 -9 22 -22c0 -19 -21 -35 -36 -35c-4 0 -7 2 -7 8c0 2 1 7 2 7s1 -2 6 -2c9 0 22 10 22 21c0 4 -3 10 -11 10c-22 0 -40 -34 -40 -64c0 -25 9 -40 20 -40c18 0 26 24 26 38v5c0 3 3 4 6 4 s9 -3 9 -7c-1 -9 -1 -17 -1 -26v-27c3 1 6 1 9 1c8 1 4 -14 -2 -14h-8c-1 -19 -5 -42 -25 -42c-12 0 -19 8 -19 20c0 18 16 27 32 32v2c0 7 -1 13 -1 17zM54 -48c8 0 11 12 12 26c-11 -4 -18 -9 -18 -18c0 -5 3 -8 6 -8z"
         id="glyph2468" />
      <glyph
         glyph-name="H"
         unicode="H"
         horiz-adv-x="117"
         d="M67 114v-62h27v59c0 12 4 19 9 19s9 -7 9 -9c0 -3 -5 2 -5 -13v-109c0 -3 -1 -4 -4 -4c-4 0 -9 2 -9 5v40h-27v-41c0 -3 -2 -4 -5 -4c-4 0 -9 2 -9 5v40h-12c-4 0 -6 5 -6 9c0 2 1 3 3 3h15v56c-21 0 -36 -15 -36 -38c0 -15 7 -24 9 -24c1 0 1 1 2 1s1 -2 1 -3 c0 -7 -6 -13 -11 -9c-6 4 -15 16 -15 35c0 37 31 51 57 51c4 0 7 -3 7 -7z"
         id="glyph2470" />
      <glyph
         glyph-name="I"
         unicode="I"
         horiz-adv-x="68"
         d="M59 114v-115c0 -3 -2 -4 -5 -4c-4 0 -9 2 -9 5v108c-16 -2 -28 -14 -28 -36c0 -14 7 -22 9 -22c1 0 1 1 2 1s1 -2 1 -3c0 -7 -6 -14 -11 -10c-6 4 -15 17 -15 34c0 37 29 49 49 49c4 0 7 -3 7 -7z"
         id="glyph2472" />
      <glyph
         glyph-name="J"
         unicode="J"
         horiz-adv-x="69"
         d="M45 -7v115c-16 -2 -28 -14 -28 -36c0 -14 7 -22 9 -22c1 0 1 1 2 1s1 -2 1 -3c0 -6 -4 -11 -8 -11c-1 0 -2 0 -3 1c-4 3 -15 14 -15 34c0 37 29 49 49 49c4 0 7 -3 7 -7v-115v-5c3 1 6 1 9 1c8 1 4 -14 -2 -14h-8c-1 -20 -5 -42 -25 -42c-12 0 -19 8 -19 20 c0 17 15 27 31 32v2zM33 -48c8 0 11 12 12 26c-11 -3 -18 -9 -18 -18c0 -5 3 -8 6 -8z"
         id="glyph2474" />
      <glyph
         glyph-name="K"
         unicode="K"
         horiz-adv-x="103"
         d="M59 114v-61c34 7 14 46 31 75c0 1 2 2 4 2c4 0 10 -2 10 -5c0 -1 0 -1 -1 -2c-14 -22 -1 -64 -32 -77c24 -13 21 -44 37 -62c1 -1 3 -2 3 -3c0 -3 -9 -9 -12 -9c-1 0 -1 0 -2 1c-19 24 -11 57 -38 65v-39c0 -3 -2 -4 -5 -4c-4 0 -9 2 -9 5v108c-16 -2 -28 -14 -28 -36 c0 -14 7 -22 9 -22h3s1 -1 1 -2c0 -7 -7 -14 -12 -10c-6 4 -15 17 -15 34c0 37 29 49 49 49c4 0 7 -3 7 -7z"
         id="glyph2476" />
      <glyph
         glyph-name="L"
         unicode="L"
         horiz-adv-x="87"
         d="M65 -6c-10 0 -19 7 -26 14c-3 -7 -9 -13 -18 -13c-11 0 -18 9 -18 18c0 11 10 19 20 19c2 0 4 0 6 -1c-4 15 -14 28 -14 47c0 22 16 45 41 45c15 0 25 -11 25 -24c0 -20 -19 -36 -34 -36c-5 0 -9 3 -9 10c0 1 0 2 1 2s2 -1 4 -1c11 0 25 13 25 23c0 7 -4 13 -13 13 c-16 0 -27 -16 -27 -33c0 -18 14 -34 15 -55c7 -7 13 -15 20 -15c10 0 13 10 13 16c0 2 -1 2 -1 3s2 1 3 1c6 0 9 -3 9 -7c0 -13 -9 -26 -22 -26zM22 20c-3 0 -6 -2 -6 -6c0 -3 2 -7 6 -7c5 0 7 5 8 10c-3 2 -5 3 -8 3z"
         id="glyph2478" />
      <glyph
         glyph-name="M"
         unicode="M"
         horiz-adv-x="94"
         d="M92 3c3 -2 -4 -8 -10 -8s-11 6 -11 20v80c0 13 -7 13 -9 13c-3 0 -8 1 -8 -14v-94l1 -1c0 -2 -6 -4 -10 -4c-2 0 -4 0 -4 3v97c0 13 -5 13 -8 13c-2 0 -9 0 -9 -13v-76c0 -15 -5 -24 -15 -24c-6 0 -8 5 -8 8c0 2 3 1 5 2s5 5 5 16v73c0 20 11 27 21 27c3 0 11 -1 16 -7 c4 6 11 7 14 7c11 0 22 -7 22 -27v-77c0 -7 4 -12 8 -14z"
         id="glyph2480" />
      <glyph
         glyph-name="N"
         unicode="N"
         horiz-adv-x="106"
         d="M59 114v-14c7 12 16 21 26 21c5 0 12 -4 12 -15v-101c0 -13 8 -11 8 -15c0 -3 -4 -6 -9 -6s-13 3 -13 18v103c0 2 0 2 -1 2c-5 0 -23 -26 -23 -41v-67c0 -3 -2 -4 -5 -4c-4 0 -9 2 -9 5v108c-16 -2 -28 -14 -28 -36c0 -14 7 -22 9 -22h3s1 -1 1 -2c0 -6 -5 -11 -9 -11 c-6 0 -18 15 -18 35c0 37 29 49 49 49c4 0 7 -3 7 -7z"
         id="glyph2482" />
      <glyph
         glyph-name="O"
         unicode="O"
         horiz-adv-x="88"
         d="M68 59c0 3 -1 6 -1 10h-3c-14 0 -26 9 -26 22c0 9 7 17 16 17c13 0 19 -11 23 -23c2 1 3 3 5 5c1 2 1 2 2 2c2 0 6 -4 6 -9c0 -4 -4 -9 -10 -11c1 -5 1 -9 1 -13c0 -44 -19 -64 -39 -64c-25 0 -39 26 -39 57c0 59 36 71 37 72c1 0 1 1 2 1c4 0 6 -5 6 -9 c0 -2 -1 -4 -3 -4v0c-6 -3 -28 -15 -28 -59c0 -31 13 -45 25 -45c14 0 26 19 26 51zM63 81h2c-2 8 -5 14 -10 14c-3 0 -4 -2 -4 -4c0 -4 3 -10 12 -10z"
         id="glyph2484" />
      <glyph
         glyph-name="P"
         unicode="P"
         horiz-adv-x="98"
         d="M35 0v91c0 3 -1 4 -1 5c0 2 2 3 4 3c6 0 10 -3 10 -7v-57c12 1 36 15 36 44c0 13 -9 29 -29 29c-28 0 -39 -18 -39 -39c0 -15 7 -20 7 -21c2 1 2 -1 2 -3c0 -3 -4 -15 -9 -11c-3 3 -13 14 -13 34c0 32 21 53 52 53c25 0 42 -17 42 -42c0 -30 -24 -52 -49 -57v-23 c0 -3 -2 -4 -5 -4c-4 0 -8 2 -8 5z"
         id="glyph2486" />
      <glyph
         glyph-name="Q"
         unicode="Q"
         horiz-adv-x="90"
         d="M79 -20c4 0 5 3 6 3c4 0 0 -17 -11 -17c-28 0 -68 32 -68 91c0 45 22 64 40 64s37 -17 37 -61c0 -47 -23 -63 -31 -63c-3 0 -8 6 -8 9c0 1 0 2 1 2h1c16 4 24 27 24 52c0 34 -13 48 -25 48s-26 -15 -26 -50c0 -58 38 -78 60 -78z"
         id="glyph2488" />
      <glyph
         glyph-name="R"
         unicode="R"
         horiz-adv-x="98"
         d="M35 0v91c0 3 -1 4 -1 5c0 2 2 3 4 3c6 0 10 -3 10 -7v-57c13 2 36 15 36 44c0 13 -9 29 -29 29c-27 0 -39 -19 -39 -39c0 -15 7 -20 7 -21c2 1 2 -1 2 -3c0 -3 -4 -15 -9 -11c-3 3 -13 14 -13 34c0 32 21 53 52 53c25 0 42 -17 42 -42c0 -24 -15 -42 -33 -50 c17 -10 15 -33 27 -46c1 -1 3 -2 3 -3c0 -3 -9 -9 -12 -9c-1 0 -1 0 -2 1c-17 19 -8 45 -32 51v-24c0 -3 -2 -4 -5 -4c-4 0 -8 2 -8 5z"
         id="glyph2490" />
      <glyph
         glyph-name="S"
         unicode="S"
         horiz-adv-x="71"
         d="M35 -6c-15 0 -19 7 -19 8c0 4 4 10 7 10c1 0 1 0 2 -1s3 -4 10 -4s12 5 12 12c0 21 -42 22 -42 57c0 23 24 47 48 47c13 0 22 -10 22 -23c0 -19 -22 -37 -33 -37c-6 0 -9 6 -9 10c0 3 1 1 4 1c9 0 25 15 25 26c0 6 -3 10 -10 10c-13 0 -34 -15 -34 -34 c0 -27 43 -28 43 -57c0 -14 -11 -25 -26 -25z"
         id="glyph2492" />
      <glyph
         glyph-name="T"
         unicode="T"
         horiz-adv-x="88"
         d="M71 10c0 -15 -3 -22 -9 -22c-4 0 -12 7 -12 10c0 2 1 1 3 1c3 0 5 4 5 13v95c-21 -2 -41 -10 -41 -37c0 -12 6 -19 10 -23c2 1 2 -1 2 -3c0 -4 -4 -10 -8 -10c-1 0 -2 0 -3 1c-5 4 -15 17 -15 35c0 33 26 51 62 51h29s3 1 4 1s3 -3 3 -6c0 -4 -3 -9 -7 -9 c-2 0 -15 1 -23 1v-98z"
         id="glyph2494" />
      <glyph
         glyph-name="U"
         unicode="U"
         horiz-adv-x="106"
         d="M83 16v1c-7 -12 -16 -22 -26 -22c-5 0 -12 4 -12 15v98c-16 -2 -28 -14 -28 -36c0 -14 7 -22 9 -22h3s1 -1 1 -2c0 -7 -7 -14 -12 -10c-6 4 -15 17 -15 34c0 37 29 49 49 49c4 0 7 -3 7 -7v-103c0 -2 0 -2 1 -2c5 0 23 23 23 38v66v5c0 2 2 3 4 3c6 0 10 -4 10 -8v-75 c0 -23 0 -31 1 -37c0 -1 1 -2 1 -2c0 -2 -5 -4 -9 -4c-6 0 -6 7 -7 21z"
         id="glyph2496" />
      <glyph
         glyph-name="V"
         unicode="V"
         horiz-adv-x="101"
         d="M83 92c0 17 -2 23 -2 26c0 2 3 3 5 3c6 0 8 -2 9 -7c1 -4 2 -9 2 -20c0 -60 -21 -99 -40 -99c-5 0 -12 4 -12 15v98c-16 -2 -28 -14 -28 -36c0 -14 7 -22 9 -22h3s1 -1 1 -2c0 -7 -7 -14 -12 -10c-6 4 -15 17 -15 34c0 37 29 49 49 49c4 0 7 -3 7 -7v-103c0 -2 0 -2 1 -2 c5 0 23 27 23 83z"
         id="glyph2498" />
      <glyph
         glyph-name="W"
         unicode="W"
         horiz-adv-x="94"
         d="M84 101v-78c0 -20 -11 -28 -21 -28c-3 0 -12 0 -17 7c-5 -7 -12 -7 -15 -7c-11 0 -20 8 -20 28v78c0 9 -2 13 -6 14h-1c0 2 6 6 11 6c4 0 9 -4 9 -18v-82c0 -13 6 -13 8 -13c3 0 9 0 9 15v84c0 3 -1 5 -1 6c0 2 2 3 4 3c6 0 10 -4 10 -8v-87c0 -13 5 -13 8 -13 c2 0 9 0 9 13v82c0 14 5 18 9 18c5 0 11 -4 11 -6h-1c-4 -1 -6 -5 -6 -14z"
         id="glyph2500" />
      <glyph
         glyph-name="X"
         unicode="X"
         horiz-adv-x="67"
         d="M65 4c1 -1 1 0 1 -1c0 -2 -7 -8 -10 -8c-2 0 -3 1 -4 2c-7 11 -13 21 -18 32c-5 -10 -11 -20 -17 -30c-1 -2 -2 -4 -6 -4c-6 0 -11 6 -11 8c0 1 1 1 2 1c4 0 14 17 25 41c-16 37 -23 68 -23 70c0 4 7 6 11 6c2 0 3 0 3 -1s-1 -1 -1 -3c0 -1 5 -25 17 -55 c7 17 14 37 18 57v1c0 1 3 1 4 1c4 0 9 -2 9 -5c0 -1 -6 -32 -23 -71c6 -14 14 -28 23 -41z"
         id="glyph2502" />
      <glyph
         glyph-name="Y"
         unicode="Y"
         horiz-adv-x="107"
         d="M97 113v-114v-5c3 1 6 1 9 1c8 1 4 -14 -2 -14h-7c-1 -20 -6 -42 -26 -42c-12 0 -19 8 -19 20c0 17 15 27 31 32v2v24c-7 -12 -16 -22 -26 -22c-5 0 -12 4 -12 15v98c-16 -2 -28 -14 -28 -36c0 -14 7 -22 9 -22h3s1 -1 1 -2c0 -7 -7 -14 -12 -10c-6 4 -15 17 -15 34 c0 37 29 49 49 49c4 0 7 -3 7 -7v-103c0 -2 0 -2 1 -2c5 0 23 23 23 38v66v5c0 2 2 3 4 3c6 0 10 -4 10 -8zM71 -48c8 0 11 12 12 26c-11 -3 -18 -9 -18 -18c0 -5 3 -8 6 -8z"
         id="glyph2504" />
      <glyph
         glyph-name="Z"
         unicode="Z"
         horiz-adv-x="84"
         d="M27 -43c0 17 15 26 30 31c-3 10 -11 16 -20 16c-4 0 -6 5 -6 9c0 2 1 4 3 4h2s29 10 29 57c0 30 -17 34 -23 34c-12 0 -23 -12 -23 -33c0 -22 12 -31 17 -31c1 0 2 1 3 1s0 0 0 -2c0 -6 -3 -11 -8 -11c-8 0 -26 14 -26 42c0 32 21 47 38 47c21 0 36 -19 36 -48 c0 -34 -15 -51 -26 -60c7 -3 14 -10 17 -22c4 1 8 2 11 2c8 1 4 -14 -2 -14c-3 0 -5 -1 -7 -1v-4c0 -17 -5 -37 -25 -37c-12 0 -20 8 -20 20zM59 -25v1c-12 -3 -18 -10 -18 -19c0 -5 3 -7 6 -7c8 0 12 14 12 25z"
         id="glyph2506" />
      <glyph
         glyph-name="a"
         unicode="a"
         horiz-adv-x="61"
         d="M55 7c7 0 10 10 12 18c1 4 2 5 4 5c3 0 6 -4 6 -7v-1c-3 -11 -10 -27 -25 -27c-6 0 -10 3 -13 7c-3 -4 -8 -7 -15 -7c-13 0 -21 11 -21 26c0 29 20 47 41 47c5 0 8 -3 8 -7c0 -3 0 -4 -2 -4h-5c-13 0 -29 -11 -29 -36c0 -9 4 -14 10 -14c5 0 8 4 10 9v26c0 3 -1 5 -1 6 c0 2 3 3 5 3c6 0 9 -4 9 -8v-28c0 -4 2 -8 6 -8z"
         id="glyph2508" />
      <glyph
         glyph-name="b"
         unicode="b"
         horiz-adv-x="65"
         d="M25 44c0 14 7 20 15 20c9 0 18 -9 18 -28c0 -7 -1 -14 -3 -20h4c7 0 11 6 12 13c1 4 12 5 10 -5c-2 -9 -9 -18 -21 -18c-3 0 -5 1 -8 2c-4 -7 -12 -13 -22 -13c-16 0 -24 12 -24 29v83c0 5 -2 5 -2 6s4 2 6 2c6 0 9 -4 9 -8v-81c0 -11 4 -19 12 -19c4 0 8 2 10 6 c-10 7 -16 19 -16 31zM36 45c0 -8 3 -17 8 -22c1 4 1 9 1 12c0 12 -3 18 -6 18c-2 0 -3 -3 -3 -8z"
         id="glyph2510" />
      <glyph
         glyph-name="c"
         unicode="c"
         horiz-adv-x="51"
         d="M34 -5c-15 0 -30 12 -30 33c0 20 12 40 28 40c12 0 16 -11 16 -17c0 -7 -11 -10 -10 -4c-1 3 -2 9 -8 9s-12 -12 -12 -28c0 -14 8 -21 18 -21c13 0 19 10 21 21c2 8 12 5 11 -1c-1 -11 -9 -32 -34 -32z"
         id="glyph2512" />
      <glyph
         glyph-name="d"
         unicode="d"
         horiz-adv-x="63"
         d="M25 -5c-13 0 -22 10 -22 28c0 26 16 41 35 44v40c0 5 -2 5 -2 6s4 2 6 2c6 0 9 -4 9 -8v-92c0 -4 2 -8 6 -8c7 0 10 10 12 18c1 4 2 5 4 5c3 0 6 -4 6 -7v-1c-3 -11 -10 -27 -25 -27c-6 0 -10 3 -13 7c-4 -4 -9 -7 -16 -7zM28 7c4 0 8 2 10 6v43c-11 -2 -22 -10 -22 -32 c0 -12 6 -17 12 -17z"
         id="glyph2514" />
      <glyph
         glyph-name="e"
         unicode="e"
         horiz-adv-x="51"
         d="M46 50c0 -13 -9 -28 -26 -33c2 -6 7 -10 16 -10c13 0 19 10 21 21c2 8 12 5 11 -1c-1 -11 -9 -32 -34 -32c-16 0 -30 12 -30 34s13 39 26 39c10 0 16 -8 16 -18zM18 30v-3c9 4 14 13 14 23c0 4 -1 6 -3 6c-8 0 -11 -19 -11 -26z"
         id="glyph2516" />
      <glyph
         glyph-name="f"
         unicode="f"
         horiz-adv-x="46"
         d="M39 49l-20 2v-4c16 -19 26 -39 26 -68s-9 -50 -23 -50c-12 0 -16 13 -16 26v93l-1 1c-3 3 -5 5 -5 8c0 2 1 4 4 4h2v49c0 5 -2 6 -2 7s4 2 6 2c6 0 9 -4 9 -8v-49c8 1 17 1 22 1c4 0 7 -1 7 -5c0 -2 -2 -11 -4 -11c-1 0 0 2 -5 2zM32 -21c0 16 -5 34 -13 50v-74 c0 -6 1 -14 4 -14c5 0 9 16 9 38z"
         id="glyph2518" />
      <glyph
         glyph-name="g"
         unicode="g"
         horiz-adv-x="60"
         d="M16 -51c0 17 11 26 22 36v18c-3 -3 -8 -6 -14 -6c-13 0 -21 11 -21 26c0 29 20 47 41 47c5 0 8 -4 8 -8c0 -3 0 -4 -2 -4s-3 1 -5 1c-13 0 -29 -12 -29 -37c0 -9 4 -14 10 -14c7 0 11 9 12 16v20c0 3 -1 4 -1 5c0 2 3 3 5 3c6 0 9 -3 9 -7v-47c6 7 12 15 15 27 c1 4 2 5 4 5c3 0 6 -4 6 -7v-1c-6 -20 -16 -31 -25 -39v-30c0 -18 -9 -24 -18 -24c-10 0 -17 9 -17 20zM33 -60c6 0 5 10 5 13v19c-6 -6 -9 -13 -9 -23c0 -5 1 -9 4 -9z"
         id="glyph2520" />
      <glyph
         glyph-name="h"
         unicode="h"
         horiz-adv-x="63"
         d="M6 3v104c0 5 -2 5 -2 6s4 2 6 2c6 0 9 -4 9 -8v-56c5 10 12 17 20 17c12 0 14 -10 14 -18v-35c0 -2 0 -8 4 -8c7 0 10 10 12 18c2 11 11 3 10 -3c-3 -11 -10 -27 -25 -27c-9 0 -14 7 -14 16v36c0 5 -1 9 -4 9c-5 0 -16 -14 -17 -28v-25c0 -3 0 -8 -5 -8c-3 0 -8 2 -8 8z "
         id="glyph2522" />
      <glyph
         glyph-name="i"
         unicode="i"
         horiz-adv-x="29"
         d="M15 83c-6 0 -10 5 -10 11s4 10 10 10s11 -4 11 -10s-5 -11 -11 -11zM19 58v-43c0 -2 1 -8 5 -8c7 0 9 10 11 18c2 11 11 3 10 -3c-3 -11 -9 -27 -24 -27c-9 0 -15 7 -15 16v47c0 3 -1 4 -1 5c0 2 3 3 5 3c6 0 9 -4 9 -8z"
         id="glyph2524" />
      <glyph
         glyph-name="j"
         unicode="j"
         horiz-adv-x="29"
         d="M34 25c1 4 3 5 5 5c3 0 6 -4 6 -7c0 0 -1 0 -1 -1c-6 -20 -16 -31 -25 -39v-30c0 -18 -9 -24 -18 -24c-10 0 -16 9 -16 20c0 17 10 26 21 36v73c0 3 -1 4 -1 5c0 2 3 3 5 3c6 0 9 -4 9 -8v-60c6 7 12 15 15 27zM2 94c0 6 5 10 11 10s10 -4 10 -10s-4 -11 -10 -11 s-11 5 -11 11zM1 -60c6 0 5 10 5 13v19c-6 -6 -9 -13 -9 -23c0 -5 1 -9 4 -9z"
         id="glyph2526" />
      <glyph
         glyph-name="k"
         unicode="k"
         horiz-adv-x="60"
         d="M6 3v104c0 5 -2 5 -2 6s4 2 6 2c6 0 9 -4 9 -8v-54c6 8 12 15 20 15c11 0 16 -9 16 -19c0 -13 -10 -23 -17 -28c2 -7 6 -14 13 -14c8 0 13 10 15 18c2 11 11 3 10 -3c-3 -9 -11 -27 -27 -27c-14 0 -23 16 -23 27c0 5 16 11 16 27c0 4 -2 7 -5 7c-4 0 -13 -6 -18 -24v-29 c0 -3 0 -8 -5 -8c-3 0 -8 2 -8 8z"
         id="glyph2528" />
      <glyph
         glyph-name="l"
         unicode="l"
         horiz-adv-x="38"
         d="M19 101v-50c4 7 7 30 7 40c0 11 -1 16 -4 16c-2 0 -3 -3 -3 -6zM44 25c2 10 11 3 10 -3c-3 -9 -12 -27 -28 -27c-13 0 -20 9 -20 23v79c0 13 7 22 16 22c15 0 15 -18 15 -28c0 -25 -16 -60 -18 -62v-10c0 -7 3 -12 9 -12c8 0 14 10 16 18z"
         id="glyph2530" />
      <glyph
         glyph-name="m"
         unicode="m"
         horiz-adv-x="93"
         d="M109 22c-3 -11 -9 -27 -24 -27c-9 0 -15 7 -15 16v36c0 5 0 9 -3 9c-5 0 -15 -14 -16 -28v-25c0 -3 0 -8 -5 -8c-3 0 -8 2 -8 8v44c0 5 0 9 -3 9c-5 0 -15 -14 -16 -28v-25c0 -3 0 -8 -5 -8c-3 0 -8 2 -8 8v55c0 3 -1 4 -1 5c0 2 3 3 5 3c6 0 9 -4 9 -8v-7 c4 9 11 17 19 17c10 0 13 -8 13 -16c4 9 10 16 18 16c11 0 14 -10 14 -18v-35c0 -2 1 -8 5 -8c7 0 9 10 11 18c1 4 2 5 4 5c3 0 7 -4 7 -7c0 0 -1 0 -1 -1z"
         id="glyph2532" />
      <glyph
         glyph-name="n"
         unicode="n"
         d="M6 3v55c0 3 -1 4 -1 5c0 2 3 3 5 3c6 0 9 -4 9 -8v-7c5 10 12 17 20 17c12 0 14 -10 14 -18v-35c0 -2 0 -8 4 -8c7 0 10 10 12 18c1 4 2 5 4 5c3 0 6 -4 6 -7v-1c-3 -11 -10 -27 -25 -27c-9 0 -14 7 -14 16v36c0 5 -1 9 -4 9c-5 0 -16 -14 -17 -28v-25c0 -3 0 -8 -5 -8 c-3 0 -8 2 -8 8z"
         id="glyph2534" />
      <glyph
         glyph-name="o"
         unicode="o"
         horiz-adv-x="63"
         d="M69 29c1 4 12 5 10 -5c-2 -9 -9 -18 -21 -18c-3 0 -5 1 -8 2c-4 -7 -11 -13 -21 -13c-17 0 -25 15 -25 32c0 25 13 41 17 41s8 -9 4 -12c-3 -4 -8 -11 -8 -28c0 -15 5 -21 12 -21c5 0 9 2 11 6c-8 7 -13 19 -13 31c0 11 5 20 14 20c8 0 15 -12 15 -29c0 -6 -1 -13 -3 -19 h4c7 0 11 6 12 13zM36 45c0 -8 3 -16 7 -21v8c0 12 0 21 -4 21c-2 0 -3 -3 -3 -8z"
         id="glyph2536" />
      <glyph
         glyph-name="p"
         unicode="p"
         d="M28 -7c-4 0 -8 1 -9 3v-56c0 -6 -6 -8 -9 -8s-4 2 -4 5v121c0 5 -2 5 -2 6s4 2 6 2c6 0 9 -3 9 -7c4 5 9 9 16 9c13 0 20 -14 20 -31c0 -10 -1 -19 -4 -25c11 1 14 5 18 13c2 3 1 5 3 5c3 0 7 -5 7 -7c0 -8 -11 -22 -34 -22c-5 -5 -11 -8 -17 -8zM31 56 c-5 0 -10 -6 -12 -14v-38c2 4 8 5 16 6c4 6 7 19 7 25c0 16 -5 21 -11 21z"
         id="glyph2538" />
      <glyph
         glyph-name="q"
         unicode="q"
         horiz-adv-x="63"
         d="M24 -5c-13 0 -21 11 -21 26c0 29 20 47 41 47c5 0 8 -3 8 -7c0 -3 0 -4 -2 -4h-5c-13 0 -29 -11 -29 -36c0 -9 4 -14 10 -14c7 0 11 9 12 16v19c0 3 -1 5 -1 6c0 2 3 3 5 3c6 0 9 -4 9 -8v-48c7 7 14 17 18 30c1 4 2 5 4 5c3 0 6 -4 6 -7v-1c-5 -18 -14 -29 -23 -37 c10 -11 16 -21 16 -33c0 -14 -8 -23 -17 -23c-12 0 -17 9 -17 23v50c-3 -4 -8 -7 -14 -7zM60 -50c0 8 -2 16 -9 26v-26c0 -8 3 -10 5 -10s4 3 4 10z"
         id="glyph2540" />
      <glyph
         glyph-name="r"
         unicode="r"
         horiz-adv-x="53"
         d="M44 -5c-8 0 -18 5 -18 20c0 11 3 23 9 38h-14h-1c0 -7 -2 -22 -5 -32c-2 -7 -11 -1 -9 5c2 7 2 21 2 30c-4 2 -7 6 -7 11s5 8 9 8s8 -2 10 -9c6 -1 8 -1 10 -1h9c2 0 9 -5 8 -9c0 -2 -8 -23 -8 -40c0 -5 2 -9 7 -9c8 0 10 10 12 18c1 4 3 5 5 5c3 0 6 -4 6 -7v-1 c-3 -11 -10 -27 -25 -27z"
         id="glyph2542" />
      <glyph
         glyph-name="s"
         unicode="s"
         horiz-adv-x="55"
         d="M16 24c-2 -7 -11 -3 -10 3c2 8 5 18 8 27c-2 3 -2 5 -2 8c0 6 9 14 14 14c4 0 7 -3 7 -8s-5 -11 -5 -12c8 -14 19 -21 19 -37c0 -2 0 -4 -1 -6c8 2 12 6 14 12c1 3 2 5 4 5c3 0 7 -5 7 -7c0 -3 -4 -10 -8 -13c-5 -4 -13 -8 -24 -9c-4 -4 -10 -6 -17 -6s-16 4 -19 7 c-8 8 -4 18 0 18c3 0 19 -10 28 -10c2 2 4 6 4 10c0 11 -6 19 -12 25c-3 -7 -5 -13 -7 -21z"
         id="glyph2544" />
      <glyph
         glyph-name="t"
         unicode="t"
         horiz-adv-x="31"
         d="M-10 81h16v29c0 5 -2 6 -2 7s4 2 6 2c6 0 9 -4 9 -8v-30c11 0 23 -1 35 0c5 5 2 -11 -2 -11c-14 0 -24 -1 -33 -1v-54c0 -6 2 -8 6 -8c7 0 10 10 12 18c1 4 2 5 4 5c3 0 6 -4 6 -7v-1c-3 -11 -10 -27 -25 -27c-9 0 -16 5 -16 19v55c-8 0 -12 1 -12 1c-6 0 -9 11 -4 11z "
         id="glyph2546" />
      <glyph
         glyph-name="u"
         unicode="u"
         d="M54 -5c-8 0 -14 5 -15 12c-4 -7 -9 -12 -17 -12c-12 0 -18 10 -18 25c0 18 6 39 6 39c1 3 0 6 9 6c8 0 4 -6 3 -9c-3 -13 -5 -20 -5 -35c0 -9 3 -15 8 -15c7 0 12 12 14 24v28c0 5 -2 5 -2 6s4 2 6 2c6 0 9 -4 9 -8v-43c0 -2 1 -8 5 -8c7 0 9 10 11 18c1 4 2 5 4 5 c3 0 7 -4 7 -7c0 0 -1 0 -1 -1c-3 -11 -9 -27 -24 -27z"
         id="glyph2548" />
      <glyph
         glyph-name="v"
         unicode="v"
         horiz-adv-x="56"
         d="M6 12v46c0 3 -1 4 -1 5c0 2 3 3 5 3c6 0 9 -4 9 -8v-46c0 -3 1 -5 4 -5c8 0 18 11 18 31c0 14 -5 18 -7 20c-1 1 -2 0 -2 1c0 3 4 9 7 9c7 0 15 -15 15 -30c0 -23 -13 -43 -33 -43c-11 0 -15 8 -15 17z"
         id="glyph2550" />
      <glyph
         glyph-name="w"
         unicode="w"
         horiz-adv-x="86"
         d="M36 19v39v5c0 2 2 3 4 3c6 0 9 -4 9 -8v-39c0 -7 2 -12 9 -12s9 5 9 12v39c0 3 -1 4 -1 5c0 2 2 3 4 3c6 0 10 -4 10 -8v-39c0 -11 -3 -24 -21 -24c-7 0 -14 4 -16 8c-2 -4 -9 -8 -16 -8c-19 0 -21 15 -21 24v39c0 3 -1 4 -1 5c0 2 3 3 5 3c6 0 9 -4 9 -8v-39 c0 -6 2 -12 9 -12s8 5 8 12z"
         id="glyph2552" />
      <glyph
         glyph-name="x"
         unicode="x"
         horiz-adv-x="70"
         d="M15 21c-2 -7 -11 -1 -9 5s4 25 4 34c0 6 3 8 10 8c3 0 7 -1 9 -5c4 -7 8 -14 12 -23c6 9 11 17 14 23c2 3 3 5 5 5c3 0 7 -5 7 -9c0 -1 0 -2 -1 -3l-19 -27c7 -14 11 -23 17 -23c7 0 10 11 12 19c1 4 2 5 4 5c3 0 6 -4 6 -7v-1c-3 -11 -9 -27 -23 -27c-10 0 -17 6 -24 22 l-12 -17c-2 -4 -5 -5 -8 -5c-4 0 -9 3 -9 6c0 2 2 1 8 7c5 6 10 14 15 21c-4 8 -7 16 -12 24c0 -8 -3 -24 -6 -32z"
         id="glyph2554" />
      <glyph
         glyph-name="y"
         unicode="y"
         d="M67 25c1 4 3 5 5 5c3 0 6 -4 6 -7v-1c-6 -20 -17 -31 -26 -39v-30c0 -18 -9 -24 -18 -24c-10 0 -16 9 -16 20c0 17 10 26 21 36v22c-4 -7 -10 -12 -17 -12c-12 0 -18 10 -18 25c0 18 6 39 6 39c1 3 0 6 9 6c8 0 4 -6 3 -9c-3 -13 -5 -20 -5 -35c0 -9 3 -15 8 -15 c7 0 12 12 14 24v28c0 3 -1 4 -1 5c0 2 3 3 5 3c6 0 9 -4 9 -8v-60c6 7 12 15 15 27zM34 -60c6 0 5 10 5 13v19c-6 -6 -9 -13 -9 -23c0 -5 1 -9 4 -9z"
         id="glyph2556" />
      <glyph
         glyph-name="z"
         unicode="z"
         d="M18 -51c0 18 10 26 22 37c-2 10 -6 18 -17 18l-2 10c12 3 25 14 25 31c0 6 -3 11 -10 11c-9 0 -14 -6 -20 -33c-2 -10 -11 1 -10 5c4 23 10 40 30 40c15 0 23 -11 23 -24c0 -15 -10 -26 -22 -32c7 -4 11 -8 14 -16c7 7 13 16 17 29c1 4 2 5 4 5c3 0 6 -4 6 -7v-1 c-6 -19 -15 -29 -24 -37c1 -5 1 -11 1 -17c0 -18 -5 -39 -21 -39c-10 0 -16 9 -16 20zM42 -34v8c-7 -6 -12 -13 -12 -25c0 -5 1 -9 4 -9c7 0 8 17 8 26z"
         id="glyph2558" />
      <glyph
         glyph-name="germandbls"
         unicode="ß"
         horiz-adv-x="67"
         d="M46 95c0 -17 -7 -23 -7 -30c0 -12 20 -24 20 -44c0 -3 0 -5 -1 -8c8 2 12 6 14 12c1 3 2 5 4 5c3 0 7 -5 7 -7c0 -3 -4 -10 -8 -13c-5 -4 -12 -7 -22 -8c-3 -4 -8 -7 -15 -7c-9 0 -14 8 -14 14c0 4 3 7 5 7s9 -6 14 -6c2 2 4 6 4 10c0 12 -20 31 -19 43c1 10 6 17 6 32 c0 6 -3 14 -9 14c-5 0 -6 -7 -6 -18v-133c0 -6 -6 -8 -9 -8s-4 2 -4 5v136c0 20 9 30 20 30c12 0 20 -13 20 -26z"
         id="glyph2560" />
      <glyph
         glyph-name="Agrave"
         unicode="À"
         horiz-adv-x="85"
         d="M42 67c-4 0 -8 2 -8 8c0 2 1 6 2 6s1 -2 6 -2c12 0 28 8 28 21c0 5 -3 10 -10 10c-27 0 -40 -39 -40 -66c0 -22 4 -37 19 -37c20 0 26 33 29 60c0 2 4 3 7 3s7 -1 6 -4c-1 -4 -3 -16 -3 -29c0 -23 1 -32 2 -38v-1c0 -2 -4 -4 -8 -4c-6 0 -6 5 -7 19 c-5 -11 -15 -20 -27 -20c-19 0 -32 14 -32 51c0 38 22 79 55 79c14 0 23 -10 23 -22c0 -20 -21 -34 -42 -34zM57 131l-17 18c-1 1 -1 2 -1 3c0 3 5 6 7 6s4 -2 5 -4l16 -18c1 -1 1 -1 1 -2c0 -2 -3 -4 -8 -4c-2 0 -2 0 -3 1z"
         id="glyph2562" />
      <glyph
         glyph-name="agrave"
         unicode="à"
         horiz-adv-x="61"
         d="M55 7c7 0 10 10 12 18c1 4 2 5 4 5c3 0 6 -4 6 -7v-1c-3 -11 -10 -27 -25 -27c-6 0 -10 3 -13 7c-3 -4 -8 -7 -15 -7c-13 0 -21 11 -21 26c0 29 20 47 41 47c5 0 8 -3 8 -7c0 -3 0 -4 -2 -4h-5c-13 0 -29 -11 -29 -36c0 -9 4 -14 10 -14c5 0 8 4 10 9v26c0 3 -1 5 -1 6 c0 2 3 3 5 3c6 0 9 -4 9 -8v-28c0 -4 2 -8 6 -8zM36 78l-16 18c-1 1 -1 2 -1 3c0 3 5 5 7 5s4 -1 5 -3l15 -18c1 -1 2 -2 2 -3c0 -2 -3 -4 -8 -4c-2 0 -3 1 -4 2z"
         id="glyph2564" />
      <glyph
         glyph-name="Aacute"
         unicode="Á"
         horiz-adv-x="85"
         d="M42 67c-4 0 -8 2 -8 8c0 2 1 6 2 6s1 -2 6 -2c12 0 28 8 28 21c0 5 -3 10 -10 10c-27 0 -40 -39 -40 -66c0 -22 4 -37 19 -37c20 0 26 33 29 60c0 2 4 3 7 3s7 -1 6 -4c-1 -4 -3 -16 -3 -29c0 -23 1 -32 2 -38v-1c0 -2 -4 -4 -8 -4c-6 0 -6 5 -7 19 c-5 -11 -15 -20 -27 -20c-19 0 -32 14 -32 51c0 38 22 79 55 79c14 0 23 -10 23 -22c0 -20 -21 -34 -42 -34zM72 149l-15 -16c-1 -2 -4 -3 -6 -3c-5 0 -7 2 -7 4c0 1 1 1 2 2l15 18c0 2 4 4 6 4c3 0 7 -2 7 -5c0 -2 -1 -3 -2 -4z"
         id="glyph2566" />
      <glyph
         glyph-name="aacute"
         unicode="á"
         horiz-adv-x="61"
         d="M55 7c7 0 10 10 12 18c1 4 2 5 4 5c3 0 6 -4 6 -7v-1c-3 -11 -10 -27 -25 -27c-6 0 -10 3 -13 7c-3 -4 -8 -7 -15 -7c-13 0 -21 11 -21 26c0 29 20 47 41 47c5 0 8 -3 8 -7c0 -3 0 -4 -2 -4h-5c-13 0 -29 -11 -29 -36c0 -9 4 -14 10 -14c5 0 8 4 10 9v26c0 3 -1 5 -1 6 c0 2 3 3 5 3c6 0 9 -4 9 -8v-28c0 -4 2 -8 6 -8zM52 96l-16 -16c-1 -2 -3 -4 -5 -4c-5 0 -7 2 -7 4c0 1 0 2 1 3l16 18c0 2 4 3 6 3c3 0 7 -2 7 -5c0 -2 -1 -2 -2 -3z"
         id="glyph2568" />
      <glyph
         glyph-name="Acircumflex"
         unicode="Â"
         horiz-adv-x="85"
         d="M42 67c-4 0 -8 2 -8 8c0 2 1 6 2 6s1 -2 6 -2c12 0 28 8 28 21c0 5 -3 10 -10 10c-27 0 -40 -39 -40 -66c0 -22 4 -37 19 -37c20 0 26 33 29 60c0 2 4 3 7 3s7 -1 6 -4c-1 -4 -3 -16 -3 -29c0 -23 1 -32 2 -38v-1c0 -2 -4 -4 -8 -4c-6 0 -6 5 -7 19 c-5 -11 -15 -20 -27 -20c-19 0 -32 14 -32 51c0 38 22 79 55 79c14 0 23 -10 23 -22c0 -20 -21 -34 -42 -34zM63 153l12 -17c1 -1 1 -1 1 -2c0 -2 -3 -4 -8 -4c-2 0 -2 0 -3 1l-9 14l-7 -12c-1 -2 -2 -3 -5 -3s-7 3 -7 5v1l12 17c2 3 5 5 8 5c4 0 5 -2 6 -5z"
         id="glyph2570" />
      <glyph
         glyph-name="acircumflex"
         unicode="â"
         horiz-adv-x="61"
         d="M55 7c7 0 10 10 12 18c1 4 2 5 4 5c3 0 6 -4 6 -7v-1c-3 -11 -10 -27 -25 -27c-6 0 -10 3 -13 7c-3 -4 -8 -7 -15 -7c-13 0 -21 11 -21 26c0 29 20 47 41 47c5 0 8 -3 8 -7c0 -3 0 -4 -2 -4h-5c-13 0 -29 -11 -29 -36c0 -9 4 -14 10 -14c5 0 8 4 10 9v26c0 3 -1 5 -1 6 c0 2 3 3 5 3c6 0 9 -4 9 -8v-28c0 -4 2 -8 6 -8zM43 100l11 -17c1 -1 2 -2 2 -3c0 -2 -3 -4 -8 -4c-2 0 -3 1 -4 2l-8 13l-8 -12c-1 -2 -1 -3 -4 -3s-7 4 -7 6v1l12 17c2 3 5 4 8 4c4 0 5 -1 6 -4z"
         id="glyph2572" />
      <glyph
         glyph-name="Atilde"
         unicode="Ã"
         horiz-adv-x="85"
         d="M42 67c-4 0 -8 2 -8 8c0 2 1 6 2 6s1 -2 6 -2c12 0 28 8 28 21c0 5 -3 10 -10 10c-27 0 -40 -39 -40 -66c0 -22 4 -37 19 -37c20 0 26 33 29 60c0 2 4 3 7 3s7 -1 6 -4c-1 -4 -3 -16 -3 -29c0 -23 1 -32 2 -38v-1c0 -2 -4 -4 -8 -4c-6 0 -6 5 -7 19 c-5 -11 -15 -20 -27 -20c-19 0 -32 14 -32 51c0 38 22 79 55 79c14 0 23 -10 23 -22c0 -20 -21 -34 -42 -34zM45 135c0 -2 -2 -2 -4 -2c-3 0 -6 2 -6 4c0 7 5 15 13 15c9 0 12 -9 17 -9c2 0 4 3 4 6s3 3 5 3c3 0 5 -1 5 -3c0 -11 -7 -17 -13 -17c-9 0 -13 10 -16 10 s-4 -4 -5 -7z"
         id="glyph2574" />
      <glyph
         glyph-name="atilde"
         unicode="ã"
         horiz-adv-x="61"
         d="M55 7c7 0 10 10 12 18c1 4 2 5 4 5c3 0 6 -4 6 -7v-1c-3 -11 -10 -27 -25 -27c-6 0 -10 3 -13 7c-3 -4 -8 -7 -15 -7c-13 0 -21 11 -21 26c0 29 20 47 41 47c5 0 8 -3 8 -7c0 -3 0 -4 -2 -4h-5c-13 0 -29 -11 -29 -36c0 -9 4 -14 10 -14c5 0 8 4 10 9v26c0 3 -1 5 -1 6 c0 2 3 3 5 3c6 0 9 -4 9 -8v-28c0 -4 2 -8 6 -8zM25 82c0 -2 -2 -2 -4 -2c-3 0 -6 1 -6 3c0 7 5 16 13 16c9 0 12 -9 17 -9c2 0 3 2 3 5s3 4 5 4c3 0 6 -1 6 -3c0 -11 -8 -17 -14 -17c-9 0 -13 10 -16 10s-3 -4 -4 -7z"
         id="glyph2576" />
      <glyph
         glyph-name="Adieresis"
         unicode="Ä"
         horiz-adv-x="85"
         d="M42 67c-4 0 -8 2 -8 8c0 2 1 6 2 6s1 -2 6 -2c12 0 28 8 28 21c0 5 -3 10 -10 10c-27 0 -40 -39 -40 -66c0 -22 4 -37 19 -37c20 0 26 33 29 60c0 2 4 3 7 3s7 -1 6 -4c-1 -4 -3 -16 -3 -29c0 -23 1 -32 2 -38v-1c0 -2 -4 -4 -8 -4c-6 0 -6 5 -7 19 c-5 -11 -15 -20 -27 -20c-19 0 -32 14 -32 51c0 38 22 79 55 79c14 0 23 -10 23 -22c0 -20 -21 -34 -42 -34zM36 141c0 4 4 8 8 8s8 -4 8 -8s-4 -8 -8 -8s-8 4 -8 8zM61 141c0 4 4 8 8 8s8 -4 8 -8s-4 -8 -8 -8s-8 4 -8 8z"
         id="glyph2578" />
      <glyph
         glyph-name="adieresis"
         unicode="ä"
         horiz-adv-x="61"
         d="M55 7c7 0 10 10 12 18c1 4 2 5 4 5c3 0 6 -4 6 -7v-1c-3 -11 -10 -27 -25 -27c-6 0 -10 3 -13 7c-3 -4 -8 -7 -15 -7c-13 0 -21 11 -21 26c0 29 20 47 41 47c5 0 8 -3 8 -7c0 -3 0 -4 -2 -4h-5c-13 0 -29 -11 -29 -36c0 -9 4 -14 10 -14c5 0 8 4 10 9v26c0 3 -1 5 -1 6 c0 2 3 3 5 3c6 0 9 -4 9 -8v-28c0 -4 2 -8 6 -8zM16 88c0 4 4 8 8 8s8 -4 8 -8s-4 -8 -8 -8s-8 4 -8 8zM40 88c0 4 5 8 9 8s8 -4 8 -8s-4 -8 -8 -8s-9 4 -9 8z"
         id="glyph2580" />
      <glyph
         glyph-name="Aring"
         unicode="Å"
         horiz-adv-x="85"
         d="M42 67c-4 0 -8 2 -8 8c0 2 1 6 2 6s1 -2 6 -2c12 0 28 8 28 21c0 5 -3 10 -10 10c-27 0 -40 -39 -40 -66c0 -22 4 -37 19 -37c20 0 26 33 29 60c0 2 4 3 7 3s7 -1 6 -4c-1 -4 -3 -16 -3 -29c0 -23 1 -32 2 -38v-1c0 -2 -4 -4 -8 -4c-6 0 -6 5 -7 19 c-5 -11 -15 -20 -27 -20c-19 0 -32 14 -32 51c0 38 22 79 55 79c14 0 23 -10 23 -22c0 -20 -21 -34 -42 -34zM39 146c0 10 8 18 18 18s17 -8 17 -18s-7 -18 -17 -18s-18 8 -18 18zM49 146c0 -4 4 -8 8 -8s7 4 7 8s-3 7 -7 7s-8 -3 -8 -7z"
         id="glyph2582" />
      <glyph
         glyph-name="aring"
         unicode="å"
         horiz-adv-x="61"
         d="M55 7c7 0 10 10 12 18c1 4 2 5 4 5c3 0 6 -4 6 -7v-1c-3 -11 -10 -27 -25 -27c-6 0 -10 3 -13 7c-3 -4 -8 -7 -15 -7c-13 0 -21 11 -21 26c0 29 20 47 41 47c5 0 8 -3 8 -7c0 -3 0 -4 -2 -4h-5c-13 0 -29 -11 -29 -36c0 -9 4 -14 10 -14c5 0 8 4 10 9v26c0 3 -1 5 -1 6 c0 2 3 3 5 3c6 0 9 -4 9 -8v-28c0 -4 2 -8 6 -8zM18 93c0 10 8 17 18 17s18 -7 18 -17s-8 -18 -18 -18s-18 8 -18 18zM29 93c0 -4 3 -8 7 -8s8 4 8 8s-4 7 -8 7s-7 -3 -7 -7z"
         id="glyph2584" />
      <glyph
         glyph-name="AE"
         unicode="Æ"
         horiz-adv-x="143"
         d="M140 12c-3 -5 -14 -19 -36 -19c-10 0 -19 3 -25 10c0 -1 1 -3 1 -4v-1c0 -2 -4 -4 -8 -4c-6 0 -6 5 -7 19c-5 -11 -15 -20 -27 -20c-19 0 -32 14 -32 51c0 38 22 79 55 79c13 0 22 -9 23 -20c8 12 21 21 36 21c16 0 25 -10 25 -23c0 -18 -15 -36 -32 -36 c-4 0 -10 3 -10 9c0 2 1 6 2 6s2 -2 7 -2c11 0 19 12 19 23c0 6 -5 10 -11 10c-17 0 -32 -18 -32 -35c0 -13 10 -22 18 -23h1c2 0 3 -2 3 -4c0 -4 -2 -9 -4 -9c-7 -1 -19 -5 -19 -19c0 -9 7 -15 17 -15c15 0 24 9 26 14c1 2 2 3 3 3c3 0 7 -4 7 -8v-3zM42 67c-4 0 -8 2 -8 8 c0 2 1 6 2 6s1 -2 6 -2c12 0 28 8 28 21c0 5 -3 10 -10 10c-27 0 -40 -39 -40 -66c0 -22 4 -37 19 -37c20 0 26 33 29 60c0 2 4 3 7 3c0 2 -1 3 -1 5v5c-8 -8 -20 -13 -32 -13zM78 37v0c3 4 7 8 11 10c-4 2 -7 6 -10 10c-1 -5 -1 -12 -1 -20z"
         id="glyph2586" />
      <glyph
         glyph-name="ae"
         unicode="æ"
         horiz-adv-x="83"
         d="M22 -5c-12 0 -19 11 -19 26c0 29 20 47 41 47c3 0 6 -2 7 -4c3 2 7 4 11 4c10 0 16 -8 16 -18c0 -13 -9 -28 -26 -33c2 -6 7 -10 16 -10c13 0 19 10 21 21c2 8 12 5 11 -1c-1 -11 -9 -32 -34 -32c-6 0 -12 2 -17 6c0 -3 -1 -6 -5 -6c-3 0 -7 1 -8 6c-4 -4 -8 -6 -14 -6z M26 7c6 0 9 6 11 12c-1 3 -1 6 -1 10c0 11 3 21 8 28c-13 -1 -28 -12 -28 -36c0 -9 4 -14 10 -14zM50 30v-3c9 4 14 13 14 23c0 4 -1 6 -3 6c-8 0 -11 -19 -11 -26z"
         id="glyph2588" />
      <glyph
         glyph-name="AEacute"
         unicode="Ǽ"
         horiz-adv-x="143"
         d="M140 12c-3 -5 -14 -19 -36 -19c-10 0 -19 3 -25 10c0 -1 1 -3 1 -4v-1c0 -2 -4 -4 -8 -4c-6 0 -6 5 -7 19c-5 -11 -15 -20 -27 -20c-19 0 -32 14 -32 51c0 38 22 79 55 79c13 0 22 -9 23 -20c8 12 21 21 36 21c16 0 25 -10 25 -23c0 -18 -15 -36 -32 -36 c-4 0 -10 3 -10 9c0 2 1 6 2 6s2 -2 7 -2c11 0 19 12 19 23c0 6 -5 10 -11 10c-17 0 -32 -18 -32 -35c0 -13 10 -22 18 -23h1c2 0 3 -2 3 -4c0 -4 -2 -9 -4 -9c-7 -1 -19 -5 -19 -19c0 -9 7 -15 17 -15c15 0 24 9 26 14c1 2 2 3 3 3c3 0 7 -4 7 -8v-3zM42 67c-4 0 -8 2 -8 8 c0 2 1 6 2 6s1 -2 6 -2c12 0 28 8 28 21c0 5 -3 10 -10 10c-27 0 -40 -39 -40 -66c0 -22 4 -37 19 -37c20 0 26 33 29 60c0 2 4 3 7 3c0 2 -1 3 -1 5v5c-8 -8 -20 -13 -32 -13zM78 37v0c3 4 7 8 11 10c-4 2 -7 6 -10 10c-1 -5 -1 -12 -1 -20zM104 149l-15 -16 c-1 -2 -4 -3 -6 -3c-5 0 -7 2 -7 4c0 1 1 1 2 2l16 18c0 2 3 4 5 4c3 0 7 -2 7 -5c0 -2 -1 -3 -2 -4z"
         id="glyph2590" />
      <glyph
         glyph-name="aeacute"
         unicode="ǽ"
         horiz-adv-x="83"
         d="M22 -5c-12 0 -19 11 -19 26c0 29 20 47 41 47c3 0 6 -2 7 -4c3 2 7 4 11 4c10 0 16 -8 16 -18c0 -13 -9 -28 -26 -33c2 -6 7 -10 16 -10c13 0 19 10 21 21c2 8 12 5 11 -1c-1 -11 -9 -32 -34 -32c-6 0 -12 2 -17 6c0 -3 -1 -6 -5 -6c-3 0 -7 1 -8 6c-4 -4 -8 -6 -14 -6z M26 7c6 0 9 6 11 12c-1 3 -1 6 -1 10c0 11 3 21 8 28c-13 -1 -28 -12 -28 -36c0 -9 4 -14 10 -14zM50 30v-3c9 4 14 13 14 23c0 4 -1 6 -3 6c-8 0 -11 -19 -11 -26zM64 96l-15 -16c-1 -2 -4 -4 -6 -4c-5 0 -7 2 -7 4c0 1 1 2 2 3l15 18c0 2 4 3 6 3c3 0 7 -2 7 -5 c0 -2 -1 -2 -2 -3z"
         id="glyph2592" />
      <glyph
         glyph-name="Amacron"
         unicode="Ā"
         horiz-adv-x="85"
         d="M42 67c-4 0 -8 2 -8 8c0 2 1 6 2 6s1 -2 6 -2c12 0 28 8 28 21c0 5 -3 10 -10 10c-27 0 -40 -39 -40 -66c0 -22 4 -37 19 -37c20 0 26 33 29 60c0 2 4 3 7 3s7 -1 6 -4c-1 -4 -3 -16 -3 -29c0 -23 1 -32 2 -38v-1c0 -2 -4 -4 -8 -4c-6 0 -6 5 -7 19 c-5 -11 -15 -20 -27 -20c-19 0 -32 14 -32 51c0 38 22 79 55 79c14 0 23 -10 23 -22c0 -20 -21 -34 -42 -34zM43 146h30c3 0 3 -2 3 -5s-1 -7 -4 -7h-1h-30c-3 0 -4 2 -4 4c0 5 2 8 6 8z"
         id="glyph2594" />
      <glyph
         glyph-name="amacron"
         unicode="ā"
         horiz-adv-x="61"
         d="M55 7c7 0 10 10 12 18c1 4 2 5 4 5c3 0 6 -4 6 -7v-1c-3 -11 -10 -27 -25 -27c-6 0 -10 3 -13 7c-3 -4 -8 -7 -15 -7c-13 0 -21 11 -21 26c0 29 20 47 41 47c5 0 8 -3 8 -7c0 -3 0 -4 -2 -4h-5c-13 0 -29 -11 -29 -36c0 -9 4 -14 10 -14c5 0 8 4 10 9v26c0 3 -1 5 -1 6 c0 2 3 3 5 3c6 0 9 -4 9 -8v-28c0 -4 2 -8 6 -8zM22 92h30c3 0 4 -1 4 -4s-1 -7 -4 -7h-1h-30c-3 0 -5 2 -5 4c0 5 2 7 6 7z"
         id="glyph2596" />
      <glyph
         glyph-name="Abreve"
         unicode="Ă"
         horiz-adv-x="85"
         d="M42 67c-4 0 -8 2 -8 8c0 2 1 6 2 6s1 -2 6 -2c12 0 28 8 28 21c0 5 -3 10 -10 10c-27 0 -40 -39 -40 -66c0 -22 4 -37 19 -37c20 0 26 33 29 60c0 2 4 3 7 3s7 -1 6 -4c-1 -4 -3 -16 -3 -29c0 -23 1 -32 2 -38v-1c0 -2 -4 -4 -8 -4c-6 0 -6 5 -7 19 c-5 -11 -15 -20 -27 -20c-19 0 -32 14 -32 51c0 38 22 79 55 79c14 0 23 -10 23 -22c0 -20 -21 -34 -42 -34zM57 131c-8 0 -21 5 -21 21c0 2 2 4 7 4c2 0 3 -1 4 -2c0 -5 2 -12 10 -12s8 7 8 11c0 1 1 3 4 3s7 -3 7 -5c0 -17 -13 -20 -19 -20z"
         id="glyph2598" />
      <glyph
         glyph-name="abreve"
         unicode="ă"
         horiz-adv-x="61"
         d="M55 7c7 0 10 10 12 18c1 4 2 5 4 5c3 0 6 -4 6 -7v-1c-3 -11 -10 -27 -25 -27c-6 0 -10 3 -13 7c-3 -4 -8 -7 -15 -7c-13 0 -21 11 -21 26c0 29 20 47 41 47c5 0 8 -3 8 -7c0 -3 0 -4 -2 -4h-5c-13 0 -29 -11 -29 -36c0 -9 4 -14 10 -14c5 0 8 4 10 9v26c0 3 -1 5 -1 6 c0 2 3 3 5 3c6 0 9 -4 9 -8v-28c0 -4 2 -8 6 -8zM36 78c-8 0 -21 5 -21 21c0 2 3 4 8 4c2 0 3 -1 4 -2c0 -5 1 -12 9 -12s8 7 8 11c0 1 2 3 5 3s7 -3 7 -5c0 -17 -14 -20 -20 -20z"
         id="glyph2600" />
      <glyph
         glyph-name="Aogonek"
         unicode="Ą"
         horiz-adv-x="85"
         d="M42 67c-4 0 -8 2 -8 8c0 2 1 6 2 6s1 -2 6 -2c12 0 28 8 28 21c0 5 -3 10 -10 10c-27 0 -40 -39 -40 -66c0 -22 4 -37 19 -37c20 0 26 33 29 60c0 2 4 3 7 3s7 -1 6 -4c-1 -4 -3 -16 -3 -29s-1 -26 2 -39c0 -1 0 -1 -1 -2c-7 -3 -14 -10 -14 -17c0 -3 1 -6 7 -6 c3 0 9 0 11 1s2 -2 2 -4c0 -5 -3 -7 -13 -7c-14 0 -19 8 -19 14c0 9 6 17 13 22c-1 3 -1 7 -1 14c-5 -11 -15 -20 -27 -20c-19 0 -32 14 -32 51c0 38 22 79 55 79c14 0 23 -10 23 -22c0 -20 -21 -34 -42 -34z"
         id="glyph2602" />
      <glyph
         glyph-name="aogonek"
         unicode="ą"
         horiz-adv-x="61"
         d="M55 7c7 0 10 10 12 18c1 4 2 5 4 5c3 0 6 -4 6 -7v-1c-2 -8 -6 -17 -13 -22c-7 -6 -14 -10 -14 -17c0 -3 2 -7 8 -7c3 0 8 1 10 2s3 -2 3 -4c0 -5 -4 -8 -14 -8c-14 0 -19 9 -19 15s3 10 8 15c-3 1 -6 4 -7 6c-3 -4 -8 -7 -15 -7c-13 0 -21 11 -21 26c0 29 20 47 41 47 c5 0 8 -3 8 -7c0 -3 0 -4 -2 -4h-5c-13 0 -29 -11 -29 -36c0 -9 4 -14 10 -14c5 0 8 4 10 9v26c0 3 -1 5 -1 6c0 2 3 3 5 3c6 0 9 -4 9 -8v-28c0 -4 2 -8 6 -8z"
         id="glyph2604" />
      <glyph
         glyph-name="Ccedilla"
         unicode="Ç"
         horiz-adv-x="84"
         d="M39 72c13 0 31 14 31 29c0 4 -2 10 -10 10c-23 0 -40 -35 -40 -63c0 -21 7 -42 27 -42c15 0 24 10 24 10c4 7 12 -5 8 -9c-1 -1 -11 -12 -30 -14l-1 -4c12 -2 14 -10 14 -15c0 -6 -5 -17 -19 -17c-10 0 -13 3 -13 8c0 2 0 5 2 4s6 -2 9 -2c6 0 10 3 10 8c0 8 -14 1 -14 9 c0 1 2 6 3 9c-21 3 -34 24 -34 55c0 34 22 75 56 75c12 0 22 -7 22 -22c0 -21 -27 -41 -46 -41c-4 0 -7 2 -7 8c0 2 1 6 2 6s1 -2 6 -2z"
         id="glyph2606" />
      <glyph
         glyph-name="ccedilla"
         unicode="ç"
         horiz-adv-x="51"
         d="M35 -5l-2 -6c12 -2 14 -10 14 -15c0 -6 -5 -16 -19 -16c-10 0 -13 2 -13 7c0 2 0 5 2 4s6 -1 9 -1c6 0 11 2 11 7c0 8 -15 2 -15 10c0 2 4 10 4 11c-12 3 -22 14 -22 32c0 20 12 40 28 40c12 0 16 -11 16 -17c0 -7 -11 -10 -10 -4c-1 3 -2 9 -8 9s-12 -12 -12 -28 c0 -14 8 -21 18 -21c13 0 19 10 21 21c2 8 12 5 11 -1c-1 -10 -9 -31 -33 -32v0z"
         id="glyph2608" />
      <glyph
         glyph-name="Cacute"
         unicode="Ć"
         horiz-adv-x="84"
         d="M39 72c13 0 31 14 31 29c0 4 -2 10 -10 10c-23 0 -40 -35 -40 -63c0 -21 7 -42 27 -42c15 0 24 10 24 10c4 7 12 -5 8 -9c-1 -1 -13 -14 -34 -14c-25 0 -39 22 -39 55c0 34 22 75 56 75c12 0 22 -7 22 -22c0 -21 -27 -41 -46 -41c-4 0 -7 2 -7 8c0 2 1 6 2 6s1 -2 6 -2z M74 150l-15 -17c-1 -2 -4 -3 -6 -3c-5 0 -7 2 -7 4c0 1 1 2 2 3l15 18c0 2 4 3 6 3c3 0 7 -2 7 -5c0 -2 -1 -2 -2 -3z"
         id="glyph2610" />
      <glyph
         glyph-name="cacute"
         unicode="ć"
         horiz-adv-x="51"
         d="M34 -5c-15 0 -30 12 -30 33c0 20 12 40 28 40c12 0 16 -11 16 -17c0 -7 -11 -10 -10 -4c-1 3 -2 9 -8 9s-12 -12 -12 -28c0 -14 8 -21 18 -21c13 0 19 10 21 21c2 8 12 5 11 -1c-1 -11 -9 -32 -34 -32zM49 96l-16 -16c-1 -2 -3 -4 -5 -4c-5 0 -7 2 -7 4c0 1 0 2 1 3 l16 18c0 2 4 3 6 3c3 0 7 -2 7 -5c0 -2 -1 -2 -2 -3z"
         id="glyph2612" />
      <glyph
         glyph-name="Ccircumflex"
         unicode="Ĉ"
         horiz-adv-x="84"
         d="M39 72c13 0 31 14 31 29c0 4 -2 10 -10 10c-23 0 -40 -35 -40 -63c0 -21 7 -42 27 -42c15 0 24 10 24 10c4 7 12 -5 8 -9c-1 -1 -13 -14 -34 -14c-25 0 -39 22 -39 55c0 34 22 75 56 75c12 0 22 -7 22 -22c0 -21 -27 -41 -46 -41c-4 0 -7 2 -7 8c0 2 1 6 2 6s1 -2 6 -2z M65 153l12 -16c1 -1 1 -2 1 -3c0 -2 -3 -4 -8 -4c-2 0 -3 1 -4 2l-8 13l-7 -12c-1 -2 -2 -3 -5 -3s-7 4 -7 6v0l12 18c2 3 5 4 8 4c4 0 5 -2 6 -5z"
         id="glyph2614" />
      <glyph
         glyph-name="ccircumflex"
         unicode="ĉ"
         horiz-adv-x="51"
         d="M34 -5c-15 0 -30 12 -30 33c0 20 12 40 28 40c12 0 16 -11 16 -17c0 -7 -11 -10 -10 -4c-1 3 -2 9 -8 9s-12 -12 -12 -28c0 -14 8 -21 18 -21c13 0 19 10 21 21c2 8 12 5 11 -1c-1 -11 -9 -32 -34 -32zM40 100l11 -17c1 -1 2 -2 2 -3c0 -2 -3 -4 -8 -4c-2 0 -3 1 -4 2 l-8 13l-8 -12c-1 -2 -1 -3 -4 -3s-7 4 -7 6v1l12 17c2 3 5 4 8 4c4 0 5 -1 6 -4z"
         id="glyph2616" />
      <glyph
         glyph-name="Cdotaccent"
         unicode="Ċ"
         horiz-adv-x="84"
         d="M39 72c13 0 31 14 31 29c0 4 -2 10 -10 10c-23 0 -40 -35 -40 -63c0 -21 7 -42 27 -42c15 0 24 10 24 10c4 7 12 -5 8 -9c-1 -1 -13 -14 -34 -14c-25 0 -39 22 -39 55c0 34 22 75 56 75c12 0 22 -7 22 -22c0 -21 -27 -41 -46 -41c-4 0 -7 2 -7 8c0 2 1 6 2 6s1 -2 6 -2z M50 141c0 5 3 8 8 8s9 -3 9 -8s-4 -9 -9 -9s-8 4 -8 9z"
         id="glyph2618" />
      <glyph
         glyph-name="cdotaccent"
         unicode="ċ"
         horiz-adv-x="51"
         d="M34 -5c-15 0 -30 12 -30 33c0 20 12 40 28 40c12 0 16 -11 16 -17c0 -7 -11 -10 -10 -4c-1 3 -2 9 -8 9s-12 -12 -12 -28c0 -14 8 -21 18 -21c13 0 19 10 21 21c2 8 12 5 11 -1c-1 -11 -9 -32 -34 -32zM25 87c0 5 3 8 8 8s9 -3 9 -8s-4 -9 -9 -9s-8 4 -8 9z"
         id="glyph2620" />
      <glyph
         glyph-name="Ccaron"
         unicode="Č"
         horiz-adv-x="84"
         d="M39 72c13 0 31 14 31 29c0 4 -2 10 -10 10c-23 0 -40 -35 -40 -63c0 -21 7 -42 27 -42c15 0 24 10 24 10c4 7 12 -5 8 -9c-1 -1 -13 -14 -34 -14c-25 0 -39 22 -39 55c0 34 22 75 56 75c12 0 22 -7 22 -22c0 -21 -27 -41 -46 -41c-4 0 -7 2 -7 8c0 2 1 6 2 6s1 -2 6 -2z M51 135l-11 17c-1 1 -2 1 -2 2c0 2 3 4 8 4c2 0 3 0 4 -1l8 -14l8 12c0 1 1 3 4 3s7 -3 7 -5c0 -1 -1 -2 -1 -2l-11 -16c-1 -3 -2 -5 -5 -5c-5 0 -6 1 -9 5z"
         id="glyph2622" />
      <glyph
         glyph-name="ccaron"
         unicode="č"
         horiz-adv-x="51"
         d="M34 -5c-15 0 -30 12 -30 33c0 20 12 40 28 40c12 0 16 -11 16 -17c0 -7 -11 -10 -10 -4c-1 3 -2 9 -8 9s-12 -12 -12 -28c0 -14 8 -21 18 -21c13 0 19 10 21 21c2 8 12 5 11 -1c-1 -11 -9 -32 -34 -32zM26 81l-11 17c-1 1 -2 2 -2 3c0 2 3 3 8 3c2 0 3 0 4 -1l8 -13l8 12 c0 1 1 2 4 2s7 -3 7 -5c0 -1 -1 -2 -1 -2l-11 -16c-1 -3 -3 -5 -6 -5c-5 0 -5 1 -8 5z"
         id="glyph2624" />
      <glyph
         glyph-name="Dcaron"
         unicode="Ď"
         horiz-adv-x="105"
         d="M48 89v-68c0 -10 2 -14 9 -14c13 0 29 26 29 61c0 23 -10 43 -33 43c-29 0 -36 -22 -36 -40c0 -17 8 -25 9 -26c2 1 2 -1 2 -3c0 -4 -4 -10 -8 -10c-1 0 -2 0 -3 1c-1 0 -14 13 -14 37c0 31 20 54 50 54c32 0 47 -27 47 -55c0 -49 -25 -76 -44 -76c-16 0 -22 11 -22 29 v66c0 3 -1 5 -1 6c0 2 3 3 5 3c6 0 10 -4 10 -8zM48 136l-11 16c-1 1 -2 2 -2 3c0 2 3 4 8 4c2 0 3 -1 4 -2l8 -13l8 12c0 1 1 3 4 3s7 -3 7 -5c0 -1 -1 -3 -1 -3l-11 -16c-1 -3 -3 -4 -6 -4c-5 0 -5 1 -8 5z"
         id="glyph2626" />
      <glyph
         glyph-name="dcaron"
         unicode="ď"
         horiz-adv-x="77"
         d="M25 -5c-13 0 -22 10 -22 28c0 26 16 41 35 44v40c0 5 -2 5 -2 6s4 2 6 2c6 0 9 -4 9 -8v-92c0 -4 2 -8 6 -8c7 0 10 10 12 18c1 4 2 5 4 5c3 0 6 -4 6 -7v-1c-3 -11 -10 -27 -25 -27c-6 0 -10 3 -13 7c-4 -4 -9 -7 -16 -7zM28 7c4 0 8 2 10 6v43c-11 -2 -22 -10 -22 -32 c0 -12 6 -17 12 -17zM67 111c4 0 8 -3 8 -9c0 -7 -8 -17 -12 -17c-3 0 -4 2 -4 4c0 1 0 2 1 2s3 2 5 5c-3 1 -6 4 -6 8c0 5 4 7 8 7z"
         id="glyph2628" />
      <glyph
         glyph-name="Eth"
         unicode="Ð"
         horiz-adv-x="105"
         d="M30 62h4v26c0 3 -1 5 -1 6c0 2 3 3 5 3c6 0 10 -4 10 -8v-27h11c3 0 4 -1 4 -4s-1 -7 -4 -7h-1h-10v-30c0 -10 2 -14 9 -14c13 0 29 26 29 61c0 23 -10 43 -33 43c-29 0 -36 -22 -36 -40c0 -17 8 -25 9 -26c2 1 2 -1 2 -3c0 -4 -4 -10 -8 -10c-1 0 -2 0 -3 1 c-1 0 -14 13 -14 37c0 31 20 54 50 54c32 0 47 -27 47 -55c0 -49 -25 -76 -44 -76c-16 0 -22 11 -22 29v29h-6c-3 0 -5 2 -5 4c0 5 3 7 7 7z"
         id="glyph2630" />
      <glyph
         glyph-name="eth"
         unicode="ð"
         horiz-adv-x="59"
         d="M10 91c0 0 6 3 13 9c-5 6 -10 9 -12 9c-1 0 -2 -1 -3 -1s-1 0 -1 2c0 3 6 11 10 11c2 0 3 -1 5 -2l11 -11c4 3 8 7 12 11c1 7 10 -8 6 -11c-5 -3 -8 -5 -12 -8c9 -14 17 -34 17 -61c0 -23 -8 -44 -27 -44c-17 0 -25 17 -25 34c0 25 15 39 24 39c3 0 6 -4 6 -8 c0 -2 -2 -4 -5 -3c-5 -3 -12 -8 -12 -27c0 -15 5 -23 12 -23c10 0 14 14 14 31c0 25 -7 42 -14 54c-7 -5 -10 -8 -10 -8c-4 -3 -13 4 -9 7z"
         id="glyph2632" />
      <glyph
         glyph-name="Dcroat"
         unicode="Đ"
         horiz-adv-x="105"
         d="M30 62h4v26c0 3 -1 5 -1 6c0 2 3 3 5 3c6 0 10 -4 10 -8v-27h11c3 0 4 -1 4 -4s-1 -7 -4 -7h-1h-10v-30c0 -10 2 -14 9 -14c13 0 29 26 29 61c0 23 -10 43 -33 43c-29 0 -36 -22 -36 -40c0 -17 8 -25 9 -26c2 1 2 -1 2 -3c0 -4 -4 -10 -8 -10c-1 0 -2 0 -3 1 c-1 0 -14 13 -14 37c0 31 20 54 50 54c32 0 47 -27 47 -55c0 -49 -25 -76 -44 -76c-16 0 -22 11 -22 29v29h-6c-3 0 -5 2 -5 4c0 5 3 7 7 7z"
         id="glyph2634" />
      <glyph
         glyph-name="dcroat"
         unicode="đ"
         horiz-adv-x="63"
         d="M25 -5c-13 0 -22 10 -22 28c0 26 16 41 35 44v12h-13c-3 0 -5 2 -5 4c0 5 3 8 7 8h11v16c0 5 -2 5 -2 6s4 2 6 2c6 0 9 -4 9 -8v-16h7c3 0 4 -2 4 -5s-2 -7 -5 -7v0h-6v-64c0 -4 2 -8 6 -8c7 0 10 10 12 18c1 4 2 5 4 5c3 0 6 -4 6 -7v-1c-3 -11 -10 -27 -25 -27 c-6 0 -10 3 -13 7c-4 -4 -9 -7 -16 -7zM28 7c4 0 8 2 10 6v43c-11 -2 -22 -10 -22 -32c0 -12 6 -17 12 -17z"
         id="glyph2636" />
      <glyph
         glyph-name="Egrave"
         unicode="È"
         horiz-adv-x="77"
         d="M73 12c-3 -5 -14 -19 -36 -19c-17 0 -30 10 -30 28c0 13 7 22 15 26c-8 5 -15 13 -15 28c0 23 21 49 46 49c16 0 25 -10 25 -23c0 -18 -15 -36 -32 -36c-4 0 -9 3 -9 9c0 2 0 6 1 6s2 -2 7 -2c11 0 19 12 19 23c0 6 -5 10 -11 10c-17 0 -32 -18 -32 -35 c0 -13 10 -22 18 -23h1c2 0 3 -2 3 -4c0 -4 -2 -9 -4 -9c-7 -1 -18 -5 -18 -19c0 -9 7 -15 17 -15c15 0 23 9 25 14c1 2 3 3 4 3c3 0 7 -4 7 -8c0 -1 -1 -2 -1 -3zM50 133l-16 18c-1 1 -2 1 -2 2c0 3 5 6 7 6s4 -1 5 -3l16 -18c1 -1 2 -2 2 -3c0 -2 -3 -4 -8 -4 c-2 0 -3 1 -4 2z"
         id="glyph2638" />
      <glyph
         glyph-name="egrave"
         unicode="è"
         horiz-adv-x="51"
         d="M46 50c0 -13 -9 -28 -26 -33c2 -6 7 -10 16 -10c13 0 19 10 21 21c2 8 12 5 11 -1c-1 -11 -9 -32 -34 -32c-16 0 -30 12 -30 34s13 39 26 39c10 0 16 -8 16 -18zM18 30v-3c9 4 14 13 14 23c0 4 -1 6 -3 6c-8 0 -11 -19 -11 -26zM30 78l-16 18c-1 1 -1 2 -1 3c0 3 5 5 7 5 s4 -1 5 -3l15 -18c1 -1 2 -2 2 -3c0 -2 -3 -4 -8 -4c-2 0 -3 1 -4 2z"
         id="glyph2640" />
      <glyph
         glyph-name="Eacute"
         unicode="É"
         horiz-adv-x="77"
         d="M73 12c-3 -5 -14 -19 -36 -19c-17 0 -30 10 -30 28c0 13 7 22 15 26c-8 5 -15 13 -15 28c0 23 21 49 46 49c16 0 25 -10 25 -23c0 -18 -15 -36 -32 -36c-4 0 -9 3 -9 9c0 2 0 6 1 6s2 -2 7 -2c11 0 19 12 19 23c0 6 -5 10 -11 10c-17 0 -32 -18 -32 -35 c0 -13 10 -22 18 -23h1c2 0 3 -2 3 -4c0 -4 -2 -9 -4 -9c-7 -1 -18 -5 -18 -19c0 -9 7 -15 17 -15c15 0 23 9 25 14c1 2 3 3 4 3c3 0 7 -4 7 -8c0 -1 -1 -2 -1 -3zM66 151l-16 -17c-1 -2 -4 -3 -6 -3c-5 0 -6 2 -6 4c0 1 0 2 1 3l16 18c0 2 4 3 6 3c3 0 7 -2 7 -5 c0 -2 -1 -2 -2 -3z"
         id="glyph2642" />
      <glyph
         glyph-name="eacute"
         unicode="é"
         horiz-adv-x="51"
         d="M46 50c0 -13 -9 -28 -26 -33c2 -6 7 -10 16 -10c13 0 19 10 21 21c2 8 12 5 11 -1c-1 -11 -9 -32 -34 -32c-16 0 -30 12 -30 34s13 39 26 39c10 0 16 -8 16 -18zM18 30v-3c9 4 14 13 14 23c0 4 -1 6 -3 6c-8 0 -11 -19 -11 -26zM46 96l-16 -16c-1 -2 -3 -4 -5 -4 c-5 0 -7 2 -7 4c0 1 0 2 1 3l16 18c0 2 4 3 6 3c3 0 7 -2 7 -5c0 -2 -1 -2 -2 -3z"
         id="glyph2644" />
      <glyph
         glyph-name="Ecircumflex"
         unicode="Ê"
         horiz-adv-x="77"
         d="M73 12c-3 -5 -14 -19 -36 -19c-17 0 -30 10 -30 28c0 13 7 22 15 26c-8 5 -15 13 -15 28c0 23 21 49 46 49c16 0 25 -10 25 -23c0 -18 -15 -36 -32 -36c-4 0 -9 3 -9 9c0 2 0 6 1 6s2 -2 7 -2c11 0 19 12 19 23c0 6 -5 10 -11 10c-17 0 -32 -18 -32 -35 c0 -13 10 -22 18 -23h1c2 0 3 -2 3 -4c0 -4 -2 -9 -4 -9c-7 -1 -18 -5 -18 -19c0 -9 7 -15 17 -15c15 0 23 9 25 14c1 2 3 3 4 3c3 0 7 -4 7 -8c0 -1 -1 -2 -1 -3zM57 154l11 -16c1 -1 2 -2 2 -3c0 -2 -3 -4 -8 -4c-2 0 -3 1 -4 2l-9 13l-7 -12c-1 -2 -1 -3 -4 -3s-8 3 -8 5 l1 1l12 17c2 3 5 5 8 5c4 0 5 -2 6 -5z"
         id="glyph2646" />
      <glyph
         glyph-name="ecircumflex"
         unicode="ê"
         horiz-adv-x="51"
         d="M46 50c0 -13 -9 -28 -26 -33c2 -6 7 -10 16 -10c13 0 19 10 21 21c2 8 12 5 11 -1c-1 -11 -9 -32 -34 -32c-16 0 -30 12 -30 34s13 39 26 39c10 0 16 -8 16 -18zM18 30v-3c9 4 14 13 14 23c0 4 -1 6 -3 6c-8 0 -11 -19 -11 -26zM37 100l11 -17c1 -1 2 -2 2 -3 c0 -2 -3 -4 -8 -4c-2 0 -3 1 -4 2l-8 13l-8 -12c-1 -2 -1 -3 -4 -3s-7 4 -7 6v1l12 17c2 3 5 4 8 4c4 0 5 -1 6 -4z"
         id="glyph2648" />
      <glyph
         glyph-name="Edieresis"
         unicode="Ë"
         horiz-adv-x="77"
         d="M73 12c-3 -5 -14 -19 -36 -19c-17 0 -30 10 -30 28c0 13 7 22 15 26c-8 5 -15 13 -15 28c0 23 21 49 46 49c16 0 25 -10 25 -23c0 -18 -15 -36 -32 -36c-4 0 -9 3 -9 9c0 2 0 6 1 6s2 -2 7 -2c11 0 19 12 19 23c0 6 -5 10 -11 10c-17 0 -32 -18 -32 -35 c0 -13 10 -22 18 -23h1c2 0 3 -2 3 -4c0 -4 -2 -9 -4 -9c-7 -1 -18 -5 -18 -19c0 -9 7 -15 17 -15c15 0 23 9 25 14c1 2 3 3 4 3c3 0 7 -4 7 -8c0 -1 -1 -2 -1 -3zM29 143c0 4 5 8 9 8s8 -4 8 -8s-4 -9 -8 -9s-9 5 -9 9zM54 143c0 4 4 8 8 8s9 -4 9 -8s-5 -9 -9 -9 s-8 5 -8 9z"
         id="glyph2650" />
      <glyph
         glyph-name="edieresis"
         unicode="ë"
         horiz-adv-x="51"
         d="M46 50c0 -13 -9 -28 -26 -33c2 -6 7 -10 16 -10c13 0 19 10 21 21c2 8 12 5 11 -1c-1 -11 -9 -32 -34 -32c-16 0 -30 12 -30 34s13 39 26 39c10 0 16 -8 16 -18zM18 30v-3c9 4 14 13 14 23c0 4 -1 6 -3 6c-8 0 -11 -19 -11 -26zM10 88c0 4 4 8 8 8s8 -4 8 -8s-4 -8 -8 -8 s-8 4 -8 8zM35 88c0 4 4 8 8 8s8 -4 8 -8s-4 -8 -8 -8s-8 4 -8 8z"
         id="glyph2652" />
      <glyph
         glyph-name="Emacron"
         unicode="Ē"
         horiz-adv-x="77"
         d="M73 12c-3 -5 -14 -19 -36 -19c-17 0 -30 10 -30 28c0 13 7 22 15 26c-8 5 -15 13 -15 28c0 23 21 49 46 49c16 0 25 -10 25 -23c0 -18 -15 -36 -32 -36c-4 0 -9 3 -9 9c0 2 0 6 1 6s2 -2 7 -2c11 0 19 12 19 23c0 6 -5 10 -11 10c-17 0 -32 -18 -32 -35 c0 -13 10 -22 18 -23h1c2 0 3 -2 3 -4c0 -4 -2 -9 -4 -9c-7 -1 -18 -5 -18 -19c0 -9 7 -15 17 -15c15 0 23 9 25 14c1 2 3 3 4 3c3 0 7 -4 7 -8c0 -1 -1 -2 -1 -3zM36 147h30c3 0 4 -2 4 -5s-2 -7 -5 -7v0h-30c-3 0 -5 2 -5 4c0 5 2 8 6 8z"
         id="glyph2654" />
      <glyph
         glyph-name="emacron"
         unicode="ē"
         horiz-adv-x="51"
         d="M46 50c0 -13 -9 -28 -26 -33c2 -6 7 -10 16 -10c13 0 19 10 21 21c2 8 12 5 11 -1c-1 -11 -9 -32 -34 -32c-16 0 -30 12 -30 34s13 39 26 39c10 0 16 -8 16 -18zM18 30v-3c9 4 14 13 14 23c0 4 -1 6 -3 6c-8 0 -11 -19 -11 -26zM17 92h29c3 0 4 -1 4 -4s-1 -7 -4 -7h-1 h-30c-3 0 -5 2 -5 4c0 5 3 7 7 7z"
         id="glyph2656" />
      <glyph
         glyph-name="Ebreve"
         unicode="Ĕ"
         horiz-adv-x="77"
         d="M73 12c-3 -5 -14 -19 -36 -19c-17 0 -30 10 -30 28c0 13 7 22 15 26c-8 5 -15 13 -15 28c0 23 21 49 46 49c16 0 25 -10 25 -23c0 -18 -15 -36 -32 -36c-4 0 -9 3 -9 9c0 2 0 6 1 6s2 -2 7 -2c11 0 19 12 19 23c0 6 -5 10 -11 10c-17 0 -32 -18 -32 -35 c0 -13 10 -22 18 -23h1c2 0 3 -2 3 -4c0 -4 -2 -9 -4 -9c-7 -1 -18 -5 -18 -19c0 -9 7 -15 17 -15c15 0 23 9 25 14c1 2 3 3 4 3c3 0 7 -4 7 -8c0 -1 -1 -2 -1 -3zM50 133c-8 0 -21 4 -21 20c0 2 3 4 8 4c2 0 3 0 4 -1c0 -5 1 -13 9 -13s8 7 8 11c0 1 1 3 4 3s8 -3 8 -5 c0 -17 -14 -19 -20 -19z"
         id="glyph2658" />
      <glyph
         glyph-name="ebreve"
         unicode="ĕ"
         horiz-adv-x="51"
         d="M46 50c0 -13 -9 -28 -26 -33c2 -6 7 -10 16 -10c13 0 19 10 21 21c2 8 12 5 11 -1c-1 -11 -9 -32 -34 -32c-16 0 -30 12 -30 34s13 39 26 39c10 0 16 -8 16 -18zM18 30v-3c9 4 14 13 14 23c0 4 -1 6 -3 6c-8 0 -11 -19 -11 -26zM30 78c-8 0 -21 5 -21 21c0 2 3 4 8 4 c2 0 3 -1 4 -2c0 -5 1 -12 9 -12s8 7 8 11c0 1 2 3 5 3s7 -3 7 -5c0 -17 -14 -20 -20 -20z"
         id="glyph2660" />
      <glyph
         glyph-name="Edotaccent"
         unicode="Ė"
         horiz-adv-x="77"
         d="M73 12c-3 -5 -14 -19 -36 -19c-17 0 -30 10 -30 28c0 13 7 22 15 26c-8 5 -15 13 -15 28c0 23 21 49 46 49c16 0 25 -10 25 -23c0 -18 -15 -36 -32 -36c-4 0 -9 3 -9 9c0 2 0 6 1 6s2 -2 7 -2c11 0 19 12 19 23c0 6 -5 10 -11 10c-17 0 -32 -18 -32 -35 c0 -13 10 -22 18 -23h1c2 0 3 -2 3 -4c0 -4 -2 -9 -4 -9c-7 -1 -18 -5 -18 -19c0 -9 7 -15 17 -15c15 0 23 9 25 14c1 2 3 3 4 3c3 0 7 -4 7 -8c0 -1 -1 -2 -1 -3zM41 141c0 5 4 9 9 9s9 -4 9 -9s-4 -8 -9 -8s-9 3 -9 8z"
         id="glyph2662" />
      <glyph
         glyph-name="edotaccent"
         unicode="ė"
         horiz-adv-x="51"
         d="M46 50c0 -13 -9 -28 -26 -33c2 -6 7 -10 16 -10c13 0 19 10 21 21c2 8 12 5 11 -1c-1 -11 -9 -32 -34 -32c-16 0 -30 12 -30 34s13 39 26 39c10 0 16 -8 16 -18zM18 30v-3c9 4 14 13 14 23c0 4 -1 6 -3 6c-8 0 -11 -19 -11 -26zM22 87c0 5 3 8 8 8s9 -3 9 -8s-4 -9 -9 -9 s-8 4 -8 9z"
         id="glyph2664" />
      <glyph
         glyph-name="Eogonek"
         unicode="Ę"
         horiz-adv-x="77"
         d="M73 12c-3 -4 -8 -10 -17 -15c-6 -3 -15 -10 -15 -16c0 -3 2 -6 8 -6c3 0 9 0 11 1s2 -2 2 -4c0 -5 -4 -7 -14 -7c-14 0 -18 8 -18 14c0 5 2 10 6 14c-16 1 -29 11 -29 28c0 13 7 22 15 26c-8 5 -15 13 -15 28c0 23 21 49 46 49c16 0 25 -10 25 -23c0 -18 -15 -36 -32 -36 c-4 0 -9 3 -9 9c0 2 0 6 1 6s2 -2 7 -2c11 0 19 12 19 23c0 6 -5 10 -11 10c-17 0 -32 -18 -32 -35c0 -13 10 -22 18 -23h1c2 0 3 -2 3 -4c0 -4 -2 -9 -4 -9c-7 -1 -18 -5 -18 -19c0 -9 7 -15 17 -15c15 0 23 9 25 14c1 2 3 3 4 3c3 0 7 -4 7 -8c0 -1 -1 -2 -1 -3z"
         id="glyph2666" />
      <glyph
         glyph-name="eogonek"
         unicode="ę"
         horiz-adv-x="51"
         d="M46 50c0 -13 -9 -28 -26 -33c2 -6 7 -10 16 -10c13 0 19 10 21 21c2 8 12 5 11 -1c-2 -14 -8 -25 -22 -30c-7 -3 -16 -10 -16 -16c0 -3 2 -7 8 -7c3 0 9 1 11 2s2 -2 2 -4c0 -5 -3 -8 -13 -8c-14 0 -19 9 -19 15s3 12 10 17c-14 3 -25 15 -25 33c0 22 13 39 26 39 c10 0 16 -8 16 -18zM18 30v-3c9 4 14 13 14 23c0 4 -1 6 -3 6c-8 0 -11 -19 -11 -26z"
         id="glyph2668" />
      <glyph
         glyph-name="Ecaron"
         unicode="Ě"
         horiz-adv-x="77"
         d="M73 12c-3 -5 -14 -19 -36 -19c-17 0 -30 10 -30 28c0 13 7 22 15 26c-8 5 -15 13 -15 28c0 23 21 49 46 49c16 0 25 -10 25 -23c0 -18 -15 -36 -32 -36c-4 0 -9 3 -9 9c0 2 0 6 1 6s2 -2 7 -2c11 0 19 12 19 23c0 6 -5 10 -11 10c-17 0 -32 -18 -32 -35 c0 -13 10 -22 18 -23h1c2 0 3 -2 3 -4c0 -4 -2 -9 -4 -9c-7 -1 -18 -5 -18 -19c0 -9 7 -15 17 -15c15 0 23 9 25 14c1 2 3 3 4 3c3 0 7 -4 7 -8c0 -1 -1 -2 -1 -3zM43 136l-12 16c-1 1 -1 2 -1 3c0 2 3 4 8 4c2 0 3 -1 4 -2l8 -13l7 12c0 1 2 3 5 3s7 -3 7 -5 c0 -1 -1 -2 -1 -2l-11 -16c-1 -3 -3 -5 -6 -5c-5 0 -5 1 -8 5z"
         id="glyph2670" />
      <glyph
         glyph-name="ecaron"
         unicode="ě"
         horiz-adv-x="51"
         d="M46 50c0 -13 -9 -28 -26 -33c2 -6 7 -10 16 -10c13 0 19 10 21 21c2 8 12 5 11 -1c-1 -11 -9 -32 -34 -32c-16 0 -30 12 -30 34s13 39 26 39c10 0 16 -8 16 -18zM18 30v-3c9 4 14 13 14 23c0 4 -1 6 -3 6c-8 0 -11 -19 -11 -26zM23 81l-11 17c-1 1 -2 2 -2 3c0 2 3 3 8 3 c2 0 3 0 4 -1l8 -13l8 12c0 1 1 2 4 2s7 -3 7 -5c0 -1 -1 -2 -1 -2l-11 -16c-1 -3 -3 -5 -6 -5c-5 0 -5 1 -8 5z"
         id="glyph2672" />
      <glyph
         glyph-name="Gcircumflex"
         unicode="Ĝ"
         horiz-adv-x="88"
         d="M66 10c-7 -11 -16 -17 -27 -17c-21 0 -33 22 -33 54c0 34 22 77 56 77c12 0 22 -9 22 -22c0 -19 -21 -35 -36 -35c-4 0 -7 2 -7 8c0 2 1 7 2 7s1 -2 6 -2c9 0 22 10 22 21c0 4 -3 10 -11 10c-22 0 -40 -34 -40 -64c0 -25 9 -40 20 -40c18 0 26 24 26 38v5c0 3 3 4 6 4 s9 -3 9 -7c-1 -9 -1 -17 -1 -26v-27c3 1 6 1 9 1c8 1 4 -14 -2 -14h-8c-1 -19 -5 -42 -25 -42c-12 0 -19 8 -19 20c0 18 16 27 32 32v2c0 7 -1 13 -1 17zM54 -48c8 0 11 12 12 26c-11 -4 -18 -9 -18 -18c0 -5 3 -8 6 -8zM67 154l11 -17c1 -1 2 -1 2 -2c0 -2 -3 -4 -8 -4 c-2 0 -3 0 -4 1l-8 13l-8 -11c-1 -2 -1 -3 -4 -3s-8 3 -8 5l1 1l12 17c2 3 5 5 8 5c4 0 5 -2 6 -5z"
         id="glyph2674" />
      <glyph
         glyph-name="gcircumflex"
         unicode="ĝ"
         horiz-adv-x="60"
         d="M16 -51c0 17 11 26 22 36v18c-3 -3 -8 -6 -14 -6c-13 0 -21 11 -21 26c0 29 20 47 41 47c5 0 8 -4 8 -8c0 -3 0 -4 -2 -4s-3 1 -5 1c-13 0 -29 -12 -29 -37c0 -9 4 -14 10 -14c7 0 11 9 12 16v20c0 3 -1 4 -1 5c0 2 3 3 5 3c6 0 9 -3 9 -7v-47c6 7 12 15 15 27 c1 4 2 5 4 5c3 0 6 -4 6 -7v-1c-6 -20 -16 -31 -25 -39v-30c0 -18 -9 -24 -18 -24c-10 0 -17 9 -17 20zM33 -60c6 0 5 10 5 13v19c-6 -6 -9 -13 -9 -23c0 -5 1 -9 4 -9zM45 102l12 -17c1 -1 1 -1 1 -2c0 -2 -3 -4 -8 -4c-2 0 -3 0 -4 1l-8 13l-8 -12c-1 -2 -1 -2 -4 -2 s-7 3 -7 5v1l12 17c2 3 5 5 8 5c4 0 5 -2 6 -5z"
         id="glyph2676" />
      <glyph
         glyph-name="Gbreve"
         unicode="Ğ"
         horiz-adv-x="88"
         d="M66 10c-7 -11 -16 -17 -27 -17c-21 0 -33 22 -33 54c0 34 22 77 56 77c12 0 22 -9 22 -22c0 -19 -21 -35 -36 -35c-4 0 -7 2 -7 8c0 2 1 7 2 7s1 -2 6 -2c9 0 22 10 22 21c0 4 -3 10 -11 10c-22 0 -40 -34 -40 -64c0 -25 9 -40 20 -40c18 0 26 24 26 38v5c0 3 3 4 6 4 s9 -3 9 -7c-1 -9 -1 -17 -1 -26v-27c3 1 6 1 9 1c8 1 4 -14 -2 -14h-8c-1 -19 -5 -42 -25 -42c-12 0 -19 8 -19 20c0 18 16 27 32 32v2c0 7 -1 13 -1 17zM54 -48c8 0 11 12 12 26c-11 -4 -18 -9 -18 -18c0 -5 3 -8 6 -8zM60 132c-8 0 -21 5 -21 21c0 2 3 4 8 4 c2 0 3 -1 4 -2c0 -5 1 -12 9 -12s8 7 8 11c0 1 1 3 4 3s8 -3 8 -5c0 -17 -14 -20 -20 -20z"
         id="glyph2678" />
      <glyph
         glyph-name="gbreve"
         unicode="ğ"
         horiz-adv-x="60"
         d="M16 -51c0 17 11 26 22 36v18c-3 -3 -8 -6 -14 -6c-13 0 -21 11 -21 26c0 29 20 47 41 47c5 0 8 -4 8 -8c0 -3 0 -4 -2 -4s-3 1 -5 1c-13 0 -29 -12 -29 -37c0 -9 4 -14 10 -14c7 0 11 9 12 16v20c0 3 -1 4 -1 5c0 2 3 3 5 3c6 0 9 -3 9 -7v-47c6 7 12 15 15 27 c1 4 2 5 4 5c3 0 6 -4 6 -7v-1c-6 -20 -16 -31 -25 -39v-30c0 -18 -9 -24 -18 -24c-10 0 -17 9 -17 20zM33 -60c6 0 5 10 5 13v19c-6 -6 -9 -13 -9 -23c0 -5 1 -9 4 -9zM39 80c-8 0 -22 5 -22 21c0 2 3 4 8 4c2 0 3 -1 4 -2c0 -5 1 -12 9 -12s9 7 9 11c0 1 1 3 4 3 s7 -3 7 -5c0 -17 -13 -20 -19 -20z"
         id="glyph2680" />
      <glyph
         glyph-name="Gdotaccent"
         unicode="Ġ"
         horiz-adv-x="88"
         d="M66 10c-7 -11 -16 -17 -27 -17c-21 0 -33 22 -33 54c0 34 22 77 56 77c12 0 22 -9 22 -22c0 -19 -21 -35 -36 -35c-4 0 -7 2 -7 8c0 2 1 7 2 7s1 -2 6 -2c9 0 22 10 22 21c0 4 -3 10 -11 10c-22 0 -40 -34 -40 -64c0 -25 9 -40 20 -40c18 0 26 24 26 38v5c0 3 3 4 6 4 s9 -3 9 -7c-1 -9 -1 -17 -1 -26v-27c3 1 6 1 9 1c8 1 4 -14 -2 -14h-8c-1 -19 -5 -42 -25 -42c-12 0 -19 8 -19 20c0 18 16 27 32 32v2c0 7 -1 13 -1 17zM54 -48c8 0 11 12 12 26c-11 -4 -18 -9 -18 -18c0 -5 3 -8 6 -8zM51 141c0 5 4 9 9 9s9 -4 9 -9s-4 -9 -9 -9 s-9 4 -9 9z"
         id="glyph2682" />
      <glyph
         glyph-name="gdotaccent"
         unicode="ġ"
         horiz-adv-x="60"
         d="M16 -51c0 17 11 26 22 36v18c-3 -3 -8 -6 -14 -6c-13 0 -21 11 -21 26c0 29 20 47 41 47c5 0 8 -4 8 -8c0 -3 0 -4 -2 -4s-3 1 -5 1c-13 0 -29 -12 -29 -37c0 -9 4 -14 10 -14c7 0 11 9 12 16v20c0 3 -1 4 -1 5c0 2 3 3 5 3c6 0 9 -3 9 -7v-47c6 7 12 15 15 27 c1 4 2 5 4 5c3 0 6 -4 6 -7v-1c-6 -20 -16 -31 -25 -39v-30c0 -18 -9 -24 -18 -24c-10 0 -17 9 -17 20zM33 -60c6 0 5 10 5 13v19c-6 -6 -9 -13 -9 -23c0 -5 1 -9 4 -9zM30 89c0 5 3 9 8 9s9 -4 9 -9s-4 -9 -9 -9s-8 4 -8 9z"
         id="glyph2684" />
      <glyph
         glyph-name="Gcommaaccent"
         unicode="Ģ"
         horiz-adv-x="88"
         d="M44 -58c-8 5 6 17 8 11c1 -1 1 -1 2 -1c11 0 13 23 13 41c0 7 -1 13 -1 17c-7 -11 -16 -17 -27 -17c-21 0 -33 22 -33 54c0 34 22 77 56 77c12 0 22 -9 22 -22c0 -19 -21 -35 -36 -35c-4 0 -7 2 -7 8c0 2 1 7 2 7s1 -2 6 -2c9 0 22 10 22 21c0 4 -3 10 -11 10 c-22 0 -40 -34 -40 -64c0 -25 9 -40 20 -40c18 0 26 24 26 38v5c0 3 3 4 6 4s9 -3 9 -7c-1 -9 -1 -17 -1 -26v-29c0 -20 -2 -53 -26 -53c-4 0 -7 1 -10 3zM40 -14c4 0 8 -3 8 -9c0 -7 -7 -18 -11 -18c-3 0 -5 3 -5 5c0 1 0 1 1 1s3 3 5 6c-3 1 -6 3 -6 7c0 5 4 8 8 8z"
         id="glyph2686" />
      <glyph
         glyph-name="gcommaaccent"
         unicode="ģ"
         horiz-adv-x="60"
         d="M16 -51c0 17 11 26 22 36v18c-3 -3 -8 -6 -14 -6c-13 0 -21 11 -21 26c0 29 20 47 41 47c5 0 8 -4 8 -8c0 -3 0 -4 -2 -4s-3 1 -5 1c-13 0 -29 -12 -29 -37c0 -9 4 -14 10 -14c7 0 11 9 12 16v20c0 3 -1 4 -1 5c0 2 3 3 5 3c6 0 9 -3 9 -7v-47c6 7 12 15 15 27 c1 4 2 5 4 5c3 0 6 -4 6 -7v-1c-6 -20 -16 -31 -25 -39v-30c0 -18 -9 -24 -18 -24c-10 0 -17 9 -17 20zM39 78c-4 0 -8 4 -8 10c0 7 8 17 12 17c3 0 5 -3 5 -5c0 -1 0 -1 -1 -1s-4 -3 -6 -6c3 -1 6 -3 6 -7c0 -5 -4 -8 -8 -8zM33 -60c6 0 5 10 5 13v19c-6 -6 -9 -13 -9 -23 c0 -5 1 -9 4 -9z"
         id="glyph2688" />
      <glyph
         glyph-name="Hcircumflex"
         unicode="Ĥ"
         horiz-adv-x="117"
         d="M67 114v-62h27v59c0 12 4 19 9 19s9 -7 9 -9c0 -3 -5 2 -5 -13v-109c0 -3 -1 -4 -4 -4c-4 0 -9 2 -9 5v40h-27v-41c0 -3 -2 -4 -5 -4c-4 0 -9 2 -9 5v40h-12c-4 0 -6 5 -6 9c0 2 1 3 3 3h15v56c-21 0 -36 -15 -36 -38c0 -15 7 -24 9 -24c1 0 1 1 2 1s1 -2 1 -3 c0 -7 -6 -13 -11 -9c-6 4 -15 16 -15 35c0 37 31 51 57 51c4 0 7 -3 7 -7zM83 152l11 -17c1 -1 2 -1 2 -2c0 -2 -3 -4 -8 -4c-2 0 -3 0 -4 1l-8 13l-8 -12c-1 -2 -1 -2 -4 -2s-7 3 -7 5v1l12 17c2 3 5 5 8 5c4 0 5 -2 6 -5z"
         id="glyph2690" />
      <glyph
         glyph-name="hcircumflex"
         unicode="ĥ"
         horiz-adv-x="63"
         d="M6 3v104c0 5 -2 5 -2 6s4 2 6 2c6 0 9 -4 9 -8v-56c5 10 12 17 20 17c12 0 14 -10 14 -18v-35c0 -2 0 -8 4 -8c7 0 10 10 12 18c2 11 11 3 10 -3c-3 -11 -10 -27 -25 -27c-9 0 -14 7 -14 16v36c0 5 -1 9 -4 9c-5 0 -16 -14 -17 -28v-25c0 -3 0 -8 -5 -8c-3 0 -8 2 -8 8z M19 145l11 -16c1 -1 2 -2 2 -3c0 -2 -3 -4 -8 -4c-2 0 -3 1 -4 2l-8 13l-8 -12c-1 -2 -1 -3 -4 -3s-7 4 -7 6v0l12 17c2 3 5 5 8 5c4 0 5 -2 6 -5z"
         id="glyph2692" />
      <glyph
         glyph-name="Hbar"
         unicode="Ħ"
         horiz-adv-x="117"
         d="M107 108v-24h7c3 0 4 -2 4 -5s-1 -7 -4 -7h-1h-6v-73c0 -3 -1 -4 -4 -4c-4 0 -9 2 -9 5v40h-27v-41c0 -3 -2 -4 -5 -4c-4 0 -9 2 -9 5v72h-9c-3 0 -5 2 -5 4c0 5 3 8 7 8h7v24c-21 0 -36 -15 -36 -38c0 -15 7 -24 9 -24c1 0 1 1 2 1s1 -2 1 -3c0 -7 -6 -13 -11 -9 c-6 4 -15 16 -15 35c0 37 31 51 57 51c4 0 7 -3 7 -7v-30h27v27c0 12 4 19 9 19s9 -7 9 -9c0 -3 -5 2 -5 -13zM67 72v-20h27v20h-27z"
         id="glyph2694" />
      <glyph
         glyph-name="hbar"
         unicode="ħ"
         horiz-adv-x="63"
         d="M6 3v76h-5c-3 0 -5 2 -5 4c0 5 2 8 6 8h4v16c0 5 -2 5 -2 6s4 2 6 2c6 0 9 -4 9 -8v-16h15c3 0 4 -2 4 -5s-2 -7 -5 -7h-1h-13v-28c5 10 12 17 20 17c12 0 14 -10 14 -18v-35c0 -2 0 -8 4 -8c7 0 10 10 12 18c2 11 11 3 10 -3c-3 -11 -10 -27 -25 -27c-9 0 -14 7 -14 16 v36c0 5 -1 9 -4 9c-5 0 -16 -14 -17 -28v-25c0 -3 0 -8 -5 -8c-3 0 -8 2 -8 8z"
         id="glyph2696" />
      <glyph
         glyph-name="Igrave"
         unicode="Ì"
         horiz-adv-x="68"
         d="M59 114v-115c0 -3 -2 -4 -5 -4c-4 0 -9 2 -9 5v108c-16 -2 -28 -14 -28 -36c0 -14 7 -22 9 -22c1 0 1 1 2 1s1 -2 1 -3c0 -7 -6 -14 -11 -10c-6 4 -15 17 -15 34c0 37 29 49 49 49c4 0 7 -3 7 -7zM48 130l-16 18c-1 1 -2 2 -2 3c0 3 6 5 8 5s4 -1 5 -3l15 -18 c1 -1 2 -2 2 -3c0 -2 -3 -4 -8 -4c-2 0 -3 1 -4 2z"
         id="glyph2698" />
      <glyph
         glyph-name="igrave"
         unicode="ì"
         horiz-adv-x="29"
         d="M19 58v-43c0 -2 1 -8 5 -8c7 0 9 10 11 18c2 11 11 3 10 -3c-3 -11 -9 -27 -24 -27c-9 0 -15 7 -15 16v47c0 3 -1 4 -1 5c0 2 3 3 5 3c6 0 9 -4 9 -8zM13 77l-17 18c-1 1 -1 2 -1 3c0 3 5 6 7 6s4 -2 5 -4l16 -18c1 -1 1 -1 1 -2c0 -2 -3 -4 -8 -4c-2 0 -2 0 -3 1z"
         id="glyph2700" />
      <glyph
         glyph-name="Iacute"
         unicode="Í"
         horiz-adv-x="68"
         d="M59 114v-115c0 -3 -2 -4 -5 -4c-4 0 -9 2 -9 5v108c-16 -2 -28 -14 -28 -36c0 -14 7 -22 9 -22c1 0 1 1 2 1s1 -2 1 -3c0 -7 -6 -14 -11 -10c-6 4 -15 17 -15 34c0 37 29 49 49 49c4 0 7 -3 7 -7zM64 148l-16 -17c-1 -2 -3 -3 -5 -3c-5 0 -7 2 -7 4c0 1 0 2 1 3l16 18 c0 2 4 3 6 3c3 0 7 -2 7 -5c0 -2 -1 -2 -2 -3z"
         id="glyph2702" />
      <glyph
         glyph-name="iacute"
         unicode="í"
         horiz-adv-x="29"
         d="M19 58v-43c0 -2 1 -8 5 -8c7 0 9 10 11 18c2 11 11 3 10 -3c-3 -11 -9 -27 -24 -27c-9 0 -15 7 -15 16v47c0 3 -1 4 -1 5c0 2 3 3 5 3c6 0 9 -4 9 -8zM28 95l-15 -16c-1 -2 -4 -3 -6 -3c-5 0 -7 2 -7 4c0 1 1 1 2 2l15 18c0 2 4 4 6 4c3 0 7 -2 7 -5c0 -2 -1 -3 -2 -4z "
         id="glyph2704" />
      <glyph
         glyph-name="Icircumflex"
         unicode="Î"
         horiz-adv-x="68"
         d="M59 114v-115c0 -3 -2 -4 -5 -4c-4 0 -9 2 -9 5v108c-16 -2 -28 -14 -28 -36c0 -14 7 -22 9 -22c1 0 1 1 2 1s1 -2 1 -3c0 -7 -6 -14 -11 -10c-6 4 -15 17 -15 34c0 37 29 49 49 49c4 0 7 -3 7 -7zM55 151l11 -16c1 -1 2 -2 2 -3c0 -2 -3 -4 -8 -4c-2 0 -3 1 -4 2l-8 13 l-8 -12c-1 -2 -1 -3 -4 -3s-7 3 -7 5v1l12 17c2 3 5 5 8 5c4 0 5 -2 6 -5z"
         id="glyph2706" />
      <glyph
         glyph-name="icircumflex"
         unicode="î"
         horiz-adv-x="29"
         d="M19 58v-43c0 -2 1 -8 5 -8c7 0 9 10 11 18c2 11 11 3 10 -3c-3 -11 -9 -27 -24 -27c-9 0 -15 7 -15 16v47c0 3 -1 4 -1 5c0 2 3 3 5 3c6 0 9 -4 9 -8zM19 99l12 -17c1 -1 1 -1 1 -2c0 -2 -3 -4 -8 -4c-2 0 -2 0 -3 1l-9 13l-7 -11c-1 -2 -1 -3 -4 -3s-8 3 -8 5v1l13 17 c2 3 4 5 7 5c4 0 5 -2 6 -5z"
         id="glyph2708" />
      <glyph
         glyph-name="Idieresis"
         unicode="Ï"
         horiz-adv-x="68"
         d="M59 114v-115c0 -3 -2 -4 -5 -4c-4 0 -9 2 -9 5v108c-16 -2 -28 -14 -28 -36c0 -14 7 -22 9 -22c1 0 1 1 2 1s1 -2 1 -3c0 -7 -6 -14 -11 -10c-6 4 -15 17 -15 34c0 37 29 49 49 49c4 0 7 -3 7 -7zM28 140c0 4 4 8 8 8s8 -4 8 -8s-4 -9 -8 -9s-8 5 -8 9zM52 140 c0 4 5 8 9 8s8 -4 8 -8s-4 -9 -8 -9s-9 5 -9 9z"
         id="glyph2710" />
      <glyph
         glyph-name="idieresis"
         unicode="ï"
         horiz-adv-x="29"
         d="M19 58v-43c0 -2 1 -8 5 -8c7 0 9 10 11 18c2 11 11 3 10 -3c-3 -11 -9 -27 -24 -27c-9 0 -15 7 -15 16v47c0 3 -1 4 -1 5c0 2 3 3 5 3c6 0 9 -4 9 -8zM-8 87c0 4 4 8 8 8s8 -4 8 -8s-4 -8 -8 -8s-8 4 -8 8zM17 87c0 4 4 8 8 8s8 -4 8 -8s-4 -8 -8 -8s-8 4 -8 8z"
         id="glyph2712" />
      <glyph
         glyph-name="Itilde"
         unicode="Ĩ"
         horiz-adv-x="68"
         d="M59 114v-115c0 -3 -2 -4 -5 -4c-4 0 -9 2 -9 5v108c-16 -2 -28 -14 -28 -36c0 -14 7 -22 9 -22c1 0 1 1 2 1s1 -2 1 -3c0 -7 -6 -14 -11 -10c-6 4 -15 17 -15 34c0 37 29 49 49 49c4 0 7 -3 7 -7zM37 134c0 -2 -2 -3 -4 -3c-3 0 -7 2 -7 4c0 7 6 16 14 16 c9 0 12 -9 17 -9c2 0 3 2 3 5s3 3 5 3c3 0 6 -1 6 -3c0 -11 -8 -16 -14 -16c-9 0 -13 9 -16 9s-3 -3 -4 -6z"
         id="glyph2714" />
      <glyph
         glyph-name="itilde"
         unicode="ĩ"
         horiz-adv-x="29"
         d="M19 58v-43c0 -2 1 -8 5 -8c7 0 9 10 11 18c2 11 11 3 10 -3c-3 -11 -9 -27 -24 -27c-9 0 -15 7 -15 16v47c0 3 -1 4 -1 5c0 2 3 3 5 3c6 0 9 -4 9 -8zM1 81c0 -2 -2 -2 -4 -2c-3 0 -6 2 -6 4c0 7 5 15 13 15c9 0 12 -9 17 -9c2 0 4 2 4 5s3 4 5 4c3 0 5 -1 5 -3 c0 -11 -7 -17 -13 -17c-9 0 -13 10 -16 10s-4 -4 -5 -7z"
         id="glyph2716" />
      <glyph
         glyph-name="Imacron"
         unicode="Ī"
         horiz-adv-x="68"
         d="M59 114v-115c0 -3 -2 -4 -5 -4c-4 0 -9 2 -9 5v108c-16 -2 -28 -14 -28 -36c0 -14 7 -22 9 -22c1 0 1 1 2 1s1 -2 1 -3c0 -7 -6 -14 -11 -10c-6 4 -15 17 -15 34c0 37 29 49 49 49c4 0 7 -3 7 -7zM34 144h30c3 0 4 -2 4 -5s-2 -7 -5 -7v1h-30c-3 0 -5 1 -5 3c0 5 2 8 6 8 z"
         id="glyph2718" />
      <glyph
         glyph-name="imacron"
         unicode="ī"
         horiz-adv-x="29"
         d="M19 58v-43c0 -2 1 -8 5 -8c7 0 9 10 11 18c2 11 11 3 10 -3c-3 -11 -9 -27 -24 -27c-9 0 -15 7 -15 16v47c0 3 -1 4 -1 5c0 2 3 3 5 3c6 0 9 -4 9 -8zM-1 92h30c3 0 4 -2 4 -5s-2 -7 -5 -7h-1h-30c-3 0 -4 2 -4 4c0 5 2 8 6 8z"
         id="glyph2720" />
      <glyph
         glyph-name="Ibreve"
         unicode="Ĭ"
         horiz-adv-x="68"
         d="M59 114v-115c0 -3 -2 -4 -5 -4c-4 0 -9 2 -9 5v108c-16 -2 -28 -14 -28 -36c0 -14 7 -22 9 -22c1 0 1 1 2 1s1 -2 1 -3c0 -7 -6 -14 -11 -10c-6 4 -15 17 -15 34c0 37 29 49 49 49c4 0 7 -3 7 -7zM48 130c-8 0 -21 4 -21 20c0 2 3 4 8 4c2 0 3 0 4 -1c0 -5 1 -13 9 -13 s8 7 8 11c0 1 2 3 5 3s7 -3 7 -5c0 -17 -14 -19 -20 -19z"
         id="glyph2722" />
      <glyph
         glyph-name="ibreve"
         unicode="ĭ"
         horiz-adv-x="29"
         d="M19 58v-43c0 -2 1 -8 5 -8c7 0 9 10 11 18c2 11 11 3 10 -3c-3 -11 -9 -27 -24 -27c-9 0 -15 7 -15 16v47c0 3 -1 4 -1 5c0 2 3 3 5 3c6 0 9 -4 9 -8zM13 77c-8 0 -21 5 -21 21c0 2 2 4 7 4c2 0 3 -1 4 -2c0 -5 2 -12 10 -12s8 7 8 11c0 1 1 3 4 3s7 -3 7 -5 c0 -17 -13 -20 -19 -20z"
         id="glyph2724" />
      <glyph
         glyph-name="Iogonek"
         unicode="Į"
         horiz-adv-x="68"
         d="M59 114v-114c0 -2 -1 -4 -3 -5c-7 -2 -13 -9 -13 -16c0 -3 2 -6 8 -6c3 0 9 1 11 2s2 -3 2 -5c0 -5 -3 -7 -13 -7c-14 0 -19 9 -19 15c0 9 6 17 13 21v1v108c-16 -2 -28 -14 -28 -36c0 -14 7 -22 9 -22c1 0 1 1 2 1s1 -2 1 -3c0 -7 -6 -14 -11 -10c-6 4 -15 17 -15 34 c0 37 29 49 49 49c4 0 7 -3 7 -7z"
         id="glyph2726" />
      <glyph
         glyph-name="iogonek"
         unicode="į"
         horiz-adv-x="29"
         d="M19 58v-43c0 -2 1 -8 5 -8c7 0 9 10 11 18c2 11 11 3 10 -3c-3 -10 -8 -23 -20 -27c-6 -2 -12 -9 -12 -14c0 -3 2 -6 8 -6c3 0 8 1 10 2s3 -3 3 -5c0 -5 -4 -7 -14 -7c-14 0 -19 9 -19 15c0 7 5 13 11 18c-4 3 -6 8 -6 13v47c0 3 -1 4 -1 5c0 2 3 3 5 3c6 0 9 -4 9 -8z M15 83c-6 0 -10 5 -10 11s4 10 10 10s11 -4 11 -10s-5 -11 -11 -11z"
         id="glyph2728" />
      <glyph
         glyph-name="Idotaccent"
         unicode="İ"
         horiz-adv-x="68"
         d="M59 114v-115c0 -3 -2 -4 -5 -4c-4 0 -9 2 -9 5v108c-16 -2 -28 -14 -28 -36c0 -14 7 -22 9 -22c1 0 1 1 2 1s1 -2 1 -3c0 -7 -6 -14 -11 -10c-6 4 -15 17 -15 34c0 37 29 49 49 49c4 0 7 -3 7 -7zM39 138c0 5 4 9 9 9s9 -4 9 -9s-4 -8 -9 -8s-9 3 -9 8z"
         id="glyph2730" />
      <glyph
         glyph-name="dotlessi"
         unicode="ı"
         horiz-adv-x="29"
         d="M19 58v-43c0 -2 1 -8 5 -8c7 0 9 10 11 18c2 11 11 3 10 -3c-3 -11 -9 -27 -24 -27c-9 0 -15 7 -15 16v47c0 3 -1 4 -1 5c0 2 3 3 5 3c6 0 9 -4 9 -8z"
         id="glyph2732" />
      <glyph
         glyph-name="IJ"
         unicode="Ĳ"
         horiz-adv-x="138"
         d="M59 114v-115c0 -3 -2 -4 -5 -4c-4 0 -9 2 -9 5v108c-16 -2 -28 -14 -28 -36c0 -14 7 -22 9 -22c1 0 1 1 2 1s1 -2 1 -3c0 -7 -6 -14 -11 -10c-6 4 -15 17 -15 34c0 37 29 49 49 49c4 0 7 -3 7 -7zM114 -7v115c-16 -2 -29 -14 -29 -36c0 -14 8 -22 10 -22c1 0 1 1 2 1 s1 -2 1 -3c0 -6 -5 -11 -9 -11c-1 0 -2 0 -3 1c-4 3 -14 14 -14 34c0 37 28 49 48 49c4 0 7 -3 7 -7v-115v-5c3 1 6 1 9 1c8 1 4 -14 -2 -14h-7c-1 -20 -5 -42 -25 -42c-12 0 -20 8 -20 20c0 17 16 27 32 32v2zM102 -48c8 0 10 12 11 26c-11 -3 -17 -9 -17 -18 c0 -5 3 -8 6 -8z"
         id="glyph2734" />
      <glyph
         glyph-name="ij"
         unicode="ĳ"
         horiz-adv-x="58"
         d="M64 25c1 4 3 5 5 5c3 0 6 -4 6 -7c0 0 -1 0 -1 -1c-6 -20 -16 -31 -25 -39v-30c0 -18 -9 -24 -18 -24c-10 0 -16 9 -16 20c0 17 10 26 21 36v18c-4 -4 -8 -8 -15 -8c-9 0 -15 7 -15 16v47c0 3 -1 4 -1 5c0 2 3 3 5 3c6 0 9 -4 9 -8v-43c0 -2 1 -8 5 -8c9 0 12 18 12 22 v29c0 3 -1 4 -1 5c0 2 3 3 5 3c6 0 9 -4 9 -8v-60c6 7 12 15 15 27zM32 94c0 6 5 10 11 10s10 -4 10 -10s-4 -11 -10 -11s-11 5 -11 11zM15 83c-6 0 -10 5 -10 11s4 10 10 10s11 -4 11 -10s-5 -11 -11 -11zM31 -60c6 0 5 10 5 13v19c-6 -6 -9 -13 -9 -23c0 -5 1 -9 4 -9z "
         id="glyph2736" />
      <glyph
         glyph-name="Jcircumflex"
         unicode="Ĵ"
         horiz-adv-x="69"
         d="M45 -7v115c-16 -2 -28 -14 -28 -36c0 -14 7 -22 9 -22c1 0 1 1 2 1s1 -2 1 -3c0 -6 -4 -11 -8 -11c-1 0 -2 0 -3 1c-4 3 -15 14 -15 34c0 37 29 49 49 49c4 0 7 -3 7 -7v-115v-5c3 1 6 1 9 1c8 1 4 -14 -2 -14h-8c-1 -20 -5 -42 -25 -42c-12 0 -19 8 -19 20 c0 17 15 27 31 32v2zM33 -48c8 0 11 12 12 26c-11 -3 -18 -9 -18 -18c0 -5 3 -8 6 -8zM55 151l11 -16c1 -1 2 -2 2 -3c0 -2 -3 -4 -8 -4c-2 0 -3 1 -4 2l-8 13l-8 -12c-1 -2 -1 -3 -4 -3s-7 3 -7 5v1l12 17c2 3 5 5 8 5c4 0 5 -2 6 -5z"
         id="glyph2738" />
      <glyph
         glyph-name="jcircumflex"
         unicode="ĵ"
         horiz-adv-x="29"
         d="M34 25c1 4 3 5 5 5c3 0 6 -4 6 -7c0 0 -1 0 -1 -1c-6 -20 -16 -31 -25 -39v-30c0 -18 -9 -24 -18 -24c-10 0 -16 9 -16 20c0 17 10 26 21 36v73c0 3 -1 4 -1 5c0 2 3 3 5 3c6 0 9 -4 9 -8v-60c6 7 12 15 15 27zM1 -60c6 0 5 10 5 13v19c-6 -6 -9 -13 -9 -23 c0 -5 1 -9 4 -9zM21 100l12 -17c1 -1 1 -2 1 -3c0 -2 -3 -4 -8 -4c-2 0 -3 1 -4 2l-8 13l-7 -12c-1 -2 -2 -3 -5 -3s-7 4 -7 6v1l12 17c2 3 5 4 8 4c4 0 5 -1 6 -4z"
         id="glyph2740" />
      <glyph
         glyph-name="Kcommaaccent"
         unicode="Ķ"
         horiz-adv-x="103"
         d="M59 114v-61c34 7 14 46 31 75c0 1 2 2 4 2c4 0 10 -2 10 -5c0 -1 0 -1 -1 -2c-14 -22 -1 -64 -32 -77c24 -13 21 -44 37 -62c1 -1 3 -2 3 -3c0 -3 -9 -9 -12 -9c-1 0 -1 0 -2 1c-19 24 -11 57 -38 65v-39c0 -3 -2 -4 -5 -4c-4 0 -9 2 -9 5v108c-16 -2 -28 -14 -28 -36 c0 -14 7 -22 9 -22h3s1 -1 1 -2c0 -7 -7 -14 -12 -10c-6 4 -15 17 -15 34c0 37 29 49 49 49c4 0 7 -3 7 -7zM70 -12c4 0 8 -3 8 -9c0 -7 -7 -18 -11 -18c-3 0 -5 3 -5 5c0 1 0 1 1 1s3 3 5 6c-3 1 -6 3 -6 7c0 5 4 8 8 8z"
         id="glyph2742" />
      <glyph
         glyph-name="kcommaaccent"
         unicode="ķ"
         horiz-adv-x="60"
         d="M6 3v104c0 5 -2 5 -2 6s4 2 6 2c6 0 9 -4 9 -8v-54c6 8 12 15 20 15c11 0 16 -9 16 -19c0 -13 -10 -23 -17 -28c2 -7 6 -14 13 -14c8 0 13 10 15 18c2 11 11 3 10 -3c-3 -9 -11 -27 -27 -27c-14 0 -23 16 -23 27c0 5 16 11 16 27c0 4 -2 7 -5 7c-4 0 -13 -6 -18 -24v-29 c0 -3 0 -8 -5 -8c-3 0 -8 2 -8 8zM31 -11c4 0 8 -3 8 -9c0 -7 -8 -18 -12 -18c-3 0 -5 3 -5 5c0 1 0 2 1 2s4 2 6 5c-3 1 -6 4 -6 8c0 5 4 7 8 7z"
         id="glyph2744" />
      <glyph
         glyph-name="kgreenlandic"
         unicode="ĸ"
         horiz-adv-x="60"
         d="M6 3v56c0 5 -2 6 -2 7s4 2 6 2c6 0 9 -4 9 -8v-7c6 8 12 15 20 15c11 0 16 -9 16 -19c0 -13 -10 -23 -17 -28c2 -7 6 -14 13 -14c8 0 13 10 15 18c2 11 11 3 10 -3c-3 -9 -11 -27 -27 -27c-14 0 -23 16 -23 27c0 5 16 11 16 27c0 4 -2 7 -5 7c-4 0 -13 -6 -18 -24v-29 c0 -3 0 -8 -5 -8c-3 0 -8 2 -8 8z"
         id="glyph2746" />
      <glyph
         glyph-name="Lacute"
         unicode="Ĺ"
         horiz-adv-x="87"
         d="M65 -6c-10 0 -19 7 -26 14c-3 -7 -9 -13 -18 -13c-11 0 -18 9 -18 18c0 11 10 19 20 19c2 0 4 0 6 -1c-4 15 -14 28 -14 47c0 22 16 45 41 45c15 0 25 -11 25 -24c0 -20 -19 -36 -34 -36c-5 0 -9 3 -9 10c0 1 0 2 1 2s2 -1 4 -1c11 0 25 13 25 23c0 7 -4 13 -13 13 c-16 0 -27 -16 -27 -33c0 -18 14 -34 15 -55c7 -7 13 -15 20 -15c10 0 13 10 13 16c0 2 -1 2 -1 3s2 1 3 1c6 0 9 -3 9 -7c0 -13 -9 -26 -22 -26zM22 20c-3 0 -6 -2 -6 -6c0 -3 2 -7 6 -7c5 0 7 5 8 10c-3 2 -5 3 -8 3zM71 149l-16 -16c-1 -2 -3 -3 -5 -3c-5 0 -7 2 -7 4 c0 1 0 1 1 2l16 18c0 2 4 4 6 4c3 0 7 -2 7 -5c0 -2 -1 -3 -2 -4z"
         id="glyph2748" />
      <glyph
         glyph-name="lacute"
         unicode="ĺ"
         horiz-adv-x="38"
         d="M19 101v-50c4 7 7 30 7 40c0 11 -1 16 -4 16c-2 0 -3 -3 -3 -6zM44 25c2 10 11 3 10 -3c-3 -9 -12 -27 -28 -27c-13 0 -20 9 -20 23v79c0 13 7 22 16 22c15 0 15 -18 15 -28c0 -25 -16 -60 -18 -62v-10c0 -7 3 -12 9 -12c8 0 14 10 16 18zM37 144l-15 -16 c-1 -2 -4 -3 -6 -3c-5 0 -7 2 -7 4c0 1 1 1 2 2l15 19c0 2 4 3 6 3c3 0 7 -2 7 -5c0 -2 -1 -3 -2 -4z"
         id="glyph2750" />
      <glyph
         glyph-name="Lcommaaccent"
         unicode="Ļ"
         horiz-adv-x="87"
         d="M65 -6c-10 0 -19 7 -26 14c-3 -7 -9 -13 -18 -13c-11 0 -18 9 -18 18c0 11 10 19 20 19c2 0 4 0 6 -1c-4 15 -14 28 -14 47c0 22 16 45 41 45c15 0 25 -11 25 -24c0 -20 -19 -36 -34 -36c-5 0 -9 3 -9 10c0 1 0 2 1 2s2 -1 4 -1c11 0 25 13 25 23c0 7 -4 13 -13 13 c-16 0 -27 -16 -27 -33c0 -18 14 -34 15 -55c7 -7 13 -15 20 -15c10 0 13 10 13 16c0 2 -1 2 -1 3s2 1 3 1c6 0 9 -3 9 -7c0 -13 -9 -26 -22 -26zM22 20c-3 0 -6 -2 -6 -6c0 -3 2 -7 6 -7c5 0 7 5 8 10c-3 2 -5 3 -8 3zM44 -11c4 0 8 -3 8 -9c0 -7 -8 -18 -12 -18 c-3 0 -5 3 -5 5c0 1 1 2 2 2s3 2 5 5c-3 1 -6 4 -6 8c0 5 4 7 8 7z"
         id="glyph2752" />
      <glyph
         glyph-name="lcommaaccent"
         unicode="ļ"
         horiz-adv-x="38"
         d="M19 101v-50c4 7 7 30 7 40c0 11 -1 16 -4 16c-2 0 -3 -3 -3 -6zM44 25c2 10 11 3 10 -3c-3 -9 -12 -27 -28 -27c-13 0 -20 9 -20 23v79c0 13 7 22 16 22c15 0 15 -18 15 -28c0 -25 -16 -60 -18 -62v-10c0 -7 3 -12 9 -12c8 0 14 10 16 18zM23 -11c4 0 8 -3 8 -9 c0 -7 -8 -18 -12 -18c-3 0 -5 3 -5 5c0 1 0 2 1 2s4 2 6 5c-3 1 -6 4 -6 8c0 5 4 7 8 7z"
         id="glyph2754" />
      <glyph
         glyph-name="Lcaron"
         unicode="Ľ"
         horiz-adv-x="107"
         d="M65 -6c-10 0 -19 7 -26 14c-3 -7 -9 -13 -18 -13c-11 0 -18 9 -18 18c0 11 10 19 20 19c2 0 4 0 6 -1c-4 15 -14 28 -14 47c0 22 16 45 41 45c15 0 25 -11 25 -24c0 -20 -19 -36 -34 -36c-5 0 -9 3 -9 10c0 1 0 2 1 2s2 -1 4 -1c11 0 25 13 25 23c0 7 -4 13 -13 13 c-16 0 -27 -16 -27 -33c0 -18 14 -34 15 -55c7 -7 13 -15 20 -15c10 0 13 10 13 16c0 2 -1 2 -1 3s2 1 3 1c6 0 9 -3 9 -7c0 -13 -9 -26 -22 -26zM22 20c-3 0 -6 -2 -6 -6c0 -3 2 -7 6 -7c5 0 7 5 8 10c-3 2 -5 3 -8 3zM97 113c4 0 8 -3 8 -9c0 -7 -8 -18 -12 -18 c-3 0 -4 3 -4 5c0 1 0 2 1 2s3 2 5 5c-3 1 -6 4 -6 8c0 5 4 7 8 7z"
         id="glyph2756" />
      <glyph
         glyph-name="lcaron"
         unicode="ľ"
         horiz-adv-x="57"
         d="M19 101v-50c4 7 7 30 7 40c0 11 -1 16 -4 16c-2 0 -3 -3 -3 -6zM44 25c2 10 11 3 10 -3c-3 -9 -12 -27 -28 -27c-13 0 -20 9 -20 23v79c0 13 7 22 16 22c15 0 15 -18 15 -28c0 -25 -16 -60 -18 -62v-10c0 -7 3 -12 9 -12c8 0 14 10 16 18zM51 112c4 0 8 -3 8 -9 c0 -7 -7 -18 -11 -18c-3 0 -5 3 -5 5c0 1 0 1 1 1s3 3 5 6c-3 1 -6 3 -6 7c0 5 4 8 8 8z"
         id="glyph2758" />
      <glyph
         glyph-name="Ldot"
         unicode="Ŀ"
         horiz-adv-x="87"
         d="M65 -6c-10 0 -19 7 -26 14c-3 -7 -9 -13 -18 -13c-11 0 -18 9 -18 18c0 11 10 19 20 19c2 0 4 0 6 -1c-4 15 -14 28 -14 47c0 22 16 45 41 45c15 0 25 -11 25 -24c0 -20 -19 -36 -34 -36c-5 0 -9 3 -9 10c0 1 0 2 1 2s2 -1 4 -1c11 0 25 13 25 23c0 7 -4 13 -13 13 c-16 0 -27 -16 -27 -33c0 -18 14 -34 15 -55c7 -7 13 -15 20 -15c10 0 13 10 13 16c0 2 -1 2 -1 3s2 1 3 1c6 0 9 -3 9 -7c0 -13 -9 -26 -22 -26zM22 20c-3 0 -6 -2 -6 -6c0 -3 2 -7 6 -7c5 0 7 5 8 10c-3 2 -5 3 -8 3zM76 56c5 0 8 -4 8 -9c0 -4 -3 -8 -8 -8 c-4 0 -8 4 -8 8c0 5 4 9 8 9z"
         id="glyph2760" />
      <glyph
         glyph-name="ldotaccent"
         unicode="ŀ"
         horiz-adv-x="48"
         d="M19 101v-50c4 7 7 30 7 40c0 11 -1 16 -4 16c-2 0 -3 -3 -3 -6zM44 25c2 10 11 3 10 -3c-3 -9 -12 -27 -28 -27c-13 0 -20 9 -20 23v79c0 13 7 22 16 22c15 0 15 -18 15 -28c0 -25 -16 -60 -18 -62v-10c0 -7 3 -12 9 -12c8 0 14 10 16 18zM41 54c5 0 8 -4 8 -9 c0 -4 -3 -8 -8 -8c-4 0 -8 4 -8 8c0 5 4 9 8 9z"
         id="glyph2762" />
      <glyph
         glyph-name="Lslash"
         unicode="Ł"
         horiz-adv-x="87"
         d="M65 -6c-10 0 -19 7 -26 14c-3 -7 -9 -13 -18 -13c-11 0 -18 9 -18 18c0 11 10 19 20 19c2 0 4 0 6 -1c-1 3 -3 6 -4 9l-13 -4h-2c-3 0 -4 2 -4 5s2 5 5 6l10 2c-3 8 -6 18 -6 29c0 22 16 45 41 45c15 0 25 -11 25 -24c0 -20 -19 -36 -34 -36c-5 0 -9 3 -9 10c0 1 0 2 1 2 s2 -1 4 -1c11 0 25 13 25 23c0 7 -4 13 -13 13c-16 0 -27 -16 -27 -33c0 -8 3 -16 6 -24l16 5h2c2 0 4 -2 4 -5s-2 -6 -4 -6l-14 -4c2 -6 5 -13 5 -21c7 -7 13 -15 20 -15c10 0 13 10 13 16c0 2 -1 2 -1 3s2 1 3 1c6 0 9 -3 9 -7c0 -13 -9 -26 -22 -26zM22 7c5 0 7 5 8 10 c-3 2 -5 3 -8 3s-6 -2 -6 -6c0 -3 2 -7 6 -7z"
         id="glyph2764" />
      <glyph
         glyph-name="lslash"
         unicode="ł"
         horiz-adv-x="38"
         d="M44 25c2 10 11 3 10 -3c-3 -9 -12 -27 -28 -27c-13 0 -20 10 -20 23l-3 -2h-2c-3 0 -4 2 -4 5s1 5 4 6l5 2v68c0 13 7 22 16 22c15 0 15 -18 15 -28c0 -20 -9 -44 -14 -56l10 3c1 0 1 1 2 1c2 0 3 -2 3 -5s-1 -6 -3 -6l-16 -6v-3c0 -7 3 -12 9 -12c8 0 14 10 16 18z M19 101v-50c4 7 7 30 7 40c0 11 -1 16 -4 16c-2 0 -3 -3 -3 -6z"
         id="glyph2766" />
      <glyph
         glyph-name="Ntilde"
         unicode="Ñ"
         horiz-adv-x="106"
         d="M59 114v-14c7 12 16 21 26 21c5 0 12 -4 12 -15v-101c0 -13 8 -11 8 -15c0 -3 -4 -6 -9 -6s-13 3 -13 18v103c0 2 0 2 -1 2c-5 0 -23 -26 -23 -41v-67c0 -3 -2 -4 -5 -4c-4 0 -9 2 -9 5v108c-16 -2 -28 -14 -28 -36c0 -14 7 -22 9 -22h3s1 -1 1 -2c0 -6 -5 -11 -9 -11 c-6 0 -18 15 -18 35c0 37 29 49 49 49c4 0 7 -3 7 -7zM56 134c0 -2 -2 -3 -4 -3c-3 0 -6 2 -6 4c0 7 5 16 13 16c9 0 12 -9 17 -9c2 0 4 2 4 5s3 3 5 3c3 0 5 -1 5 -3c0 -11 -7 -16 -13 -16c-9 0 -13 9 -16 9s-4 -3 -5 -6z"
         id="glyph2768" />
      <glyph
         glyph-name="ntilde"
         unicode="ñ"
         horiz-adv-x="63"
         d="M6 3v55c0 3 -1 4 -1 5c0 2 3 3 5 3c6 0 9 -4 9 -8v-7c5 10 12 17 20 17c12 0 14 -10 14 -18v-35c0 -2 0 -8 4 -8c7 0 10 10 12 18c1 4 2 5 4 5c3 0 6 -4 6 -7v-1c-3 -11 -10 -27 -25 -27c-9 0 -14 7 -14 16v36c0 5 -1 9 -4 9c-5 0 -16 -14 -17 -28v-25c0 -3 0 -8 -5 -8 c-3 0 -8 2 -8 8zM18 82c0 -2 -2 -2 -4 -2c-3 0 -6 1 -6 3c0 7 5 16 13 16c9 0 12 -9 17 -9c2 0 4 2 4 5s3 4 5 4c3 0 5 -1 5 -3c0 -11 -7 -17 -13 -17c-9 0 -13 10 -16 10s-4 -4 -5 -7z"
         id="glyph2770" />
      <glyph
         glyph-name="Nacute"
         unicode="Ń"
         horiz-adv-x="106"
         d="M59 114v-14c7 12 16 21 26 21c5 0 12 -4 12 -15v-101c0 -13 8 -11 8 -15c0 -3 -4 -6 -9 -6s-13 3 -13 18v103c0 2 0 2 -1 2c-5 0 -23 -26 -23 -41v-67c0 -3 -2 -4 -5 -4c-4 0 -9 2 -9 5v108c-16 -2 -28 -14 -28 -36c0 -14 7 -22 9 -22h3s1 -1 1 -2c0 -6 -5 -11 -9 -11 c-6 0 -18 15 -18 35c0 37 29 49 49 49c4 0 7 -3 7 -7zM83 148l-15 -17c-1 -2 -4 -3 -6 -3c-5 0 -7 2 -7 4c0 1 1 2 2 3l15 18c0 2 4 3 6 3c3 0 7 -2 7 -5c0 -2 -1 -2 -2 -3z"
         id="glyph2772" />
      <glyph
         glyph-name="nacute"
         unicode="ń"
         horiz-adv-x="63"
         d="M6 3v55c0 3 -1 4 -1 5c0 2 3 3 5 3c6 0 9 -4 9 -8v-7c5 10 12 17 20 17c12 0 14 -10 14 -18v-35c0 -2 0 -8 4 -8c7 0 10 10 12 18c1 4 2 5 4 5c3 0 6 -4 6 -7v-1c-3 -11 -10 -27 -25 -27c-9 0 -14 7 -14 16v36c0 5 -1 9 -4 9c-5 0 -16 -14 -17 -28v-25c0 -3 0 -8 -5 -8 c-3 0 -8 2 -8 8zM45 96l-15 -16c-1 -2 -4 -4 -6 -4c-5 0 -7 2 -7 4c0 1 1 2 2 3l15 18c0 2 4 3 6 3c3 0 7 -2 7 -5c0 -2 -1 -2 -2 -3z"
         id="glyph2774" />
      <glyph
         glyph-name="Ncommaaccent"
         unicode="Ņ"
         horiz-adv-x="106"
         d="M59 114v-14c7 12 16 21 26 21c5 0 12 -4 12 -15v-101c0 -13 8 -11 8 -15c0 -3 -4 -6 -9 -6s-13 3 -13 18v103c0 2 0 2 -1 2c-5 0 -23 -26 -23 -41v-67c0 -3 -2 -4 -5 -4c-4 0 -9 2 -9 5v108c-16 -2 -28 -14 -28 -36c0 -14 7 -22 9 -22h3s1 -1 1 -2c0 -6 -5 -11 -9 -11 c-6 0 -18 15 -18 35c0 37 29 49 49 49c4 0 7 -3 7 -7zM71 -11c4 0 8 -3 8 -9c0 -7 -8 -18 -12 -18c-3 0 -4 3 -4 5c0 1 0 2 1 2s3 2 5 5c-3 1 -6 4 -6 8c0 5 4 7 8 7z"
         id="glyph2776" />
      <glyph
         glyph-name="ncommaaccent"
         unicode="ņ"
         horiz-adv-x="63"
         d="M6 3v55c0 3 -1 4 -1 5c0 2 3 3 5 3c6 0 9 -4 9 -8v-7c5 10 12 17 20 17c12 0 14 -10 14 -18v-35c0 -2 0 -8 4 -8c7 0 10 10 12 18c1 4 2 5 4 5c3 0 6 -4 6 -7v-1c-3 -11 -10 -27 -25 -27c-9 0 -14 7 -14 16v36c0 5 -1 9 -4 9c-5 0 -16 -14 -17 -28v-25c0 -3 0 -8 -5 -8 c-3 0 -8 2 -8 8zM32 -11c4 0 8 -3 8 -9c0 -7 -8 -18 -12 -18c-3 0 -4 3 -4 5c0 1 0 2 1 2s3 2 5 5c-3 1 -6 4 -6 8c0 5 4 7 8 7z"
         id="glyph2778" />
      <glyph
         glyph-name="Ncaron"
         unicode="Ň"
         horiz-adv-x="106"
         d="M59 114v-14c7 12 16 21 26 21c5 0 12 -4 12 -15v-101c0 -13 8 -11 8 -15c0 -3 -4 -6 -9 -6s-13 3 -13 18v103c0 2 0 2 -1 2c-5 0 -23 -26 -23 -41v-67c0 -3 -2 -4 -5 -4c-4 0 -9 2 -9 5v108c-16 -2 -28 -14 -28 -36c0 -14 7 -22 9 -22h3s1 -1 1 -2c0 -6 -5 -11 -9 -11 c-6 0 -18 15 -18 35c0 37 29 49 49 49c4 0 7 -3 7 -7zM60 133l-11 16c-1 1 -1 2 -1 3c0 2 2 4 7 4c2 0 3 -1 4 -2l9 -13l7 12c0 1 1 3 4 3s7 -3 7 -5c0 -1 -1 -2 -1 -2l-11 -16c-1 -3 -2 -5 -5 -5c-5 0 -6 1 -9 5z"
         id="glyph2780" />
      <glyph
         glyph-name="ncaron"
         unicode="ň"
         horiz-adv-x="63"
         d="M6 3v55c0 3 -1 4 -1 5c0 2 3 3 5 3c6 0 9 -4 9 -8v-7c5 10 12 17 20 17c12 0 14 -10 14 -18v-35c0 -2 0 -8 4 -8c7 0 10 10 12 18c1 4 2 5 4 5c3 0 6 -4 6 -7v-1c-3 -11 -10 -27 -25 -27c-9 0 -14 7 -14 16v36c0 5 -1 9 -4 9c-5 0 -16 -14 -17 -28v-25c0 -3 0 -8 -5 -8 c-3 0 -8 2 -8 8zM22 81l-11 17c-1 1 -1 2 -1 3c0 2 2 3 7 3c2 0 3 0 4 -1l9 -13l7 12c0 1 1 2 4 2s7 -3 7 -5c0 -1 -1 -2 -1 -2l-11 -16c-1 -3 -2 -5 -5 -5c-5 0 -6 1 -9 5z"
         id="glyph2782" />
      <glyph
         glyph-name="napostrophe"
         unicode="ŉ"
         horiz-adv-x="63"
         d="M6 3v55c0 3 -1 4 -1 5c0 2 3 3 5 3c6 0 9 -4 9 -8v-7c5 10 12 17 20 17c12 0 14 -10 14 -18v-35c0 -2 0 -8 4 -8c7 0 10 10 12 18c1 4 2 5 4 5c3 0 6 -4 6 -7v-1c-3 -11 -10 -27 -25 -27c-9 0 -14 7 -14 16v36c0 5 -1 9 -4 9c-5 0 -16 -14 -17 -28v-25c0 -3 0 -8 -5 -8 c-3 0 -8 2 -8 8zM8 111c4 0 8 -4 8 -10c0 -7 -7 -17 -11 -17c-3 0 -5 3 -5 5c0 1 0 1 1 1s3 2 5 5c-3 1 -5 4 -5 8c0 5 3 8 7 8z"
         id="glyph2784" />
      <glyph
         glyph-name="Eng"
         unicode="Ŋ"
         horiz-adv-x="107"
         d="M59 114v-14c7 12 16 21 26 21c5 0 12 -4 12 -15v-107v-5c3 1 6 1 9 1c8 1 4 -14 -2 -14h-7c-1 -20 -6 -42 -26 -42c-12 0 -19 8 -19 20c0 17 15 27 31 32v2v112c0 2 0 2 -1 2c-5 0 -22 -25 -23 -40v-68c0 -3 -2 -4 -5 -4c-4 0 -9 2 -9 5v108c-16 -2 -28 -14 -28 -36 c0 -14 7 -22 9 -22h3s1 -1 1 -2c0 -6 -5 -11 -9 -11c-6 0 -18 15 -18 35c0 37 29 49 49 49c4 0 7 -3 7 -7zM71 -48c8 0 11 12 12 26c-11 -3 -18 -9 -18 -18c0 -5 3 -8 6 -8z"
         id="glyph2786" />
      <glyph
         glyph-name="eng"
         unicode="ŋ"
         d="M6 3v55c0 3 -1 4 -1 5c0 2 3 3 5 3c6 0 9 -4 9 -8v-7c5 10 12 17 20 17c12 0 14 -10 14 -18v-52c6 7 12 15 15 27c1 4 2 5 4 5c3 0 6 -4 6 -7v-1c-6 -20 -16 -31 -25 -39v-30c0 -18 -9 -24 -18 -24c-10 0 -17 9 -17 20c0 17 11 26 22 36v62c0 5 -1 9 -4 9 c-5 0 -16 -14 -17 -28v-25c0 -3 0 -8 -5 -8c-3 0 -8 2 -8 8zM40 -47v19c-6 -6 -10 -13 -10 -23c0 -5 2 -9 5 -9c6 0 5 10 5 13z"
         id="glyph2788" />
      <glyph
         glyph-name="Ograve"
         unicode="Ò"
         horiz-adv-x="88"
         d="M68 59c0 3 -1 6 -1 10h-3c-14 0 -26 9 -26 22c0 9 7 17 16 17c13 0 19 -11 23 -23c2 1 3 3 5 5c1 2 1 2 2 2c2 0 6 -4 6 -9c0 -4 -4 -9 -10 -11c1 -5 1 -9 1 -13c0 -44 -19 -64 -39 -64c-25 0 -39 26 -39 57c0 59 36 71 37 72c1 0 1 1 2 1c4 0 6 -5 6 -9 c0 -2 -1 -4 -3 -4v0c-6 -3 -28 -15 -28 -59c0 -31 13 -45 25 -45c14 0 26 19 26 51zM63 81h2c-2 8 -5 14 -10 14c-3 0 -4 -2 -4 -4c0 -4 3 -10 12 -10zM49 131l-16 18c-1 1 -2 2 -2 3c0 3 5 6 7 6s4 -2 5 -4l16 -18c1 -1 2 -1 2 -2c0 -2 -3 -4 -8 -4c-2 0 -3 0 -4 1z"
         id="glyph2790" />
      <glyph
         glyph-name="ograve"
         unicode="ò"
         horiz-adv-x="63"
         d="M69 29c1 4 12 5 10 -5c-2 -9 -9 -18 -21 -18c-3 0 -5 1 -8 2c-4 -7 -11 -13 -21 -13c-17 0 -25 15 -25 32c0 25 13 41 17 41s8 -9 4 -12c-3 -4 -8 -11 -8 -28c0 -15 5 -21 12 -21c5 0 9 2 11 6c-8 7 -13 19 -13 31c0 11 5 20 14 20c8 0 15 -12 15 -29c0 -6 -1 -13 -3 -19 h4c7 0 11 6 12 13zM36 45c0 -8 3 -16 7 -21v8c0 12 0 21 -4 21c-2 0 -3 -3 -3 -8zM31 78l-16 18c-1 1 -2 2 -2 3c0 3 5 5 7 5s4 -1 5 -3l16 -18c1 -1 2 -2 2 -3c0 -2 -3 -4 -8 -4c-2 0 -3 1 -4 2z"
         id="glyph2792" />
      <glyph
         glyph-name="Oacute"
         unicode="Ó"
         horiz-adv-x="88"
         d="M68 59c0 3 -1 6 -1 10h-3c-14 0 -26 9 -26 22c0 9 7 17 16 17c13 0 19 -11 23 -23c2 1 3 3 5 5c1 2 1 2 2 2c2 0 6 -4 6 -9c0 -4 -4 -9 -10 -11c1 -5 1 -9 1 -13c0 -44 -19 -64 -39 -64c-25 0 -39 26 -39 57c0 59 36 71 37 72c1 0 1 1 2 1c4 0 6 -5 6 -9 c0 -2 -1 -4 -3 -4v0c-6 -3 -28 -15 -28 -59c0 -31 13 -45 25 -45c14 0 26 19 26 51zM63 81h2c-2 8 -5 14 -10 14c-3 0 -4 -2 -4 -4c0 -4 3 -10 12 -10zM65 149l-16 -16c-1 -2 -4 -3 -6 -3c-5 0 -6 2 -6 4c0 1 0 1 1 2l16 18c0 2 4 4 6 4c3 0 7 -2 7 -5c0 -2 -1 -3 -2 -4z "
         id="glyph2794" />
      <glyph
         glyph-name="oacute"
         unicode="ó"
         horiz-adv-x="63"
         d="M69 29c1 4 12 5 10 -5c-2 -9 -9 -18 -21 -18c-3 0 -5 1 -8 2c-4 -7 -11 -13 -21 -13c-17 0 -25 15 -25 32c0 25 13 41 17 41s8 -9 4 -12c-3 -4 -8 -11 -8 -28c0 -15 5 -21 12 -21c5 0 9 2 11 6c-8 7 -13 19 -13 31c0 11 5 20 14 20c8 0 15 -12 15 -29c0 -6 -1 -13 -3 -19 h4c7 0 11 6 12 13zM36 45c0 -8 3 -16 7 -21v8c0 12 0 21 -4 21c-2 0 -3 -3 -3 -8zM47 96l-16 -17c-1 -2 -4 -3 -6 -3c-5 0 -6 2 -6 4c0 1 0 2 1 3l16 18c0 2 4 3 6 3c3 0 7 -2 7 -5c0 -2 -1 -2 -2 -3z"
         id="glyph2796" />
      <glyph
         glyph-name="Ocircumflex"
         unicode="Ô"
         horiz-adv-x="88"
         d="M68 59c0 3 -1 6 -1 10h-3c-14 0 -26 9 -26 22c0 9 7 17 16 17c13 0 19 -11 23 -23c2 1 3 3 5 5c1 2 1 2 2 2c2 0 6 -4 6 -9c0 -4 -4 -9 -10 -11c1 -5 1 -9 1 -13c0 -44 -19 -64 -39 -64c-25 0 -39 26 -39 57c0 59 36 71 37 72c1 0 1 1 2 1c4 0 6 -5 6 -9 c0 -2 -1 -4 -3 -4v0c-6 -3 -28 -15 -28 -59c0 -31 13 -45 25 -45c14 0 26 19 26 51zM63 81h2c-2 8 -5 14 -10 14c-3 0 -4 -2 -4 -4c0 -4 3 -10 12 -10zM56 153l11 -17c1 -1 2 -1 2 -2c0 -2 -3 -4 -8 -4c-2 0 -3 0 -4 1l-9 14l-7 -12c-1 -2 -1 -3 -4 -3s-8 3 -8 5l1 1l12 17 c2 3 5 5 8 5c4 0 5 -2 6 -5z"
         id="glyph2798" />
      <glyph
         glyph-name="ocircumflex"
         unicode="ô"
         horiz-adv-x="63"
         d="M69 29c1 4 12 5 10 -5c-2 -9 -9 -18 -21 -18c-3 0 -5 1 -8 2c-4 -7 -11 -13 -21 -13c-17 0 -25 15 -25 32c0 25 13 41 17 41s8 -9 4 -12c-3 -4 -8 -11 -8 -28c0 -15 5 -21 12 -21c5 0 9 2 11 6c-8 7 -13 19 -13 31c0 11 5 20 14 20c8 0 15 -12 15 -29c0 -6 -1 -13 -3 -19 h4c7 0 11 6 12 13zM36 45c0 -8 3 -16 7 -21v8c0 12 0 21 -4 21c-2 0 -3 -3 -3 -8zM38 99l11 -16c1 -1 2 -2 2 -3c0 -2 -3 -4 -8 -4c-2 0 -3 1 -4 2l-9 13l-7 -12c-1 -2 -1 -3 -4 -3s-8 4 -8 6h1l12 18c2 3 5 4 8 4c4 0 5 -2 6 -5z"
         id="glyph2800" />
      <glyph
         glyph-name="Otilde"
         unicode="Õ"
         horiz-adv-x="88"
         d="M68 59c0 3 -1 6 -1 10h-3c-14 0 -26 9 -26 22c0 9 7 17 16 17c13 0 19 -11 23 -23c2 1 3 3 5 5c1 2 1 2 2 2c2 0 6 -4 6 -9c0 -4 -4 -9 -10 -11c1 -5 1 -9 1 -13c0 -44 -19 -64 -39 -64c-25 0 -39 26 -39 57c0 59 36 71 37 72c1 0 1 1 2 1c4 0 6 -5 6 -9 c0 -2 -1 -4 -3 -4v0c-6 -3 -28 -15 -28 -59c0 -31 13 -45 25 -45c14 0 26 19 26 51zM63 81h2c-2 8 -5 14 -10 14c-3 0 -4 -2 -4 -4c0 -4 3 -10 12 -10zM38 135c0 -2 -2 -2 -4 -2c-3 0 -7 2 -7 4c0 7 5 15 13 15c9 0 13 -9 18 -9c2 0 3 3 3 6s3 3 5 3c3 0 6 -1 6 -3 c0 -11 -8 -17 -14 -17c-9 0 -13 10 -16 10s-3 -4 -4 -7z"
         id="glyph2802" />
      <glyph
         glyph-name="otilde"
         unicode="õ"
         horiz-adv-x="63"
         d="M69 29c1 4 12 5 10 -5c-2 -9 -9 -18 -21 -18c-3 0 -5 1 -8 2c-4 -7 -11 -13 -21 -13c-17 0 -25 15 -25 32c0 25 13 41 17 41s8 -9 4 -12c-3 -4 -8 -11 -8 -28c0 -15 5 -21 12 -21c5 0 9 2 11 6c-8 7 -13 19 -13 31c0 11 5 20 14 20c8 0 15 -12 15 -29c0 -6 -1 -13 -3 -19 h4c7 0 11 6 12 13zM36 45c0 -8 3 -16 7 -21v8c0 12 0 21 -4 21c-2 0 -3 -3 -3 -8zM20 82c0 -2 -2 -2 -4 -2c-3 0 -7 1 -7 3c0 7 5 16 13 16c9 0 13 -9 18 -9c2 0 3 2 3 5s3 4 5 4c3 0 6 -2 6 -4c0 -11 -8 -16 -14 -16c-9 0 -13 9 -16 9s-3 -3 -4 -6z"
         id="glyph2804" />
      <glyph
         glyph-name="Odieresis"
         unicode="Ö"
         horiz-adv-x="88"
         d="M68 59c0 3 -1 6 -1 10h-3c-14 0 -26 9 -26 22c0 9 7 17 16 17c13 0 19 -11 23 -23c2 1 3 3 5 5c1 2 1 2 2 2c2 0 6 -4 6 -9c0 -4 -4 -9 -10 -11c1 -5 1 -9 1 -13c0 -44 -19 -64 -39 -64c-25 0 -39 26 -39 57c0 59 36 71 37 72c1 0 1 1 2 1c4 0 6 -5 6 -9 c0 -2 -1 -4 -3 -4v0c-6 -3 -28 -15 -28 -59c0 -31 13 -45 25 -45c14 0 26 19 26 51zM63 81h2c-2 8 -5 14 -10 14c-3 0 -4 -2 -4 -4c0 -4 3 -10 12 -10zM28 141c0 4 5 8 9 8s8 -4 8 -8s-4 -8 -8 -8s-9 4 -9 8zM53 141c0 4 4 8 8 8s9 -4 9 -8s-5 -8 -9 -8s-8 4 -8 8z"
         id="glyph2806" />
      <glyph
         glyph-name="odieresis"
         unicode="ö"
         horiz-adv-x="63"
         d="M69 29c1 4 12 5 10 -5c-2 -9 -9 -18 -21 -18c-3 0 -5 1 -8 2c-4 -7 -11 -13 -21 -13c-17 0 -25 15 -25 32c0 25 13 41 17 41s8 -9 4 -12c-3 -4 -8 -11 -8 -28c0 -15 5 -21 12 -21c5 0 9 2 11 6c-8 7 -13 19 -13 31c0 11 5 20 14 20c8 0 15 -12 15 -29c0 -6 -1 -13 -3 -19 h4c7 0 11 6 12 13zM36 45c0 -8 3 -16 7 -21v8c0 12 0 21 -4 21c-2 0 -3 -3 -3 -8zM10 88c0 4 5 8 9 8s8 -4 8 -8s-4 -8 -8 -8s-9 4 -9 8zM35 88c0 4 4 8 8 8s9 -4 9 -8s-5 -8 -9 -8s-8 4 -8 8z"
         id="glyph2808" />
      <glyph
         glyph-name="Omacron"
         unicode="Ō"
         horiz-adv-x="88"
         d="M68 59c0 3 -1 6 -1 10h-3c-14 0 -26 9 -26 22c0 9 7 17 16 17c13 0 19 -11 23 -23c2 1 3 3 5 5c1 2 1 2 2 2c2 0 6 -4 6 -9c0 -4 -4 -9 -10 -11c1 -5 1 -9 1 -13c0 -44 -19 -64 -39 -64c-25 0 -39 26 -39 57c0 59 36 71 37 72c1 0 1 1 2 1c4 0 6 -5 6 -9 c0 -2 -1 -4 -3 -4v0c-6 -3 -28 -15 -28 -59c0 -31 13 -45 25 -45c14 0 26 19 26 51zM63 81h2c-2 8 -5 14 -10 14c-3 0 -4 -2 -4 -4c0 -4 3 -10 12 -10zM35 146h30c3 0 4 -2 4 -5s-2 -7 -5 -7h-1h-29c-3 0 -5 2 -5 4c0 5 2 8 6 8z"
         id="glyph2810" />
      <glyph
         glyph-name="omacron"
         unicode="ō"
         horiz-adv-x="63"
         d="M69 29c1 4 12 5 10 -5c-2 -9 -9 -18 -21 -18c-3 0 -5 1 -8 2c-4 -7 -11 -13 -21 -13c-17 0 -25 15 -25 32c0 25 13 41 17 41s8 -9 4 -12c-3 -4 -8 -11 -8 -28c0 -15 5 -21 12 -21c5 0 9 2 11 6c-8 7 -13 19 -13 31c0 11 5 20 14 20c8 0 15 -12 15 -29c0 -6 -1 -13 -3 -19 h4c7 0 11 6 12 13zM36 45c0 -8 3 -16 7 -21v8c0 12 0 21 -4 21c-2 0 -3 -3 -3 -8zM17 92h30c3 0 4 -1 4 -4s-2 -7 -5 -7h-1h-29c-3 0 -5 2 -5 4c0 5 2 7 6 7z"
         id="glyph2812" />
      <glyph
         glyph-name="Obreve"
         unicode="Ŏ"
         horiz-adv-x="88"
         d="M68 59c0 3 -1 6 -1 10h-3c-14 0 -26 9 -26 22c0 9 7 17 16 17c13 0 19 -11 23 -23c2 1 3 3 5 5c1 2 1 2 2 2c2 0 6 -4 6 -9c0 -4 -4 -9 -10 -11c1 -5 1 -9 1 -13c0 -44 -19 -64 -39 -64c-25 0 -39 26 -39 57c0 59 36 71 37 72c1 0 1 1 2 1c4 0 6 -5 6 -9 c0 -2 -1 -4 -3 -4v0c-6 -3 -28 -15 -28 -59c0 -31 13 -45 25 -45c14 0 26 19 26 51zM63 81h2c-2 8 -5 14 -10 14c-3 0 -4 -2 -4 -4c0 -4 3 -10 12 -10zM49 131c-8 0 -21 5 -21 21c0 2 3 4 8 4c2 0 3 -1 4 -2c0 -5 1 -12 9 -12s8 7 8 11c0 1 1 3 4 3s8 -3 8 -5 c0 -17 -14 -20 -20 -20z"
         id="glyph2814" />
      <glyph
         glyph-name="obreve"
         unicode="ŏ"
         horiz-adv-x="63"
         d="M69 29c1 4 12 5 10 -5c-2 -9 -9 -18 -21 -18c-3 0 -5 1 -8 2c-4 -7 -11 -13 -21 -13c-17 0 -25 15 -25 32c0 25 13 41 17 41s8 -9 4 -12c-3 -4 -8 -11 -8 -28c0 -15 5 -21 12 -21c5 0 9 2 11 6c-8 7 -13 19 -13 31c0 11 5 20 14 20c8 0 15 -12 15 -29c0 -6 -1 -13 -3 -19 h4c7 0 11 6 12 13zM36 45c0 -8 3 -16 7 -21v8c0 12 0 21 -4 21c-2 0 -3 -3 -3 -8zM31 78c-8 0 -21 5 -21 21c0 2 3 4 8 4c2 0 3 -1 4 -2c0 -5 1 -12 9 -12s8 6 8 10c0 1 1 4 4 4s8 -4 8 -6c0 -17 -14 -19 -20 -19z"
         id="glyph2816" />
      <glyph
         glyph-name="Ohungarumlaut"
         unicode="Ő"
         horiz-adv-x="88"
         d="M68 59c0 3 -1 6 -1 10h-3c-14 0 -26 9 -26 22c0 9 7 17 16 17c13 0 19 -11 23 -23c2 1 3 3 5 5c1 2 1 2 2 2c2 0 6 -4 6 -9c0 -4 -4 -9 -10 -11c1 -5 1 -9 1 -13c0 -44 -19 -64 -39 -64c-25 0 -39 26 -39 57c0 59 36 71 37 72c1 0 1 1 2 1c4 0 6 -5 6 -9 c0 -2 -1 -4 -3 -4v0c-6 -3 -28 -15 -28 -59c0 -31 13 -45 25 -45c14 0 26 19 26 51zM63 81h2c-2 8 -5 14 -10 14c-3 0 -4 -2 -4 -4c0 -4 3 -10 12 -10zM53 149l-11 -16c-1 -2 -3 -3 -5 -3c-5 0 -5 2 -6 4c0 1 0 1 1 2l11 18c0 2 3 4 5 4c3 0 5 -2 6 -5c0 -2 0 -3 -1 -4z M77 149l-13 -16c-1 -2 -3 -3 -5 -3c-5 0 -6 2 -6 4c0 1 0 1 1 2l12 18c0 2 4 4 6 4c3 0 5 -2 6 -5c0 -2 0 -3 -1 -4z"
         id="glyph2818" />
      <glyph
         glyph-name="ohungarumlaut"
         unicode="ő"
         horiz-adv-x="63"
         d="M69 29c1 4 12 5 10 -5c-2 -9 -9 -18 -21 -18c-3 0 -5 1 -8 2c-4 -7 -11 -13 -21 -13c-17 0 -25 15 -25 32c0 25 13 41 17 41s8 -9 4 -12c-3 -4 -8 -11 -8 -28c0 -15 5 -21 12 -21c5 0 9 2 11 6c-8 7 -13 19 -13 31c0 11 5 20 14 20c8 0 15 -12 15 -29c0 -6 -1 -13 -3 -19 h4c7 0 11 6 12 13zM36 45c0 -8 3 -16 7 -21v8c0 12 0 21 -4 21c-2 0 -3 -3 -3 -8zM35 96l-11 -17c-1 -2 -3 -3 -5 -3c-5 0 -5 2 -6 4c0 1 0 2 1 3l11 18c0 2 3 3 5 3c3 0 6 -2 7 -5c0 -2 -1 -2 -2 -3zM59 96l-13 -17c-1 -2 -3 -3 -5 -3c-5 0 -6 2 -6 4c0 1 0 2 1 3l12 18 c0 2 4 3 6 3c3 0 5 -2 6 -5c0 -2 0 -2 -1 -3z"
         id="glyph2820" />
      <glyph
         glyph-name="Oslash"
         unicode="Ø"
         horiz-adv-x="88"
         d="M7 -1l6 12c-7 10 -10 25 -10 41c0 59 36 71 37 72c1 0 1 1 2 1c4 0 6 -5 6 -9c0 -2 -1 -4 -3 -4v0c-6 -3 -28 -15 -28 -59c0 -11 1 -20 4 -27l38 68c-1 1 -2 2 -4 2c-3 0 -5 -3 -5 -5c0 -4 2 -3 2 -4s-5 -7 -9 -7c-3 0 -5 8 -5 11c0 9 7 17 16 17c4 0 8 -2 11 -4l6 11v2 s1 1 2 1c3 0 9 -4 8 -8v-1l-8 -14c6 -10 8 -25 8 -36c0 -44 -19 -64 -39 -64c-8 0 -15 3 -20 7l-6 -10c-1 -1 -2 -1 -3 -1c-3 0 -8 4 -7 7c0 1 1 0 1 1zM68 59c0 7 0 15 -2 22l-37 -66c4 -4 8 -7 13 -7c14 0 26 19 26 51z"
         id="glyph2822" />
      <glyph
         glyph-name="oslash"
         unicode="ø"
         horiz-adv-x="63"
         d="M69 29c1 4 12 5 10 -5c-2 -9 -9 -18 -21 -18c-3 0 -5 1 -8 2c-4 -7 -11 -13 -21 -13c-4 0 -7 1 -10 2l-6 -14c-1 -1 -2 -1 -3 -1c-3 0 -6 2 -6 5c0 1 -1 1 0 2l7 14c-5 6 -7 14 -7 24c0 25 13 41 17 41s8 -9 4 -12c-3 -4 -8 -11 -8 -28c0 -4 0 -8 1 -11l10 20 c0 2 -1 5 -1 7c0 11 5 20 14 20l6 13v1s1 2 2 2c2 0 8 -2 8 -6v-2l-7 -13c4 -5 6 -14 6 -24c0 -6 -1 -13 -3 -19h4c7 0 11 6 12 13zM29 7c5 0 9 2 11 6c-3 3 -6 6 -8 10l-7 -15c1 -1 2 -1 4 -1zM38 34c1 -4 3 -7 5 -10v8v13z"
         id="glyph2824" />
      <glyph
         glyph-name="Oslashacute"
         unicode="Ǿ"
         horiz-adv-x="88"
         d="M7 -1l6 12c-7 10 -10 25 -10 41c0 59 36 71 37 72c1 0 1 1 2 1c4 0 6 -5 6 -9c0 -2 -1 -4 -3 -4v0c-6 -3 -28 -15 -28 -59c0 -11 1 -20 4 -27l38 68c-1 1 -2 2 -4 2c-3 0 -5 -3 -5 -5c0 -4 2 -3 2 -4s-5 -7 -9 -7c-3 0 -5 8 -5 11c0 9 7 17 16 17c4 0 8 -2 11 -4l6 11v2 s1 1 2 1c3 0 9 -4 8 -8v-1l-8 -14c6 -10 8 -25 8 -36c0 -44 -19 -64 -39 -64c-8 0 -15 3 -20 7l-6 -10c-1 -1 -2 -1 -3 -1c-3 0 -8 4 -7 7c0 1 1 0 1 1zM68 59c0 7 0 15 -2 22l-37 -66c4 -4 8 -7 13 -7c14 0 26 19 26 51zM70 149l-16 -16c-1 -2 -4 -3 -6 -3c-5 0 -6 2 -6 4 c0 1 0 1 1 2l16 18c0 2 4 4 6 4c3 0 7 -2 7 -5c0 -2 -1 -3 -2 -4z"
         id="glyph2826" />
      <glyph
         glyph-name="oslashacute"
         unicode="ǿ"
         horiz-adv-x="63"
         d="M69 29c1 4 12 5 10 -5c-2 -9 -9 -18 -21 -18c-3 0 -5 1 -8 2c-4 -7 -11 -13 -21 -13c-4 0 -7 1 -10 2l-6 -14c-1 -1 -2 -1 -3 -1c-3 0 -6 2 -6 5c0 1 -1 1 0 2l7 14c-5 6 -7 14 -7 24c0 25 13 41 17 41s8 -9 4 -12c-3 -4 -8 -11 -8 -28c0 -4 0 -8 1 -11l10 20 c0 2 -1 5 -1 7c0 11 5 20 14 20l6 13v1s1 2 2 2c2 0 8 -2 8 -6v-2l-7 -13c4 -5 6 -14 6 -24c0 -6 -1 -13 -3 -19h4c7 0 11 6 12 13zM29 7c5 0 9 2 11 6c-3 3 -6 6 -8 10l-7 -15c1 -1 2 -1 4 -1zM38 34c1 -4 3 -7 5 -10v8v13zM49 96l-16 -16c-1 -2 -3 -4 -5 -4 c-5 0 -7 2 -7 4c0 1 0 2 1 3l16 18c0 2 4 3 6 3c3 0 7 -2 7 -5c0 -2 -1 -2 -2 -3z"
         id="glyph2828" />
      <glyph
         glyph-name="OE"
         unicode="Œ"
         horiz-adv-x="143"
         d="M139 12c-3 -5 -14 -19 -36 -19c-15 0 -28 8 -30 24c-7 -15 -19 -22 -31 -22c-25 0 -39 26 -39 57c0 59 36 71 37 72c1 0 1 1 2 1c4 0 6 -5 6 -9c0 -2 -1 -4 -3 -4v0c-6 -3 -28 -15 -28 -59c0 -31 13 -45 25 -45c14 0 26 19 26 51c0 3 -1 6 -1 10h-3c-14 0 -26 9 -26 22 c0 9 7 17 16 17c13 0 19 -10 23 -22c4 20 21 38 43 38c16 0 24 -10 24 -23c0 -18 -15 -36 -32 -36c-4 0 -9 3 -9 9c0 2 0 6 1 6s2 -2 7 -2c11 0 19 12 19 23c0 6 -4 10 -10 10c-17 0 -33 -18 -33 -35c0 -13 10 -22 18 -23h1c2 0 3 -2 3 -4c0 -4 -2 -9 -4 -9 c-7 -1 -18 -5 -18 -19c0 -9 7 -15 17 -15c15 0 23 9 25 14c1 2 3 3 4 3c3 0 7 -4 7 -8c0 -1 -1 -2 -1 -3zM63 81h2c-2 8 -4 14 -10 14c-3 0 -4 -2 -4 -4c0 -4 3 -10 12 -10zM81 54c0 -5 0 -10 -1 -14c3 3 6 5 9 7c-3 2 -6 4 -8 7z"
         id="glyph2830" />
      <glyph
         glyph-name="oe"
         unicode="œ"
         horiz-adv-x="89"
         d="M29 7c5 0 9 2 11 6c-8 7 -13 19 -13 31c0 11 5 20 14 20c4 0 7 -3 10 -7c4 7 10 11 17 11c10 0 16 -8 16 -18c0 -13 -9 -28 -26 -33c2 -6 7 -10 16 -10c13 0 19 10 21 21c2 8 12 5 11 -1c-1 -11 -9 -32 -34 -32c-9 0 -17 4 -22 12c-4 -7 -11 -12 -21 -12 c-17 0 -25 15 -25 32c0 25 13 41 17 41s8 -9 4 -12c-3 -4 -8 -11 -8 -28c0 -15 5 -21 12 -21zM56 30v-3c9 4 14 13 14 23c0 4 -1 6 -3 6c-8 0 -11 -19 -11 -26zM36 45c0 -8 3 -16 7 -21v8c0 12 0 21 -4 21c-2 0 -3 -3 -3 -8z"
         id="glyph2832" />
      <glyph
         glyph-name="Thorn"
         unicode="Þ"
         horiz-adv-x="99"
         d="M35 0v86c-13 -5 -19 -14 -19 -25s7 -15 7 -15c2 1 2 0 2 -2c0 -3 -4 -15 -9 -11c-3 2 -13 11 -13 27c0 20 13 33 32 39v14c0 3 -1 4 -1 5c0 2 2 3 4 3c6 0 10 -4 10 -8v-11h7c25 0 42 -15 42 -35c0 -25 -24 -42 -49 -46v-22c0 -3 -2 -4 -5 -4c-4 0 -8 2 -8 5zM55 89h-7 v-56c12 1 36 12 36 34c0 10 -9 22 -29 22z"
         id="glyph2834" />
      <glyph
         glyph-name="thorn"
         unicode="þ"
         d="M19 111v-52c4 5 9 9 16 9c13 0 20 -14 20 -31c0 -10 -1 -19 -4 -25c11 1 14 5 18 13c2 3 1 5 3 5c3 0 7 -5 7 -7c0 -8 -11 -22 -34 -22c-5 -5 -11 -8 -17 -8c-4 0 -8 1 -9 3v-56c0 -6 -6 -8 -9 -8s-4 2 -4 5v173c0 5 -2 6 -2 7s4 2 6 2c6 0 9 -4 9 -8zM31 56 c-5 0 -10 -6 -12 -14v-38c2 4 8 5 16 6c4 6 7 19 7 25c0 16 -5 21 -11 21z"
         id="glyph2836" />
      <glyph
         glyph-name="Racute"
         unicode="Ŕ"
         horiz-adv-x="98"
         d="M35 0v91c0 3 -1 4 -1 5c0 2 2 3 4 3c6 0 10 -3 10 -7v-57c13 2 36 15 36 44c0 13 -9 29 -29 29c-27 0 -39 -19 -39 -39c0 -15 7 -20 7 -21c2 1 2 -1 2 -3c0 -3 -4 -15 -9 -11c-3 3 -13 14 -13 34c0 32 21 53 52 53c25 0 42 -17 42 -42c0 -24 -15 -42 -33 -50 c17 -10 15 -33 27 -46c1 -1 3 -2 3 -3c0 -3 -9 -9 -12 -9c-1 0 -1 0 -2 1c-17 19 -8 45 -32 51v-24c0 -3 -2 -4 -5 -4c-4 0 -8 2 -8 5zM71 148l-15 -17c-1 -2 -4 -3 -6 -3c-5 0 -7 2 -7 4c0 1 0 2 1 3l16 18c0 2 4 3 6 3c3 0 7 -2 7 -5c0 -2 -1 -2 -2 -3z"
         id="glyph2838" />
      <glyph
         glyph-name="racute"
         unicode="ŕ"
         horiz-adv-x="53"
         d="M44 -5c-8 0 -18 5 -18 20c0 11 3 23 9 38h-14h-1c0 -7 -2 -22 -5 -32c-2 -7 -11 -1 -9 5c2 7 2 21 2 30c-4 2 -7 6 -7 11s5 8 9 8s8 -2 10 -9c6 -1 8 -1 10 -1h9c2 0 9 -5 8 -9c0 -2 -8 -23 -8 -40c0 -5 2 -9 7 -9c8 0 10 10 12 18c1 4 3 5 5 5c3 0 6 -4 6 -7v-1 c-3 -11 -10 -27 -25 -27zM43 98l-15 -16c-1 -2 -4 -3 -6 -3c-5 0 -7 2 -7 4c0 1 0 1 1 2l16 18c0 2 4 4 6 4c3 0 7 -2 7 -5c0 -2 -1 -3 -2 -4z"
         id="glyph2840" />
      <glyph
         glyph-name="Rcommaaccent"
         unicode="Ŗ"
         horiz-adv-x="98"
         d="M35 0v91c0 3 -1 4 -1 5c0 2 2 3 4 3c6 0 10 -3 10 -7v-57c13 2 36 15 36 44c0 13 -9 29 -29 29c-27 0 -39 -19 -39 -39c0 -15 7 -20 7 -21c2 1 2 -1 2 -3c0 -3 -4 -15 -9 -11c-3 3 -13 14 -13 34c0 32 21 53 52 53c25 0 42 -17 42 -42c0 -24 -15 -42 -33 -50 c17 -10 15 -33 27 -46c1 -1 3 -2 3 -3c0 -3 -9 -9 -12 -9c-1 0 -1 0 -2 1c-17 19 -8 45 -32 51v-24c0 -3 -2 -4 -5 -4c-4 0 -8 2 -8 5zM54 -11c4 0 8 -3 8 -9c0 -7 -7 -18 -11 -18c-3 0 -5 3 -5 5c0 1 0 2 1 2s3 2 5 5c-3 1 -5 4 -5 8c0 5 3 7 7 7z"
         id="glyph2842" />
      <glyph
         glyph-name="rcommaaccent"
         unicode="ŗ"
         horiz-adv-x="53"
         d="M44 -5c-8 0 -18 5 -18 20c0 11 3 23 9 38h-14h-1c0 -7 -2 -22 -5 -32c-2 -7 -11 -1 -9 5c2 7 2 21 2 30c-4 2 -7 6 -7 11s5 8 9 8s8 -2 10 -9c6 -1 8 -1 10 -1h9c2 0 9 -5 8 -9c0 -2 -8 -23 -8 -40c0 -5 2 -9 7 -9c8 0 10 10 12 18c1 4 3 5 5 5c3 0 6 -4 6 -7v-1 c-3 -11 -10 -27 -25 -27zM23 -9c4 0 8 -3 8 -9c0 -7 -7 -18 -11 -18c-3 0 -5 3 -5 5c0 1 0 1 1 1s3 3 5 6c-3 1 -6 3 -6 7c0 5 4 8 8 8z"
         id="glyph2844" />
      <glyph
         glyph-name="Rcaron"
         unicode="Ř"
         horiz-adv-x="98"
         d="M35 0v91c0 3 -1 4 -1 5c0 2 2 3 4 3c6 0 10 -3 10 -7v-57c13 2 36 15 36 44c0 13 -9 29 -29 29c-27 0 -39 -19 -39 -39c0 -15 7 -20 7 -21c2 1 2 -1 2 -3c0 -3 -4 -15 -9 -11c-3 3 -13 14 -13 34c0 32 21 53 52 53c25 0 42 -17 42 -42c0 -24 -15 -42 -33 -50 c17 -10 15 -33 27 -46c1 -1 3 -2 3 -3c0 -3 -9 -9 -12 -9c-1 0 -1 0 -2 1c-17 19 -8 45 -32 51v-24c0 -3 -2 -4 -5 -4c-4 0 -8 2 -8 5zM48 133l-11 16c-1 1 -2 2 -2 3c0 2 3 4 8 4c2 0 3 -1 4 -2l8 -13l8 12c0 1 1 3 4 3s7 -3 7 -5c0 -1 -1 -2 -1 -2l-11 -16 c-1 -3 -3 -5 -6 -5c-5 0 -5 1 -8 5z"
         id="glyph2846" />
      <glyph
         glyph-name="rcaron"
         unicode="ř"
         horiz-adv-x="53"
         d="M44 -5c-8 0 -18 5 -18 20c0 11 3 23 9 38h-14h-1c0 -7 -2 -22 -5 -32c-2 -7 -11 -1 -9 5c2 7 2 21 2 30c-4 2 -7 6 -7 11s5 8 9 8s8 -2 10 -9c6 -1 8 -1 10 -1h9c2 0 9 -5 8 -9c0 -2 -8 -23 -8 -40c0 -5 2 -9 7 -9c8 0 10 10 12 18c1 4 3 5 5 5c3 0 6 -4 6 -7v-1 c-3 -11 -10 -27 -25 -27zM20 83l-11 17c-1 1 -2 2 -2 3c0 2 3 4 8 4c2 0 3 -1 4 -2l8 -13l8 12c0 1 1 3 4 3s7 -4 7 -6c0 -1 -1 -2 -1 -2l-11 -16c-1 -3 -3 -4 -6 -4c-5 0 -5 0 -8 4z"
         id="glyph2848" />
      <glyph
         glyph-name="Sacute"
         unicode="Ś"
         horiz-adv-x="71"
         d="M35 -6c-15 0 -19 7 -19 8c0 4 4 10 7 10c1 0 1 0 2 -1s3 -4 10 -4s12 5 12 12c0 21 -42 22 -42 57c0 23 24 47 48 47c13 0 22 -10 22 -23c0 -19 -22 -37 -33 -37c-6 0 -9 6 -9 10c0 3 1 1 4 1c9 0 25 15 25 26c0 6 -3 10 -10 10c-13 0 -34 -15 -34 -34 c0 -27 43 -28 43 -57c0 -14 -11 -25 -26 -25zM65 149l-15 -16c-1 -2 -4 -3 -6 -3c-5 0 -7 2 -7 4c0 1 1 1 2 2l15 18c0 2 4 4 6 4c3 0 7 -2 7 -5c0 -2 -1 -3 -2 -4z"
         id="glyph2850" />
      <glyph
         glyph-name="sacute"
         unicode="ś"
         horiz-adv-x="55"
         d="M16 24c-2 -7 -11 -3 -10 3c2 8 5 18 8 27c-2 3 -2 5 -2 8c0 6 9 14 14 14c4 0 7 -3 7 -8s-5 -11 -5 -12c8 -14 19 -21 19 -37c0 -2 0 -4 -1 -6c8 2 12 6 14 12c1 3 2 5 4 5c3 0 7 -5 7 -7c0 -3 -4 -10 -8 -13c-5 -4 -13 -8 -24 -9c-4 -4 -10 -6 -17 -6s-16 4 -19 7 c-8 8 -4 18 0 18c3 0 19 -10 28 -10c2 2 4 6 4 10c0 11 -6 19 -12 25c-3 -7 -5 -13 -7 -21zM42 104l-16 -17c-1 -2 -3 -3 -5 -3c-5 0 -7 2 -7 4c0 1 0 2 1 3l16 18c0 2 4 3 6 3c3 0 7 -2 7 -5c0 -2 -1 -2 -2 -3z"
         id="glyph2852" />
      <glyph
         glyph-name="Scircumflex"
         unicode="Ŝ"
         horiz-adv-x="71"
         d="M35 -6c-15 0 -19 7 -19 8c0 4 4 10 7 10c1 0 1 0 2 -1s3 -4 10 -4s12 5 12 12c0 21 -42 22 -42 57c0 23 24 47 48 47c13 0 22 -10 22 -23c0 -19 -22 -37 -33 -37c-6 0 -9 6 -9 10c0 3 1 1 4 1c9 0 25 15 25 26c0 6 -3 10 -10 10c-13 0 -34 -15 -34 -34 c0 -27 43 -28 43 -57c0 -14 -11 -25 -26 -25zM56 153l12 -17c1 -1 1 -1 1 -2c0 -2 -3 -4 -8 -4c-2 0 -2 0 -3 1l-9 14l-7 -12c-1 -2 -1 -3 -4 -3s-8 3 -8 5v1l13 17c2 3 5 5 8 5c4 0 4 -2 5 -5z"
         id="glyph2854" />
      <glyph
         glyph-name="scircumflex"
         unicode="ŝ"
         horiz-adv-x="55"
         d="M16 24c-2 -7 -11 -3 -10 3c2 8 5 18 8 27c-2 3 -2 5 -2 8c0 6 9 14 14 14c4 0 7 -3 7 -8s-5 -11 -5 -12c8 -14 19 -21 19 -37c0 -2 0 -4 -1 -6c8 2 12 6 14 12c1 3 2 5 4 5c3 0 7 -5 7 -7c0 -3 -4 -10 -8 -13c-5 -4 -13 -8 -24 -9c-4 -4 -10 -6 -17 -6s-16 4 -19 7 c-8 8 -4 18 0 18c3 0 19 -10 28 -10c2 2 4 6 4 10c0 11 -6 19 -12 25c-3 -7 -5 -13 -7 -21zM33 107l11 -16c1 -1 2 -2 2 -3c0 -2 -3 -4 -8 -4c-2 0 -3 1 -4 2l-8 13l-8 -12c-1 -2 -1 -3 -4 -3s-7 4 -7 6v0l12 18c2 3 5 4 8 4c4 0 5 -2 6 -5z"
         id="glyph2856" />
      <glyph
         glyph-name="Scedilla"
         unicode="Ş"
         horiz-adv-x="71"
         d="M61 19c0 -12 -9 -23 -21 -25l-2 -5c12 -2 14 -10 14 -15c0 -6 -5 -16 -19 -16c-10 0 -13 2 -13 7c0 2 0 5 2 4s6 -1 9 -1c6 0 11 2 11 7c0 8 -14 2 -14 10c0 1 1 6 2 9c-11 1 -14 7 -14 8c0 4 4 10 7 10c1 0 1 0 2 -1s3 -4 10 -4s12 5 12 12c0 21 -42 22 -42 57 c0 23 24 47 48 47c13 0 22 -10 22 -23c0 -19 -22 -37 -33 -37c-6 0 -9 6 -9 10c0 3 1 1 4 1c9 0 25 15 25 26c0 6 -3 10 -10 10c-13 0 -34 -15 -34 -34c0 -27 43 -28 43 -57z"
         id="glyph2858" />
      <glyph
         glyph-name="scedilla"
         unicode="ş"
         horiz-adv-x="55"
         d="M16 24c-2 -7 -11 -3 -10 3c2 8 5 18 8 27c-2 3 -2 5 -2 8c0 6 9 14 14 14c4 0 7 -3 7 -8s-5 -11 -5 -12c8 -14 19 -21 19 -37c0 -2 0 -4 -1 -6c8 2 12 6 14 12c1 3 2 5 4 5c3 0 7 -5 7 -7c0 -3 -4 -10 -8 -13c-5 -4 -13 -8 -24 -9c-3 -3 -7 -4 -11 -5l-1 -5 c12 -2 14 -10 14 -15c0 -6 -5 -16 -19 -16c-10 0 -14 2 -14 7c0 2 1 5 3 4s6 -1 9 -1c6 0 10 2 10 7c0 8 -14 2 -14 10c0 1 2 6 3 9c-6 1 -13 3 -16 6c-8 8 -4 18 0 18c3 0 19 -10 28 -10c2 2 4 6 4 10c0 11 -6 19 -12 25c-3 -7 -5 -13 -7 -21z"
         id="glyph2860" />
      <glyph
         glyph-name="Scaron"
         unicode="Š"
         horiz-adv-x="71"
         d="M35 -6c-15 0 -19 7 -19 8c0 4 4 10 7 10c1 0 1 0 2 -1s3 -4 10 -4s12 5 12 12c0 21 -42 22 -42 57c0 23 24 47 48 47c13 0 22 -10 22 -23c0 -19 -22 -37 -33 -37c-6 0 -9 6 -9 10c0 3 1 1 4 1c9 0 25 15 25 26c0 6 -3 10 -10 10c-13 0 -34 -15 -34 -34 c0 -27 43 -28 43 -57c0 -14 -11 -25 -26 -25zM42 135l-11 16c-1 1 -1 2 -1 3c0 2 2 4 7 4c2 0 3 -1 4 -2l9 -13l7 12c0 1 1 3 4 3s8 -3 8 -5c0 -1 -2 -3 -2 -3l-11 -16c-1 -3 -2 -4 -5 -4c-5 0 -6 1 -9 5z"
         id="glyph2862" />
      <glyph
         glyph-name="scaron"
         unicode="š"
         horiz-adv-x="55"
         d="M16 24c-2 -7 -11 -3 -10 3c2 8 5 18 8 27c-2 3 -2 5 -2 8c0 6 9 14 14 14c4 0 7 -3 7 -8s-5 -11 -5 -12c8 -14 19 -21 19 -37c0 -2 0 -4 -1 -6c8 2 12 6 14 12c1 3 2 5 4 5c3 0 7 -5 7 -7c0 -3 -4 -10 -8 -13c-5 -4 -13 -8 -24 -9c-4 -4 -10 -6 -17 -6s-16 4 -19 7 c-8 8 -4 18 0 18c3 0 19 -10 28 -10c2 2 4 6 4 10c0 11 -6 19 -12 25c-3 -7 -5 -13 -7 -21zM19 89l-12 17c-1 1 -1 1 -1 2c0 2 3 4 8 4c2 0 3 0 4 -1l8 -14l8 12c0 1 1 3 4 3s7 -3 7 -5c0 -1 -1 -2 -1 -2l-11 -16c-1 -3 -3 -5 -6 -5c-5 0 -5 1 -8 5z"
         id="glyph2864" />
      <glyph
         glyph-name="Tcommaaccent"
         unicode="Ţ"
         horiz-adv-x="88"
         d="M71 10c0 -15 -3 -22 -9 -22c-4 0 -12 7 -12 10c0 2 1 1 3 1c3 0 5 4 5 13v95c-21 -2 -41 -10 -41 -37c0 -12 6 -19 10 -23c2 1 2 -1 2 -3c0 -4 -4 -10 -8 -10c-1 0 -2 0 -3 1c-5 4 -15 17 -15 35c0 33 26 51 62 51h29s3 1 4 1s3 -3 3 -6c0 -4 -3 -9 -7 -9 c-2 0 -15 1 -23 1v-98zM62 -20c4 0 8 -3 8 -9c0 -7 -8 -17 -12 -17c-3 0 -4 2 -4 4c0 1 0 2 1 2s3 2 5 5c-3 1 -6 4 -6 8c0 5 4 7 8 7z"
         id="glyph2866" />
      <glyph
         glyph-name="tcommaaccent"
         unicode="ţ"
         horiz-adv-x="31"
         d="M-10 81h16v29c0 5 -2 6 -2 7s4 2 6 2c6 0 9 -4 9 -8v-30c11 0 23 -1 35 0c5 5 2 -11 -2 -11c-14 0 -24 -1 -33 -1v-54c0 -6 2 -8 6 -8c7 0 10 10 12 18c1 4 2 5 4 5c3 0 6 -4 6 -7v-1c-3 -11 -10 -27 -25 -27c-9 0 -16 5 -16 19v55c-8 0 -12 1 -12 1c-6 0 -9 11 -4 11z M21 -11c4 0 8 -3 8 -9c0 -7 -8 -18 -12 -18c-3 0 -4 3 -4 5c0 1 0 2 1 2s3 2 5 5c-3 1 -6 4 -6 8c0 5 4 7 8 7z"
         id="glyph2868" />
      <glyph
         glyph-name="Tcaron"
         unicode="Ť"
         horiz-adv-x="88"
         d="M71 10c0 -15 -3 -22 -9 -22c-4 0 -12 7 -12 10c0 2 1 1 3 1c3 0 5 4 5 13v95c-21 -2 -41 -10 -41 -37c0 -12 6 -19 10 -23c2 1 2 -1 2 -3c0 -4 -4 -10 -8 -10c-1 0 -2 0 -3 1c-5 4 -15 17 -15 35c0 33 26 51 62 51h29s3 1 4 1s3 -3 3 -6c0 -4 -3 -9 -7 -9 c-2 0 -15 1 -23 1v-98zM58 133l-12 17c-1 1 -1 1 -1 2c0 2 3 4 8 4c2 0 2 0 3 -1l9 -13l7 11c0 1 1 3 4 3s8 -3 8 -5c0 -1 -1 -2 -1 -2l-12 -16c-1 -3 -2 -5 -5 -5c-5 0 -5 1 -8 5z"
         id="glyph2870" />
      <glyph
         glyph-name="tcaron"
         unicode="ť"
         horiz-adv-x="41"
         d="M-10 81h16v29c0 5 -2 6 -2 7s4 2 6 2c6 0 9 -4 9 -8v-30c11 0 23 -1 35 0c5 5 2 -11 -2 -11c-14 0 -24 -1 -33 -1v-54c0 -6 2 -8 6 -8c7 0 10 10 12 18c1 4 2 5 4 5c3 0 6 -4 6 -7v-1c-3 -11 -10 -27 -25 -27c-9 0 -16 5 -16 19v55c-8 0 -12 1 -12 1c-6 0 -9 11 -4 11z M34 115c4 0 8 -3 8 -9c0 -7 -8 -17 -12 -17c-3 0 -5 2 -5 4c0 1 0 2 1 2s3 2 5 5c-3 1 -5 4 -5 8c0 5 4 7 8 7z"
         id="glyph2872" />
      <glyph
         glyph-name="Tbar"
         unicode="Ŧ"
         horiz-adv-x="88"
         d="M71 10c0 -15 -3 -22 -9 -22c-4 0 -12 7 -12 10c0 2 1 1 3 1c3 0 5 4 5 13v59h-20c-3 0 -5 2 -5 4c0 5 3 7 7 7h18v25c-21 -2 -41 -10 -41 -37c0 -12 6 -19 10 -23c2 1 2 -1 2 -3c0 -4 -4 -10 -8 -10c-1 0 -2 0 -3 1c-5 4 -15 17 -15 35c0 33 26 51 62 51h29s3 1 4 1 s3 -3 3 -6c0 -4 -3 -9 -7 -9c-2 0 -15 1 -23 1v-26h19c3 0 4 -1 4 -4s-2 -8 -5 -8v1h-18v-61z"
         id="glyph2874" />
      <glyph
         glyph-name="tbar"
         unicode="ŧ"
         horiz-adv-x="31"
         d="M25 7c7 0 10 10 12 18c1 4 2 5 4 5c3 0 6 -4 6 -7v-1c-3 -11 -10 -27 -25 -27c-9 0 -16 5 -16 19v30h-10c-3 0 -4 2 -4 4c0 5 2 8 6 8h8v13c-8 0 -12 1 -12 1c-6 0 -9 11 -4 11h16v29c0 5 -2 6 -2 7s4 2 6 2c6 0 9 -4 9 -8v-30c11 0 23 -1 35 0c5 5 2 -11 -2 -11 c-14 0 -24 -1 -33 -1v-13h14c3 0 4 -2 4 -5s-2 -7 -5 -7h-1h-12v-29c0 -6 2 -8 6 -8z"
         id="glyph2876" />
      <glyph
         glyph-name="Ugrave"
         unicode="Ù"
         horiz-adv-x="106"
         d="M83 16v1c-7 -12 -16 -22 -26 -22c-5 0 -12 4 -12 15v98c-16 -2 -28 -14 -28 -36c0 -14 7 -22 9 -22h3s1 -1 1 -2c0 -7 -7 -14 -12 -10c-6 4 -15 17 -15 34c0 37 29 49 49 49c4 0 7 -3 7 -7v-103c0 -2 0 -2 1 -2c5 0 23 23 23 38v66v5c0 2 2 3 4 3c6 0 10 -4 10 -8v-75 c0 -23 0 -31 1 -37c0 -1 1 -2 1 -2c0 -2 -5 -4 -9 -4c-6 0 -6 7 -7 21zM70 130l-17 17c-1 1 -1 2 -1 3c0 3 5 6 7 6s4 -1 5 -3l16 -19c1 -1 1 -1 1 -2c0 -2 -2 -4 -7 -4c-2 0 -3 1 -4 2z"
         id="glyph2878" />
      <glyph
         glyph-name="ugrave"
         unicode="ù"
         d="M54 -5c-8 0 -14 5 -15 12c-4 -7 -9 -12 -17 -12c-12 0 -18 10 -18 25c0 18 6 39 6 39c1 3 0 6 9 6c8 0 4 -6 3 -9c-3 -13 -5 -20 -5 -35c0 -9 3 -15 8 -15c7 0 12 12 14 24v28c0 5 -2 5 -2 6s4 2 6 2c6 0 9 -4 9 -8v-43c0 -2 1 -8 5 -8c7 0 9 10 11 18c1 4 2 5 4 5 c3 0 7 -4 7 -7c0 0 -1 0 -1 -1c-3 -11 -9 -27 -24 -27zM31 77l-16 18c-1 1 -2 2 -2 3c0 3 6 6 8 6s4 -2 5 -4l15 -18c1 -1 2 -1 2 -2c0 -2 -3 -4 -8 -4c-2 0 -3 0 -4 1z"
         id="glyph2880" />
      <glyph
         glyph-name="Uacute"
         unicode="Ú"
         horiz-adv-x="106"
         d="M83 16v1c-7 -12 -16 -22 -26 -22c-5 0 -12 4 -12 15v98c-16 -2 -28 -14 -28 -36c0 -14 7 -22 9 -22h3s1 -1 1 -2c0 -7 -7 -14 -12 -10c-6 4 -15 17 -15 34c0 37 29 49 49 49c4 0 7 -3 7 -7v-103c0 -2 0 -2 1 -2c5 0 23 23 23 38v66v5c0 2 2 3 4 3c6 0 10 -4 10 -8v-75 c0 -23 0 -31 1 -37c0 -1 1 -2 1 -2c0 -2 -5 -4 -9 -4c-6 0 -6 7 -7 21zM85 147l-15 -16c-1 -2 -4 -3 -6 -3c-5 0 -7 2 -7 4c0 1 1 1 2 2l16 19c0 2 3 3 5 3c3 0 7 -2 7 -5c0 -2 -1 -3 -2 -4z"
         id="glyph2882" />
      <glyph
         glyph-name="uacute"
         unicode="ú"
         d="M54 -5c-8 0 -14 5 -15 12c-4 -7 -9 -12 -17 -12c-12 0 -18 10 -18 25c0 18 6 39 6 39c1 3 0 6 9 6c8 0 4 -6 3 -9c-3 -13 -5 -20 -5 -35c0 -9 3 -15 8 -15c7 0 12 12 14 24v28c0 5 -2 5 -2 6s4 2 6 2c6 0 9 -4 9 -8v-43c0 -2 1 -8 5 -8c7 0 9 10 11 18c1 4 2 5 4 5 c3 0 7 -4 7 -7c0 0 -1 0 -1 -1c-3 -11 -9 -27 -24 -27zM47 95l-16 -16c-1 -2 -3 -3 -5 -3c-5 0 -7 2 -7 4c0 1 0 1 1 2l16 18c0 2 4 4 6 4c3 0 7 -2 7 -5c0 -2 -1 -3 -2 -4z"
         id="glyph2884" />
      <glyph
         glyph-name="Ucircumflex"
         unicode="Û"
         horiz-adv-x="106"
         d="M83 16v1c-7 -12 -16 -22 -26 -22c-5 0 -12 4 -12 15v98c-16 -2 -28 -14 -28 -36c0 -14 7 -22 9 -22h3s1 -1 1 -2c0 -7 -7 -14 -12 -10c-6 4 -15 17 -15 34c0 37 29 49 49 49c4 0 7 -3 7 -7v-103c0 -2 0 -2 1 -2c5 0 23 23 23 38v66v5c0 2 2 3 4 3c6 0 10 -4 10 -8v-75 c0 -23 0 -31 1 -37c0 -1 1 -2 1 -2c0 -2 -5 -4 -9 -4c-6 0 -6 7 -7 21zM76 151l12 -17c1 -1 1 -1 1 -2c0 -2 -3 -4 -8 -4c-2 0 -2 1 -3 2l-9 13l-7 -12c-1 -2 -1 -3 -4 -3s-8 3 -8 5l1 1l12 17c2 3 5 5 8 5c4 0 4 -2 5 -5z"
         id="glyph2886" />
      <glyph
         glyph-name="ucircumflex"
         unicode="û"
         d="M54 -5c-8 0 -14 5 -15 12c-4 -7 -9 -12 -17 -12c-12 0 -18 10 -18 25c0 18 6 39 6 39c1 3 0 6 9 6c8 0 4 -6 3 -9c-3 -13 -5 -20 -5 -35c0 -9 3 -15 8 -15c7 0 12 12 14 24v28c0 5 -2 5 -2 6s4 2 6 2c6 0 9 -4 9 -8v-43c0 -2 1 -8 5 -8c7 0 9 10 11 18c1 4 2 5 4 5 c3 0 7 -4 7 -7c0 0 -1 0 -1 -1c-3 -11 -9 -27 -24 -27zM38 99l11 -17c1 -1 2 -1 2 -2c0 -2 -3 -4 -8 -4c-2 0 -3 0 -4 1l-8 13l-8 -11c-1 -2 -1 -3 -4 -3s-7 3 -7 5v1l12 17c2 3 5 5 8 5c4 0 5 -2 6 -5z"
         id="glyph2888" />
      <glyph
         glyph-name="Udieresis"
         unicode="Ü"
         horiz-adv-x="106"
         d="M83 16v1c-7 -12 -16 -22 -26 -22c-5 0 -12 4 -12 15v98c-16 -2 -28 -14 -28 -36c0 -14 7 -22 9 -22h3s1 -1 1 -2c0 -7 -7 -14 -12 -10c-6 4 -15 17 -15 34c0 37 29 49 49 49c4 0 7 -3 7 -7v-103c0 -2 0 -2 1 -2c5 0 23 23 23 38v66v5c0 2 2 3 4 3c6 0 10 -4 10 -8v-75 c0 -23 0 -31 1 -37c0 -1 1 -2 1 -2c0 -2 -5 -4 -9 -4c-6 0 -6 7 -7 21zM49 139c0 4 4 9 8 9s8 -5 8 -9s-4 -8 -8 -8s-8 4 -8 8zM74 139c0 4 4 9 8 9s8 -5 8 -9s-4 -8 -8 -8s-8 4 -8 8z"
         id="glyph2890" />
      <glyph
         glyph-name="udieresis"
         unicode="ü"
         d="M54 -5c-8 0 -14 5 -15 12c-4 -7 -9 -12 -17 -12c-12 0 -18 10 -18 25c0 18 6 39 6 39c1 3 0 6 9 6c8 0 4 -6 3 -9c-3 -13 -5 -20 -5 -35c0 -9 3 -15 8 -15c7 0 12 12 14 24v28c0 5 -2 5 -2 6s4 2 6 2c6 0 9 -4 9 -8v-43c0 -2 1 -8 5 -8c7 0 9 10 11 18c1 4 2 5 4 5 c3 0 7 -4 7 -7c0 0 -1 0 -1 -1c-3 -11 -9 -27 -24 -27zM11 87c0 4 4 8 8 8s8 -4 8 -8s-4 -8 -8 -8s-8 4 -8 8zM35 87c0 4 5 8 9 8s8 -4 8 -8s-4 -8 -8 -8s-9 4 -9 8z"
         id="glyph2892" />
      <glyph
         glyph-name="Utilde"
         unicode="Ũ"
         horiz-adv-x="106"
         d="M83 16v1c-7 -12 -16 -22 -26 -22c-5 0 -12 4 -12 15v98c-16 -2 -28 -14 -28 -36c0 -14 7 -22 9 -22h3s1 -1 1 -2c0 -7 -7 -14 -12 -10c-6 4 -15 17 -15 34c0 37 29 49 49 49c4 0 7 -3 7 -7v-103c0 -2 0 -2 1 -2c5 0 23 23 23 38v66v5c0 2 2 3 4 3c6 0 10 -4 10 -8v-75 c0 -23 0 -31 1 -37c0 -1 1 -2 1 -2c0 -2 -5 -4 -9 -4c-6 0 -6 7 -7 21zM58 134c0 -2 -2 -3 -4 -3c-3 0 -6 2 -6 4c0 7 5 16 13 16c9 0 13 -10 18 -10c2 0 3 3 3 6s3 3 5 3c3 0 6 -1 6 -3c0 -11 -8 -17 -14 -17c-9 0 -13 10 -16 10s-4 -3 -5 -6z"
         id="glyph2894" />
      <glyph
         glyph-name="utilde"
         unicode="ũ"
         d="M54 -5c-8 0 -14 5 -15 12c-4 -7 -9 -12 -17 -12c-12 0 -18 10 -18 25c0 18 6 39 6 39c1 3 0 6 9 6c8 0 4 -6 3 -9c-3 -13 -5 -20 -5 -35c0 -9 3 -15 8 -15c7 0 12 12 14 24v28c0 5 -2 5 -2 6s4 2 6 2c6 0 9 -4 9 -8v-43c0 -2 1 -8 5 -8c7 0 9 10 11 18c1 4 2 5 4 5 c3 0 7 -4 7 -7c0 0 -1 0 -1 -1c-3 -11 -9 -27 -24 -27zM20 81c0 -2 -2 -2 -4 -2c-3 0 -6 2 -6 4c0 7 5 15 13 15c9 0 12 -9 17 -9c2 0 3 2 3 5s3 4 5 4c3 0 6 -1 6 -3c0 -11 -8 -17 -14 -17c-9 0 -13 10 -16 10s-3 -4 -4 -7z"
         id="glyph2896" />
      <glyph
         glyph-name="Umacron"
         unicode="Ū"
         horiz-adv-x="106"
         d="M83 16v1c-7 -12 -16 -22 -26 -22c-5 0 -12 4 -12 15v98c-16 -2 -28 -14 -28 -36c0 -14 7 -22 9 -22h3s1 -1 1 -2c0 -7 -7 -14 -12 -10c-6 4 -15 17 -15 34c0 37 29 49 49 49c4 0 7 -3 7 -7v-103c0 -2 0 -2 1 -2c5 0 23 23 23 38v66v5c0 2 2 3 4 3c6 0 10 -4 10 -8v-75 c0 -23 0 -31 1 -37c0 -1 1 -2 1 -2c0 -2 -5 -4 -9 -4c-6 0 -6 7 -7 21zM56 144h30c3 0 4 -2 4 -5s-2 -7 -5 -7h-1h-30c-3 0 -4 2 -4 4c0 5 2 8 6 8z"
         id="glyph2898" />
      <glyph
         glyph-name="umacron"
         unicode="ū"
         d="M54 -5c-8 0 -14 5 -15 12c-4 -7 -9 -12 -17 -12c-12 0 -18 10 -18 25c0 18 6 39 6 39c1 3 0 6 9 6c8 0 4 -6 3 -9c-3 -13 -5 -20 -5 -35c0 -9 3 -15 8 -15c7 0 12 12 14 24v28c0 5 -2 5 -2 6s4 2 6 2c6 0 9 -4 9 -8v-43c0 -2 1 -8 5 -8c7 0 9 10 11 18c1 4 2 5 4 5 c3 0 7 -4 7 -7c0 0 -1 0 -1 -1c-3 -11 -9 -27 -24 -27zM17 92h30c3 0 4 -2 4 -5s-1 -7 -4 -7h-1h-30c-3 0 -5 2 -5 4c0 5 2 8 6 8z"
         id="glyph2900" />
      <glyph
         glyph-name="Ubreve"
         unicode="Ŭ"
         horiz-adv-x="106"
         d="M83 16v1c-7 -12 -16 -22 -26 -22c-5 0 -12 4 -12 15v98c-16 -2 -28 -14 -28 -36c0 -14 7 -22 9 -22h3s1 -1 1 -2c0 -7 -7 -14 -12 -10c-6 4 -15 17 -15 34c0 37 29 49 49 49c4 0 7 -3 7 -7v-103c0 -2 0 -2 1 -2c5 0 23 23 23 38v66v5c0 2 2 3 4 3c6 0 10 -4 10 -8v-75 c0 -23 0 -31 1 -37c0 -1 1 -2 1 -2c0 -2 -5 -4 -9 -4c-6 0 -6 7 -7 21zM70 130c-8 0 -21 4 -21 20c0 2 3 4 8 4c2 0 2 -1 3 -2c0 -5 2 -12 10 -12s8 7 8 11c0 1 1 3 4 3s7 -3 7 -5c0 -17 -13 -19 -19 -19z"
         id="glyph2902" />
      <glyph
         glyph-name="ubreve"
         unicode="ŭ"
         d="M54 -5c-8 0 -14 5 -15 12c-4 -7 -9 -12 -17 -12c-12 0 -18 10 -18 25c0 18 6 39 6 39c1 3 0 6 9 6c8 0 4 -6 3 -9c-3 -13 -5 -20 -5 -35c0 -9 3 -15 8 -15c7 0 12 12 14 24v28c0 5 -2 5 -2 6s4 2 6 2c6 0 9 -4 9 -8v-43c0 -2 1 -8 5 -8c7 0 9 10 11 18c1 4 2 5 4 5 c3 0 7 -4 7 -7c0 0 -1 0 -1 -1c-3 -11 -9 -27 -24 -27zM31 77c-8 0 -21 5 -21 21c0 2 3 4 8 4c2 0 3 -1 4 -2c0 -5 1 -12 9 -12s8 7 8 11c0 1 2 3 5 3s7 -3 7 -5c0 -17 -14 -20 -20 -20z"
         id="glyph2904" />
      <glyph
         glyph-name="Uring"
         unicode="Ů"
         horiz-adv-x="106"
         d="M83 16v1c-7 -12 -16 -22 -26 -22c-5 0 -12 4 -12 15v98c-16 -2 -28 -14 -28 -36c0 -14 7 -22 9 -22h3s1 -1 1 -2c0 -7 -7 -14 -12 -10c-6 4 -15 17 -15 34c0 37 29 49 49 49c4 0 7 -3 7 -7v-103c0 -2 0 -2 1 -2c5 0 23 23 23 38v66v5c0 2 2 3 4 3c6 0 10 -4 10 -8v-75 c0 -23 0 -31 1 -37c0 -1 1 -2 1 -2c0 -2 -5 -4 -9 -4c-6 0 -6 7 -7 21zM52 144c0 10 8 18 18 18s18 -8 18 -18s-8 -18 -18 -18s-18 8 -18 18zM62 144c0 -4 4 -8 8 -8s7 4 7 8s-3 8 -7 8s-8 -4 -8 -8z"
         id="glyph2906" />
      <glyph
         glyph-name="uring"
         unicode="ů"
         d="M54 -5c-8 0 -14 5 -15 12c-4 -7 -9 -12 -17 -12c-12 0 -18 10 -18 25c0 18 6 39 6 39c1 3 0 6 9 6c8 0 4 -6 3 -9c-3 -13 -5 -20 -5 -35c0 -9 3 -15 8 -15c7 0 12 12 14 24v28c0 5 -2 5 -2 6s4 2 6 2c6 0 9 -4 9 -8v-43c0 -2 1 -8 5 -8c7 0 9 10 11 18c1 4 2 5 4 5 c3 0 7 -4 7 -7c0 0 -1 0 -1 -1c-3 -11 -9 -27 -24 -27zM13 92c0 10 8 18 18 18s18 -8 18 -18s-8 -18 -18 -18s-18 8 -18 18zM24 92c0 -4 3 -8 7 -8s8 4 8 8s-4 7 -8 7s-7 -3 -7 -7z"
         id="glyph2908" />
      <glyph
         glyph-name="Uhungarumlaut"
         unicode="Ű"
         horiz-adv-x="106"
         d="M83 16v1c-7 -12 -16 -22 -26 -22c-5 0 -12 4 -12 15v98c-16 -2 -28 -14 -28 -36c0 -14 7 -22 9 -22h3s1 -1 1 -2c0 -7 -7 -14 -12 -10c-6 4 -15 17 -15 34c0 37 29 49 49 49c4 0 7 -3 7 -7v-103c0 -2 0 -2 1 -2c5 0 23 23 23 38v66v5c0 2 2 3 4 3c6 0 10 -4 10 -8v-75 c0 -23 0 -31 1 -37c0 -1 1 -2 1 -2c0 -2 -5 -4 -9 -4c-6 0 -6 7 -7 21zM74 147l-11 -16c-1 -2 -3 -3 -5 -3c-5 0 -5 2 -6 4c0 1 0 1 1 2l11 19c0 2 3 3 5 3c3 0 5 -2 6 -5c0 -2 0 -3 -1 -4zM98 147l-13 -16c-1 -2 -3 -3 -5 -3c-5 0 -7 2 -7 4c0 1 0 1 1 2l13 19c0 2 3 3 5 3 c3 0 6 -2 7 -5c0 -2 0 -3 -1 -4z"
         id="glyph2910" />
      <glyph
         glyph-name="uhungarumlaut"
         unicode="ű"
         d="M54 -5c-8 0 -14 5 -15 12c-4 -7 -9 -12 -17 -12c-12 0 -18 10 -18 25c0 18 6 39 6 39c1 3 0 6 9 6c8 0 4 -6 3 -9c-3 -13 -5 -20 -5 -35c0 -9 3 -15 8 -15c7 0 12 12 14 24v28c0 5 -2 5 -2 6s4 2 6 2c6 0 9 -4 9 -8v-43c0 -2 1 -8 5 -8c7 0 9 10 11 18c1 4 2 5 4 5 c3 0 7 -4 7 -7c0 0 -1 0 -1 -1c-3 -11 -9 -27 -24 -27zM35 95l-11 -16c-1 -2 -3 -3 -5 -3c-5 0 -5 2 -6 4c0 1 0 1 1 2l11 18c0 2 3 4 5 4c3 0 6 -2 7 -5c0 -2 -1 -3 -2 -4zM59 95l-13 -16c-1 -2 -3 -3 -5 -3c-5 0 -6 2 -6 4c0 1 0 1 1 2l13 18c0 2 3 4 5 4c3 0 6 -2 7 -5 c0 -2 -1 -3 -2 -4z"
         id="glyph2912" />
      <glyph
         glyph-name="Uogonek"
         unicode="Ų"
         horiz-adv-x="106"
         d="M83 16v1c-7 -12 -16 -22 -26 -22c-5 0 -12 4 -12 15v98c-16 -2 -28 -14 -28 -36c0 -14 7 -22 9 -22h3s1 -1 1 -2c0 -7 -7 -14 -12 -10c-6 4 -15 17 -15 34c0 37 29 49 49 49c4 0 7 -3 7 -7v-103c0 -2 0 -2 1 -2c5 0 23 23 23 38v66v5c0 2 2 3 4 3c6 0 10 -4 10 -8v-75 c0 -23 0 -31 1 -37c0 -1 1 -2 1 -2c0 -1 -2 -1 -3 -2c-7 -4 -15 -10 -15 -17c0 -3 2 -6 8 -6c3 0 8 1 10 2s3 -2 3 -4c0 -5 -4 -8 -14 -8c-14 0 -19 9 -19 15c0 9 7 14 16 21c-1 3 -2 9 -2 16z"
         id="glyph2914" />
      <glyph
         glyph-name="uogonek"
         unicode="ų"
         d="M45 -2c-3 2 -5 5 -6 9c-4 -7 -9 -12 -17 -12c-12 0 -18 10 -18 25c0 18 6 39 6 39c1 3 0 6 9 6c8 0 4 -6 3 -9c-3 -13 -5 -20 -5 -35c0 -9 3 -15 8 -15c7 0 12 12 14 24v28c0 5 -2 5 -2 6s4 2 6 2c6 0 9 -4 9 -8v-43c0 -2 1 -8 5 -8c7 0 9 10 11 18c1 4 2 5 4 5 c3 0 7 -4 7 -7c0 0 -1 0 -1 -1c-3 -10 -8 -22 -19 -27c-6 -3 -13 -9 -13 -14c0 -3 2 -6 8 -6c3 0 9 1 11 2s2 -2 2 -4c0 -5 -4 -8 -14 -8c-14 0 -18 9 -18 15c0 7 3 13 10 18z"
         id="glyph2916" />
      <glyph
         glyph-name="Wcircumflex"
         unicode="Ŵ"
         horiz-adv-x="94"
         d="M84 101v-78c0 -20 -11 -28 -21 -28c-3 0 -12 0 -17 7c-5 -7 -12 -7 -15 -7c-11 0 -20 8 -20 28v78c0 9 -2 13 -6 14h-1c0 2 6 6 11 6c4 0 9 -4 9 -18v-82c0 -13 6 -13 8 -13c3 0 9 0 9 15v84c0 3 -1 5 -1 6c0 2 2 3 4 3c6 0 10 -4 10 -8v-87c0 -13 5 -13 8 -13 c2 0 9 0 9 13v82c0 14 5 18 9 18c5 0 11 -4 11 -6h-1c-4 -1 -6 -5 -6 -14zM54 146l12 -16c1 -1 1 -2 1 -3c0 -2 -2 -4 -7 -4c-2 0 -3 1 -4 2l-9 13l-7 -12c-1 -2 -1 -3 -4 -3s-8 4 -8 6h1l12 18c2 3 5 4 8 4c4 0 4 -2 5 -5z"
         id="glyph2918" />
      <glyph
         glyph-name="wcircumflex"
         unicode="ŵ"
         horiz-adv-x="86"
         d="M36 19v39v5c0 2 2 3 4 3c6 0 9 -4 9 -8v-39c0 -7 2 -12 9 -12s9 5 9 12v39c0 3 -1 4 -1 5c0 2 2 3 4 3c6 0 10 -4 10 -8v-39c0 -11 -3 -24 -21 -24c-7 0 -14 4 -16 8c-2 -4 -9 -8 -16 -8c-19 0 -21 15 -21 24v39c0 3 -1 4 -1 5c0 2 3 3 5 3c6 0 9 -4 9 -8v-39 c0 -6 2 -12 9 -12s8 5 8 12zM49 99l12 -17c1 -1 1 -1 1 -2c0 -2 -3 -4 -8 -4c-2 0 -2 0 -3 1l-9 13l-7 -11c-1 -2 -2 -3 -5 -3s-7 3 -7 5v1l12 17c2 3 5 5 8 5c4 0 5 -2 6 -5z"
         id="glyph2920" />
      <glyph
         glyph-name="Yacute"
         unicode="Ý"
         horiz-adv-x="107"
         d="M97 113v-114v-5c3 1 6 1 9 1c8 1 4 -14 -2 -14h-7c-1 -20 -6 -42 -26 -42c-12 0 -19 8 -19 20c0 17 15 27 31 32v2v24c-7 -12 -16 -22 -26 -22c-5 0 -12 4 -12 15v98c-16 -2 -28 -14 -28 -36c0 -14 7 -22 9 -22h3s1 -1 1 -2c0 -7 -7 -14 -12 -10c-6 4 -15 17 -15 34 c0 37 29 49 49 49c4 0 7 -3 7 -7v-103c0 -2 0 -2 1 -2c5 0 23 23 23 38v66v5c0 2 2 3 4 3c6 0 10 -4 10 -8zM71 -48c8 0 11 12 12 26c-11 -3 -18 -9 -18 -18c0 -5 3 -8 6 -8zM86 148l-16 -17c-1 -2 -3 -3 -5 -3c-5 0 -7 2 -7 4c0 1 0 2 1 3l16 18c0 2 4 3 6 3c3 0 7 -2 7 -5 c0 -2 -1 -2 -2 -3z"
         id="glyph2922" />
      <glyph
         glyph-name="yacute"
         unicode="ý"
         d="M67 25c1 4 3 5 5 5c3 0 6 -4 6 -7v-1c-6 -20 -17 -31 -26 -39v-30c0 -18 -9 -24 -18 -24c-10 0 -16 9 -16 20c0 17 10 26 21 36v22c-4 -7 -10 -12 -17 -12c-12 0 -18 10 -18 25c0 18 6 39 6 39c1 3 0 6 9 6c8 0 4 -6 3 -9c-3 -13 -5 -20 -5 -35c0 -9 3 -15 8 -15 c7 0 12 12 14 24v28c0 3 -1 4 -1 5c0 2 3 3 5 3c6 0 9 -4 9 -8v-60c6 7 12 15 15 27zM34 -60c6 0 5 10 5 13v19c-6 -6 -9 -13 -9 -23c0 -5 1 -9 4 -9zM49 95l-16 -16c-1 -2 -3 -3 -5 -3c-5 0 -7 2 -7 4c0 1 0 1 1 2l16 18c0 2 4 4 6 4c3 0 7 -2 7 -5c0 -2 -1 -3 -2 -4z"
         id="glyph2924" />
      <glyph
         glyph-name="Ycircumflex"
         unicode="Ŷ"
         horiz-adv-x="107"
         d="M97 113v-114v-5c3 1 6 1 9 1c8 1 4 -14 -2 -14h-7c-1 -20 -6 -42 -26 -42c-12 0 -19 8 -19 20c0 17 15 27 31 32v2v24c-7 -12 -16 -22 -26 -22c-5 0 -12 4 -12 15v98c-16 -2 -28 -14 -28 -36c0 -14 7 -22 9 -22h3s1 -1 1 -2c0 -7 -7 -14 -12 -10c-6 4 -15 17 -15 34 c0 37 29 49 49 49c4 0 7 -3 7 -7v-103c0 -2 0 -2 1 -2c5 0 23 23 23 38v66v5c0 2 2 3 4 3c6 0 10 -4 10 -8zM71 -48c8 0 11 12 12 26c-11 -3 -18 -9 -18 -18c0 -5 3 -8 6 -8zM77 151l11 -16c1 -1 2 -2 2 -3c0 -2 -3 -4 -8 -4c-2 0 -3 1 -4 2l-8 13l-8 -12c-1 -2 -1 -3 -4 -3 s-7 3 -7 5v1l12 17c2 3 5 5 8 5c4 0 5 -2 6 -5z"
         id="glyph2926" />
      <glyph
         glyph-name="ycircumflex"
         unicode="ŷ"
         d="M67 25c1 4 3 5 5 5c3 0 6 -4 6 -7v-1c-6 -20 -17 -31 -26 -39v-30c0 -18 -9 -24 -18 -24c-10 0 -16 9 -16 20c0 17 10 26 21 36v22c-4 -7 -10 -12 -17 -12c-12 0 -18 10 -18 25c0 18 6 39 6 39c1 3 0 6 9 6c8 0 4 -6 3 -9c-3 -13 -5 -20 -5 -35c0 -9 3 -15 8 -15 c7 0 12 12 14 24v28c0 3 -1 4 -1 5c0 2 3 3 5 3c6 0 9 -4 9 -8v-60c6 7 12 15 15 27zM34 -60c6 0 5 10 5 13v19c-6 -6 -9 -13 -9 -23c0 -5 1 -9 4 -9zM40 99l11 -17c1 -1 2 -1 2 -2c0 -2 -3 -4 -8 -4c-2 0 -3 0 -4 1l-8 13l-8 -11c-1 -2 -1 -3 -4 -3s-8 3 -8 5l1 1l12 17 c2 3 5 5 8 5c4 0 5 -2 6 -5z"
         id="glyph2928" />
      <glyph
         glyph-name="Ydieresis"
         unicode="Ÿ"
         horiz-adv-x="107"
         d="M97 113v-114v-5c3 1 6 1 9 1c8 1 4 -14 -2 -14h-7c-1 -20 -6 -42 -26 -42c-12 0 -19 8 -19 20c0 17 15 27 31 32v2v24c-7 -12 -16 -22 -26 -22c-5 0 -12 4 -12 15v98c-16 -2 -28 -14 -28 -36c0 -14 7 -22 9 -22h3s1 -1 1 -2c0 -7 -7 -14 -12 -10c-6 4 -15 17 -15 34 c0 37 29 49 49 49c4 0 7 -3 7 -7v-103c0 -2 0 -2 1 -2c5 0 23 23 23 38v66v5c0 2 2 3 4 3c6 0 10 -4 10 -8zM71 -48c8 0 11 12 12 26c-11 -3 -18 -9 -18 -18c0 -5 3 -8 6 -8zM49 140c0 4 5 8 9 8s8 -4 8 -8s-4 -9 -8 -9s-9 5 -9 9zM74 140c0 4 5 8 9 8s8 -4 8 -8 s-4 -9 -8 -9s-9 5 -9 9z"
         id="glyph2930" />
      <glyph
         glyph-name="ydieresis"
         unicode="ÿ"
         d="M67 25c1 4 3 5 5 5c3 0 6 -4 6 -7v-1c-6 -20 -17 -31 -26 -39v-30c0 -18 -9 -24 -18 -24c-10 0 -16 9 -16 20c0 17 10 26 21 36v22c-4 -7 -10 -12 -17 -12c-12 0 -18 10 -18 25c0 18 6 39 6 39c1 3 0 6 9 6c8 0 4 -6 3 -9c-3 -13 -5 -20 -5 -35c0 -9 3 -15 8 -15 c7 0 12 12 14 24v28c0 3 -1 4 -1 5c0 2 3 3 5 3c6 0 9 -4 9 -8v-60c6 7 12 15 15 27zM34 -60c6 0 5 10 5 13v19c-6 -6 -9 -13 -9 -23c0 -5 1 -9 4 -9zM12 87c0 4 5 8 9 8s8 -4 8 -8s-4 -8 -8 -8s-9 4 -9 8zM37 87c0 4 4 8 8 8s9 -4 9 -8s-5 -8 -9 -8s-8 4 -8 8z"
         id="glyph2932" />
      <glyph
         glyph-name="Zacute"
         unicode="Ź"
         horiz-adv-x="84"
         d="M27 -43c0 17 15 26 30 31c-3 10 -11 16 -20 16c-4 0 -6 5 -6 9c0 2 1 4 3 4h2s29 10 29 57c0 30 -17 34 -23 34c-12 0 -23 -12 -23 -33c0 -22 12 -31 17 -31c1 0 2 1 3 1s0 0 0 -2c0 -6 -3 -11 -8 -11c-8 0 -26 14 -26 42c0 32 21 47 38 47c21 0 36 -19 36 -48 c0 -34 -15 -51 -26 -60c7 -3 14 -10 17 -22c4 1 8 2 11 2c8 1 4 -14 -2 -14c-3 0 -5 -1 -7 -1v-4c0 -17 -5 -37 -25 -37c-12 0 -20 8 -20 20zM59 -25v1c-12 -3 -18 -10 -18 -19c0 -5 3 -7 6 -7c8 0 12 14 12 25zM60 148l-15 -17c-1 -2 -4 -3 -6 -3c-5 0 -7 2 -7 4 c0 1 1 2 2 3l15 18c0 2 4 3 6 3c3 0 7 -2 7 -5c0 -2 -1 -2 -2 -3z"
         id="glyph2934" />
      <glyph
         glyph-name="zacute"
         unicode="ź"
         d="M18 -51c0 18 10 26 22 37c-2 10 -6 18 -17 18l-2 10c12 3 25 14 25 31c0 6 -3 11 -10 11c-9 0 -14 -6 -20 -33c-2 -10 -11 1 -10 5c4 23 10 40 30 40c15 0 23 -11 23 -24c0 -15 -10 -26 -22 -32c7 -4 11 -8 14 -16c7 7 13 16 17 29c1 4 2 5 4 5c3 0 6 -4 6 -7v-1 c-6 -19 -15 -29 -24 -37c1 -5 1 -11 1 -17c0 -18 -5 -39 -21 -39c-10 0 -16 9 -16 20zM42 -34v8c-7 -6 -12 -13 -12 -25c0 -5 1 -9 4 -9c7 0 8 17 8 26zM52 96l-16 -16c-1 -2 -4 -4 -6 -4c-5 0 -6 2 -6 4c0 1 0 2 1 3l16 18c0 2 4 3 6 3c3 0 7 -2 7 -5c0 -2 -1 -2 -2 -3z "
         id="glyph2936" />
      <glyph
         glyph-name="Zdotaccent"
         unicode="Ż"
         horiz-adv-x="84"
         d="M27 -43c0 17 15 26 30 31c-3 10 -11 16 -20 16c-4 0 -6 5 -6 9c0 2 1 4 3 4h2s29 10 29 57c0 30 -17 34 -23 34c-12 0 -23 -12 -23 -33c0 -22 12 -31 17 -31c1 0 2 1 3 1s0 0 0 -2c0 -6 -3 -11 -8 -11c-8 0 -26 14 -26 42c0 32 21 47 38 47c21 0 36 -19 36 -48 c0 -34 -15 -51 -26 -60c7 -3 14 -10 17 -22c4 1 8 2 11 2c8 1 4 -14 -2 -14c-3 0 -5 -1 -7 -1v-4c0 -17 -5 -37 -25 -37c-12 0 -20 8 -20 20zM59 -25v1c-12 -3 -18 -10 -18 -19c0 -5 3 -7 6 -7c8 0 12 14 12 25zM36 138c0 5 3 9 8 9s9 -4 9 -9s-4 -8 -9 -8s-8 3 -8 8z"
         id="glyph2938" />
      <glyph
         glyph-name="zdotaccent"
         unicode="ż"
         d="M18 -51c0 18 10 26 22 37c-2 10 -6 18 -17 18l-2 10c12 3 25 14 25 31c0 6 -3 11 -10 11c-9 0 -14 -6 -20 -33c-2 -10 -11 1 -10 5c4 23 10 40 30 40c15 0 23 -11 23 -24c0 -15 -10 -26 -22 -32c7 -4 11 -8 14 -16c7 7 13 16 17 29c1 4 2 5 4 5c3 0 6 -4 6 -7v-1 c-6 -19 -15 -29 -24 -37c1 -5 1 -11 1 -17c0 -18 -5 -39 -21 -39c-10 0 -16 9 -16 20zM42 -34v8c-7 -6 -12 -13 -12 -25c0 -5 1 -9 4 -9c7 0 8 17 8 26zM27 87c0 5 4 8 9 8s9 -3 9 -8s-4 -9 -9 -9s-9 4 -9 9z"
         id="glyph2940" />
      <glyph
         glyph-name="Zcaron"
         unicode="Ž"
         horiz-adv-x="84"
         d="M27 -43c0 17 15 26 30 31c-3 10 -11 16 -20 16c-4 0 -6 5 -6 9c0 2 1 4 3 4h2s29 10 29 57c0 30 -17 34 -23 34c-12 0 -23 -12 -23 -33c0 -22 12 -31 17 -31c1 0 2 1 3 1s0 0 0 -2c0 -6 -3 -11 -8 -11c-8 0 -26 14 -26 42c0 32 21 47 38 47c21 0 36 -19 36 -48 c0 -34 -15 -51 -26 -60c7 -3 14 -10 17 -22c4 1 8 2 11 2c8 1 4 -14 -2 -14c-3 0 -5 -1 -7 -1v-4c0 -17 -5 -37 -25 -37c-12 0 -20 8 -20 20zM59 -25v1c-12 -3 -18 -10 -18 -19c0 -5 3 -7 6 -7c8 0 12 14 12 25zM37 133l-11 16c-1 1 -2 2 -2 3c0 2 3 4 8 4c2 0 3 -1 4 -2 l8 -13l8 12c0 1 1 3 4 3s7 -3 7 -5c0 -1 -1 -2 -1 -2l-11 -16c-1 -3 -3 -5 -6 -5c-5 0 -5 1 -8 5z"
         id="glyph2942" />
      <glyph
         glyph-name="zcaron"
         unicode="ž"
         d="M18 -51c0 18 10 26 22 37c-2 10 -6 18 -17 18l-2 10c12 3 25 14 25 31c0 6 -3 11 -10 11c-9 0 -14 -6 -20 -33c-2 -10 -11 1 -10 5c4 23 10 40 30 40c15 0 23 -11 23 -24c0 -15 -10 -26 -22 -32c7 -4 11 -8 14 -16c7 7 13 16 17 29c1 4 2 5 4 5c3 0 6 -4 6 -7v-1 c-6 -19 -15 -29 -24 -37c1 -5 1 -11 1 -17c0 -18 -5 -39 -21 -39c-10 0 -16 9 -16 20zM42 -34v8c-7 -6 -12 -13 -12 -25c0 -5 1 -9 4 -9c7 0 8 17 8 26zM29 81l-12 17c-1 1 -1 2 -1 3c0 2 3 3 8 3c2 0 3 0 4 -1l8 -13l7 12c0 1 2 2 5 2s7 -3 7 -5c0 -1 -1 -2 -1 -2l-11 -16 c-1 -3 -3 -5 -6 -5c-5 0 -5 1 -8 5z"
         id="glyph2944" />
      <glyph
         glyph-name="zero"
         unicode="0"
         horiz-adv-x="75"
         d="M38 -5c-21 0 -32 21 -32 63c0 16 0 63 32 63c28 0 31 -36 31 -63c0 -52 -17 -63 -31 -63zM38 108c-12 0 -18 -17 -18 -50c0 -19 2 -50 18 -50c11 0 18 19 18 50c0 50 -14 50 -18 50z"
         id="glyph2946" />
      <glyph
         glyph-name="one"
         unicode="1"
         horiz-adv-x="45"
         d="M21 2v95c-7 -10 -10 -12 -12 -12c-4 0 -8 5 -8 8c0 1 1 2 2 2c4 1 19 23 19 23c1 2 4 3 6 3c3 0 6 -4 6 -7v-113c0 -3 -1 -4 -4 -4c-4 0 -9 2 -9 5z"
         id="glyph2948" />
      <glyph
         glyph-name="two"
         unicode="2"
         horiz-adv-x="68"
         d="M31 11h25c3 0 2 3 4 3s2 -3 2 -5c0 -5 -2 -11 -7 -11h-39c-3 0 -6 3 -6 7c0 2 1 4 2 5c0 0 38 38 38 76c0 19 -10 22 -15 22c-8 0 -17 -5 -17 -22c0 -11 5 -21 8 -21c1 0 0 1 1 1c0 0 1 0 1 -1c0 -3 -5 -8 -9 -8c-9 0 -14 16 -14 29c0 24 15 35 30 35c20 0 28 -19 28 -36 c0 -30 -20 -59 -32 -74z"
         id="glyph2950" />
      <glyph
         glyph-name="three"
         unicode="3"
         horiz-adv-x="66"
         d="M4 87c0 24 14 34 29 34c20 0 28 -19 28 -37c0 -21 -8 -33 -18 -40c6 -4 15 -11 15 -24c0 -14 -10 -25 -24 -25c-15 0 -24 14 -24 23c0 3 6 5 10 5c3 0 3 0 3 -1v-2s2 -12 11 -12c5 0 10 4 10 11c0 13 -11 18 -15 19c-3 1 -5 2 -5 7c0 2 1 5 4 5h1c11 3 19 13 19 34 c0 17 -7 24 -15 24s-16 -7 -16 -22c0 -10 4 -18 7 -18c1 0 1 1 2 1c0 0 1 0 1 -1c0 -3 -4 -8 -9 -8c-8 0 -14 15 -14 27z"
         id="glyph2952" />
      <glyph
         glyph-name="four"
         unicode="4"
         horiz-adv-x="66"
         d="M60 33h-4v-32c0 -3 -2 -4 -5 -4c-4 0 -9 2 -9 5v31h-6c-8 0 -20 -1 -26 -1c-4 0 -8 5 -8 8c0 2 2 3 3 4c9 24 10 51 10 62c0 3 -1 7 -1 7c0 1 2 2 5 2c4 0 9 -2 9 -10c0 -14 -3 -42 -10 -60h21h3v68c0 5 -1 5 -1 6s3 2 5 2c6 0 10 -4 10 -8v-68h4c3 0 2 3 4 3s2 -3 2 -5 c0 -5 -1 -10 -6 -10z"
         id="glyph2954" />
      <glyph
         glyph-name="five"
         unicode="5"
         horiz-adv-x="63"
         d="M8 75l5 42c0 1 1 1 2 1h17c10 0 15 1 15 1c3 0 4 1 5 1s1 -2 1 -4c0 -5 -1 -10 -6 -10h-23l-2 -22c2 2 7 3 11 3c10 0 24 -8 24 -43c0 -36 -13 -49 -27 -49c-20 0 -25 23 -25 32c0 5 1 8 5 8s9 -2 9 -4c0 -1 -1 -1 -1 -3c0 -4 1 -20 12 -20c9 0 14 12 14 36 c0 19 -4 31 -14 31c-7 0 -10 -6 -14 -6c-2 0 -9 2 -8 6z"
         id="glyph2956" />
      <glyph
         glyph-name="six"
         unicode="6"
         horiz-adv-x="69"
         d="M37 108c-8 0 -14 -8 -16 -32c6 7 12 8 16 8c19 0 26 -20 26 -41c0 -45 -23 -48 -27 -48c-29 0 -29 46 -29 61c0 16 0 65 30 65c13 0 22 -13 22 -20c0 -3 -5 -5 -9 -5c-2 0 -3 0 -3 1c0 6 -4 11 -10 11zM36 72c-8 0 -14 -7 -16 -23c1 -32 9 -41 16 -41c6 0 14 8 14 35 c0 15 -4 29 -14 29z"
         id="glyph2958" />
      <glyph
         glyph-name="seven"
         unicode="7"
         horiz-adv-x="55"
         d="M30 1c0 -3 -2 -4 -5 -4c-4 0 -9 1 -9 9c0 39 13 78 23 100c-11 -1 -22 -1 -29 -1c-6 0 -7 3 -7 7c0 3 1 7 3 7h1c4 0 11 -1 23 -1s18 1 21 1c2 0 4 -1 4 -4c0 -2 -1 -4 -2 -6c-11 -27 -23 -53 -23 -108z"
         id="glyph2960" />
      <glyph
         glyph-name="eight"
         unicode="8"
         horiz-adv-x="65"
         d="M32 -5c-12 0 -21 11 -21 25c0 7 3 14 7 18c-7 6 -13 17 -13 38c0 33 14 45 27 45c6 0 28 -3 28 -45c0 -20 -5 -32 -13 -38c4 -4 7 -11 7 -18c0 -14 -9 -25 -22 -25zM32 108c-8 0 -14 -13 -14 -32c0 -22 7 -32 14 -32s15 12 15 32s-6 32 -15 32zM32 32c-4 0 -8 -5 -8 -12 s4 -12 9 -12c6 0 8 5 8 12c0 8 -5 12 -9 12z"
         id="glyph2962" />
      <glyph
         glyph-name="nine"
         unicode="9"
         horiz-adv-x="69"
         d="M32 8c7 0 14 8 16 32c-6 -7 -12 -8 -16 -8c-19 0 -26 21 -26 42c0 45 23 47 27 47c29 0 29 -46 29 -61c0 -16 0 -65 -30 -65c-13 0 -22 13 -22 20c0 3 5 5 9 5c2 0 3 0 3 -1c0 -6 4 -11 10 -11zM33 44c8 0 14 8 16 23c-1 32 -9 41 -16 41c-6 0 -14 -7 -14 -34 c0 -15 4 -30 14 -30z"
         id="glyph2964" />
      <glyph
         glyph-name="percent"
         unicode="%"
         horiz-adv-x="97"
         d="M24 60c-11 0 -20 8 -20 30s9 31 20 31s20 -9 20 -31s-9 -30 -20 -30zM24 112c-6 0 -8 -7 -8 -22s2 -21 8 -21s8 6 8 21s-2 22 -8 22zM13 5l63 113v2c0 1 1 1 2 1c3 0 8 -2 8 -6c0 -1 1 -1 0 -2l-65 -115c-1 -1 -1 -1 -2 -1c-3 0 -7 1 -7 5c0 1 0 2 1 3zM74 -3 c-11 0 -20 8 -20 30s9 31 20 31s20 -9 20 -31s-9 -30 -20 -30zM74 48c-6 0 -8 -6 -8 -21s2 -21 8 -21s8 6 8 21s-2 21 -8 21z"
         id="glyph2966" />
      <glyph
         glyph-name="numbersign"
         unicode="#"
         horiz-adv-x="80"
         d="M8 49h12l3 16h-11c-2 0 -3 2 -3 4c0 3 1 6 4 6h12l5 27c0 2 1 3 3 3c4 0 8 -1 7 -5l-4 -25h15l5 27c0 2 1 3 3 3c4 0 8 -1 7 -5l-4 -25h10h2c2 0 3 -2 3 -4c0 -4 -3 -6 -6 -6h-11l-3 -16h10h2c2 0 3 -2 3 -4c0 -4 -3 -6 -6 -6h-11l-6 -30c0 -2 -2 -2 -4 -2 c-3 0 -6 3 -6 5v1l5 26h-15l-6 -30c0 -2 -2 -2 -4 -2c-3 0 -6 3 -6 5v1l5 26h-12c-2 0 -3 2 -3 4c0 3 2 6 5 6zM34 65l-3 -16h15l3 16h-15z"
         id="glyph2968" />
      <glyph
         glyph-name="plus"
         unicode="+"
         horiz-adv-x="69"
         d="M12 61h17v18c0 1 -1 1 -1 2s1 1 4 1s9 -1 9 -3v-18h18h2s2 -1 2 -3c0 -4 -3 -10 -6 -10h-16v-18c0 -3 -12 -5 -12 -1v19h-19c-2 0 -3 2 -3 5s2 8 5 8z"
         id="glyph2970" />
      <glyph
         glyph-name="equal"
         unicode="="
         horiz-adv-x="69"
         d="M13 48h44c1 0 1 1 2 1s2 -1 2 -3c0 -4 -2 -10 -5 -10h-45c-2 0 -3 2 -3 5s2 7 5 7zM13 73h44c1 0 1 1 2 1s2 -2 2 -4c0 -4 -2 -9 -5 -9h-45c-2 0 -3 1 -3 4s2 8 5 8z"
         id="glyph2972" />
      <glyph
         glyph-name="multiply"
         unicode="×"
         horiz-adv-x="69"
         d="M19 79l16 -16l17 16c1 1 0 3 2 3s6 -6 6 -10c0 -1 0 -1 -1 -2l-15 -16l17 -16v-2c0 -3 -4 -8 -7 -8h-1l-18 17l-17 -16s0 -1 -1 -1c-3 0 -7 4 -7 8c0 1 0 2 1 3l16 15l-16 16c-1 1 -3 1 -3 2c0 3 5 8 9 8c1 0 1 0 2 -1z"
         id="glyph2974" />
      <glyph
         glyph-name="divide"
         unicode="÷"
         horiz-adv-x="69"
         d="M12 61h47h2s2 -1 2 -3c0 -4 -3 -10 -6 -10h-47c-2 0 -3 2 -3 5s2 8 5 8zM27 75c0 4 4 7 8 7s7 -3 7 -7s-3 -8 -7 -8s-8 4 -8 8zM27 34c0 4 4 8 8 8s7 -4 7 -8s-3 -7 -7 -7s-8 3 -8 7z"
         id="glyph2976" />
      <glyph
         glyph-name="less"
         unicode="&lt;"
         horiz-adv-x="69"
         d="M14 61l37 22c1 1 0 3 2 2s6 -7 5 -11c0 -1 -1 -2 -2 -2l-31 -18l32 -18s1 0 1 -1c1 -3 -2 -9 -5 -10h-1l-38 22c-3 2 -5 5 -5 8c0 5 2 5 5 6z"
         id="glyph2978" />
      <glyph
         glyph-name="greater"
         unicode="&gt;"
         horiz-adv-x="69"
         d="M55 49l-37 -22c-1 -1 -2 -1 -3 -1c-2 0 -4 5 -4 9c0 2 1 2 2 3l31 18l-32 18c-1 1 -1 1 -1 2c0 3 2 10 4 10c1 0 1 0 2 -1l38 -22c3 -2 5 -1 5 -4c0 -5 -2 -9 -5 -10z"
         id="glyph2980" />
      <glyph
         glyph-name="bar"
         unicode="|"
         horiz-adv-x="43"
         d="M15 -38v164c0 1 -1 1 -1 2s4 2 7 2s7 -2 7 -5v-165c0 -2 -3 -3 -5 -3c-3 0 -8 2 -8 5z"
         id="glyph2982" />
      <glyph
         glyph-name="at"
         unicode="@"
         horiz-adv-x="110"
         d="M54 19c6 6 6 -11 -4 -11c-16 0 -35 14 -35 40s18 50 46 50c21 0 34 -14 34 -35c0 -17 -7 -34 -22 -34c-4 0 -9 2 -11 6c-3 -3 -7 -6 -11 -6c-10 0 -15 8 -15 19c0 19 11 32 26 32c3 0 6 -1 7 -1s1 1 1 1c1 0 1 -2 1 -3c0 -3 -2 -8 -4 -8c-1 0 -3 1 -5 1 c-9 0 -15 -9 -15 -22c0 -6 3 -9 6 -9s5 3 7 5v18c-1 0 -1 1 -1 1c0 1 2 2 5 2s6 -1 6 -3v-16c0 -6 2 -7 4 -7c7 0 10 11 10 24c0 16 -8 25 -23 25c-21 0 -35 -19 -35 -40c0 -18 12 -29 28 -29z"
         id="glyph2984" />
      <glyph
         glyph-name="asciicircum"
         unicode="^"
         horiz-adv-x="69"
         d="M41 116l15 -26c1 -1 2 -2 2 -3c0 -2 -3 -4 -8 -4c-2 0 -3 1 -4 2l-12 22l-11 -21c-1 -2 -1 -3 -4 -3s-8 4 -8 6h1l15 27c2 3 5 5 8 5c5 0 5 -2 6 -5z"
         id="glyph2986" />
      <glyph
         glyph-name="asciitilde"
         unicode="~"
         horiz-adv-x="69"
         d="M19 47c0 -2 -2 -3 -4 -3c-3 0 -7 2 -7 4c0 8 7 19 16 19c10 0 15 -12 21 -12c3 0 5 4 5 8c0 3 2 4 4 4c3 0 7 -2 7 -4c0 -13 -9 -20 -16 -20c-10 0 -17 12 -20 12c-4 0 -5 -5 -6 -8z"
         id="glyph2988" />
      <glyph
         glyph-name="slash"
         unicode="/"
         horiz-adv-x="53"
         d="M2 4l39 113v2s1 1 2 1c3 0 10 -2 10 -6v-1l-41 -115c-1 -1 -2 -1 -3 -1c-3 0 -8 3 -8 6c0 1 1 0 1 1z"
         id="glyph2990" />
      <glyph
         glyph-name="backslash"
         unicode="\"
         horiz-adv-x="53"
         d="M12 117l40 -113c3 -4 -9 -10 -11 -6l-41 117c-1 2 -2 4 4 5c6 2 7 -2 8 -3z"
         id="glyph2992" />
      <glyph
         glyph-name="quotesingle"
         unicode="'"
         horiz-adv-x="31"
         d="M21 115v-31c0 -3 -11 -5 -11 -1v30c0 2 -1 2 -1 3s2 1 5 1s7 0 7 -2z"
         id="glyph2994" />
      <glyph
         glyph-name="quotedbl"
         unicode="&quot;"
         horiz-adv-x="51"
         d="M21 115v-31c0 -3 -11 -5 -11 -1v30c0 2 -1 2 -1 3s2 1 5 1s7 0 7 -2zM42 115v-31c0 -3 -11 -5 -11 -1v30c0 2 -2 2 -2 3s2 1 5 1s8 0 8 -2z"
         id="glyph2996" />
      <glyph
         glyph-name="ampersand"
         unicode="&amp;"
         horiz-adv-x="73"
         d="M67 3c2 0 2 0 2 -1c0 -2 -6 -7 -10 -7c-2 0 -3 1 -4 3s-3 5 -4 7c-6 -6 -13 -10 -20 -10c-18 0 -27 14 -27 32c0 21 12 41 17 48c-7 22 -9 37 -9 38c0 4 3 6 7 6h33c1 0 0 1 1 1c2 0 4 -2 4 -4c0 -4 -3 -10 -7 -10s-18 1 -24 1c1 -12 10 -41 26 -74c1 7 2 15 2 23 c0 2 -2 5 -1 7c1 3 7 4 11 4c2 0 4 -1 4 -2c0 -2 -2 0 -2 -9c0 -16 -3 -29 -7 -39c2 -5 5 -9 8 -14zM32 8c5 0 9 3 13 8c-8 16 -14 31 -19 44c-4 -8 -9 -18 -9 -32c0 -10 6 -20 15 -20z"
         id="glyph2998" />
      <glyph
         glyph-name="parenleft"
         unicode="("
         horiz-adv-x="46"
         d="M41 -14c4 -4 0 -9 -7 -9c-6 0 -27 32 -27 79c0 53 25 78 26 79h1c3 0 11 -3 11 -6c0 -1 -1 -2 -3 -3c0 0 -22 -22 -22 -70c0 -45 21 -70 21 -70z"
         id="glyph3000" />
      <glyph
         glyph-name="parenright"
         unicode=")"
         horiz-adv-x="46"
         d="M6 126c-4 4 0 9 7 9c6 0 27 -31 27 -78c0 -53 -25 -78 -26 -79c0 0 0 -1 -1 -1c-3 0 -11 4 -11 7c0 1 0 1 2 2c0 0 23 23 23 71c0 45 -21 69 -21 69z"
         id="glyph3002" />
      <glyph
         glyph-name="bracketleft"
         unicode="["
         horiz-adv-x="46"
         d="M21 121v-129h4c3 0 8 1 11 1h1c2 0 2 -2 2 -5c0 -4 -2 -7 -5 -7h-21c-3 0 -5 0 -5 4v143c0 2 2 4 4 4h22c4 0 5 -2 5 -5c0 -4 -2 -8 -4 -8c-1 0 -1 0 -1 1c-5 0 -9 1 -11 1h-2z"
         id="glyph3004" />
      <glyph
         glyph-name="bracketright"
         unicode="]"
         horiz-adv-x="46"
         d="M26 -8v128h-4h-11h-1c-2 0 -3 2 -3 5c0 4 3 7 6 7h21c3 0 4 -1 4 -5v-142c0 -2 -1 -4 -3 -4h-22c-4 0 -5 2 -5 5c0 4 2 7 4 7c1 0 1 0 1 -1h10h3z"
         id="glyph3006" />
      <glyph
         glyph-name="braceleft"
         unicode="{"
         horiz-adv-x="51"
         d="M39 -25c-10 0 -26 5 -26 26c0 12 7 24 7 34c0 17 -15 9 -15 19s15 2 15 19c0 11 -8 22 -8 34c0 22 16 28 27 28c5 0 6 -4 6 -8s-2 -7 -4 -5c-9 0 -15 -4 -15 -15c0 -12 7 -22 7 -34c0 -10 -6 -16 -12 -19c6 -2 12 -9 12 -19c0 -11 -7 -20 -7 -34c0 -9 6 -13 16 -13 c2 1 3 -3 3 -6c0 -4 -2 -7 -6 -7z"
         id="glyph3008" />
      <glyph
         glyph-name="braceright"
         unicode="}"
         horiz-adv-x="51"
         d="M12 135c10 0 26 -5 26 -26c0 -12 -7 -24 -7 -34c0 -17 15 -9 15 -19s-15 -2 -15 -19c0 -11 8 -23 8 -35c0 -22 -16 -28 -27 -28c-5 0 -6 5 -6 9s2 7 4 5c9 0 15 4 15 15c0 12 -7 22 -7 34c0 10 6 16 12 19c-6 2 -12 9 -12 19c0 11 7 20 7 34c0 9 -5 13 -15 13 c-2 -1 -4 3 -4 6c0 4 2 7 6 7z"
         id="glyph3010" />
      <glyph
         glyph-name="asterisk"
         unicode="*"
         horiz-adv-x="57"
         d="M13 110l11 -8v11c-1 3 1 4 4 4s5 0 5 -3v-13l10 7c1 1 2 2 3 2c2 0 5 -5 5 -7c0 -1 0 -2 -1 -2l-13 -9l13 -10c1 0 1 -1 1 -2c0 -3 -3 -6 -5 -6h-1l-12 9v-12c0 -2 -3 -3 -6 -3c-2 0 -3 0 -3 2v12l-12 -8h-1c-2 0 -4 3 -4 6c0 1 0 2 1 3l13 9l-12 8c-2 2 -3 2 -3 3 c0 2 4 7 6 7h1z"
         id="glyph3012" />
      <glyph
         glyph-name="period"
         unicode="."
         horiz-adv-x="46"
         d="M25 13c5 0 8 -4 8 -9c0 -4 -3 -8 -8 -8c-4 0 -9 4 -9 8c0 5 5 9 9 9z"
         id="glyph3014" />
      <glyph
         glyph-name="comma"
         unicode=","
         horiz-adv-x="46"
         d="M25 13c4 0 8 -4 8 -11c0 -6 -9 -19 -13 -19c-3 0 -5 4 -5 6c0 1 0 1 1 1s5 4 7 7c-4 1 -7 3 -7 7c0 5 5 9 9 9z"
         id="glyph3016" />
      <glyph
         glyph-name="colon"
         unicode=":"
         horiz-adv-x="51"
         d="M27 13c5 0 9 -4 9 -9c0 -4 -4 -8 -9 -8c-4 0 -8 4 -8 8c0 5 4 9 8 9zM27 61c5 0 9 -3 9 -8c0 -4 -4 -8 -9 -8c-4 0 -8 4 -8 8c0 5 4 8 8 8z"
         id="glyph3018" />
      <glyph
         glyph-name="semicolon"
         unicode=";"
         horiz-adv-x="51"
         d="M27 61c5 0 9 -3 9 -8c0 -4 -4 -8 -9 -8c-4 0 -8 4 -8 8c0 5 4 8 8 8zM27 13c4 0 9 -4 9 -11c0 -6 -9 -19 -13 -19c-3 0 -5 4 -5 6c0 1 0 1 1 1s4 4 6 7c-4 1 -6 3 -6 7c0 5 4 9 8 9z"
         id="glyph3020" />
      <glyph
         glyph-name="exclam"
         unicode="!"
         horiz-adv-x="55"
         d="M28 13c5 0 8 -4 8 -9c0 -4 -3 -8 -8 -8c-4 0 -9 4 -9 8c0 5 5 9 9 9zM34 114v-88c0 -4 -2 -6 -5 -6c-4 0 -8 3 -8 8v85c0 3 -1 5 -1 6s1 2 5 2c5 0 9 -2 9 -7z"
         id="glyph3022" />
      <glyph
         glyph-name="question"
         unicode="?"
         horiz-adv-x="74"
         d="M37 13c5 0 8 -4 8 -9c0 -4 -3 -8 -8 -8s-9 4 -9 8c0 5 4 9 9 9zM43 24c0 -8 -13 -5 -13 2v9c0 4 2 6 4 8c6 5 20 17 20 41c0 22 -11 25 -16 25c-8 0 -17 -6 -17 -22c0 -7 4 -17 7 -17c1 0 1 1 1 1c1 0 2 -1 2 -2c0 -3 -4 -8 -10 -8c-7 0 -13 15 -13 26c0 23 15 34 30 34 c19 0 29 -15 29 -37c0 -24 -12 -36 -22 -46c-2 -2 -2 -5 -2 -7v-7z"
         id="glyph3024" />
      <glyph
         glyph-name="guillemotleft"
         unicode="«"
         horiz-adv-x="92"
         d="M16 49l21 20c1 1 2 2 4 2s4 -4 4 -8c0 -2 -1 -4 -2 -5l-18 -16l18 -16c1 -1 2 -3 2 -5c0 -4 -3 -7 -5 -7c-1 0 -2 1 -2 1l-22 20c-3 2 -4 5 -4 8c0 2 1 5 4 6zM47 49l21 20c1 1 2 2 4 2s4 -4 4 -8c0 -2 0 -4 -1 -5l-19 -16l19 -16c1 -1 1 -3 1 -5c0 -4 -3 -7 -5 -7 c-1 0 -2 1 -2 1l-22 20c-3 2 -4 5 -4 8c0 2 1 5 4 6z"
         id="glyph3026" />
      <glyph
         glyph-name="guillemotright"
         unicode="»"
         horiz-adv-x="92"
         d="M76 36l-21 -20c-1 -1 -2 -2 -4 -2s-4 4 -4 8c0 2 1 4 2 5l18 16l-18 16c-1 1 -2 2 -2 4c0 4 3 8 5 8c1 0 2 -1 2 -1l22 -20c3 -2 4 -5 4 -8c0 -2 -1 -5 -4 -6zM45 36l-21 -20c-1 -1 -2 -2 -4 -2s-4 4 -4 8c0 2 0 4 1 5l19 16l-19 16c-1 1 -1 2 -1 4c0 4 3 8 5 8 c1 0 2 -1 2 -1l22 -20c3 -2 4 -5 4 -8c0 -2 -1 -5 -4 -6z"
         id="glyph3028" />
      <glyph
         glyph-name="hyphen"
         unicode="-"
         horiz-adv-x="60"
         d="M13 52h35c1 0 1 1 2 1s2 -1 2 -3c0 -4 -2 -11 -5 -11h-36c-2 0 -3 1 -3 4s2 9 5 9z"
         id="glyph3030" />
      <glyph
         glyph-name="underscore"
         unicode="_"
         horiz-adv-x="69"
         d="M5 -14h61c1 0 1 1 2 1s2 -3 2 -5c0 -4 -2 -10 -5 -10h-62c-2 0 -3 4 -3 7s2 7 5 7z"
         id="glyph3032" />
      <glyph
         glyph-name="grave"
         unicode="`"
         horiz-adv-x="69"
         d="M38 78l-17 18c-1 1 -1 2 -1 3c0 3 5 5 7 5s4 -1 5 -3l16 -18c1 -1 1 -2 1 -3c0 -2 -3 -4 -8 -4c-2 0 -2 1 -3 2z"
         id="glyph3034" />
      <glyph
         glyph-name="mu"
         unicode="µ"
         d="M20 58v-37c0 -9 5 -15 10 -15c8 0 10 11 12 22v30c0 5 -2 5 -2 6s4 2 6 2c6 0 9 -4 9 -8v-43c0 -2 1 -8 5 -8c2 0 3 2 4 3s1 0 2 0c2 0 3 -2 3 -5c0 -2 -1 -5 -2 -6c-2 -3 -5 -4 -10 -4c-6 0 -12 4 -14 9c-3 -5 -7 -9 -13 -9c-5 0 -8 3 -10 7v-29c0 -6 -6 -8 -9 -8 s-4 2 -4 5v88c0 5 -2 5 -2 6s4 2 6 2c6 0 9 -4 9 -8z"
         id="glyph3036" />
      <glyph
         glyph-name="A"
         unicode="A"
         horiz-adv-x="85"
         d="M42 67c-4 0 -8 2 -8 8c0 2 1 6 2 6s1 -2 6 -2c12 0 28 8 28 21c0 5 -3 10 -10 10c-27 0 -40 -39 -40 -66c0 -22 4 -37 19 -37c20 0 26 33 29 60c0 2 4 3 7 3s7 -1 6 -4c-1 -4 -3 -16 -3 -29c0 -23 1 -32 2 -38v-1c0 -2 -4 -4 -8 -4c-6 0 -6 5 -7 19 c-5 -11 -15 -20 -27 -20c-19 0 -32 14 -32 51c0 38 22 79 55 79c14 0 23 -10 23 -22c0 -20 -21 -34 -42 -34z"
         id="glyph3038" />
      </font>
</defs>
</svg>
