<svg xmlns="http://www.w3.org/2000/svg">
<defs>
<font
       id="Jersey10-Regular"
       horiz-adv-x="85"
       horiz-origin-x="0"
       horiz-origin-y="0"
       vert-origin-x="512"
       vert-origin-y="768"
       vert-adv-y="1024">
      <font-face
         font-family="Jersey 10"
         font-weight="400"
         font-stretch="normal"
         units-per-em="200"
         panose-1="0 0 0 0 0 0 0 0 0 0"
         ascent="160"
         descent="-40"
         x-height="11"
         cap-height="11"
         bbox="-32 -54 172 161"
         underline-thickness="7.14286"
         underline-position="-17.8571"
         unicode-range="U+0020-2698"
         id="font-face1" />
      <missing-glyph
         horiz-adv-x="42"
         id="missing-glyph1" />
      <glyph
         glyph-name=".notdef"
         horiz-adv-x="42"
         id="glyph1" />
      <glyph
         glyph-name="A"
         unicode="A"
         d="M21 97h11v-11h-11v11zM32 97h11v-11h-11v11zM32 107h11v-11h-11v11zM43 97h11v-11h-11v11zM43 86h11v-11h-11v11zM54 86h11v-11h-11v11zM32 86h11v-11h-11v11zM21 86h11v-11h-11v11zM11 86h11v-11h-11v11zM11 75h11v-11h-11v11zM0 75h11v-11h-11v11zM21 75h11v-11h-11v11 zM11 65h11v-11h-11v11zM11 54h11v-11h-11v11zM11 43h11v-11h-11v11zM21 43h11v-11h-11v11zM32 43h11v-11h-11v11zM43 43h11v-11h-11v11zM54 43h11v-11h-11v11zM64 43h11v-11h-11v11zM64 54h11v-11h-11v11zM64 65h11v-11h-11v11zM64 75h11v-11h-11v11zM54 75h11v-11h-11v11z M43 75h11v-11h-11v11zM54 65h11v-11h-11v11zM54 54h11v-11h-11v11zM54 32h11v-11h-11v11zM64 32h11v-11h-11v11zM64 22h11v-11h-11v11zM64 11h11v-11h-11v11zM54 11h11v-11h-11v11zM54 22h11v-11h-11v11zM43 32h11v-11h-11v11zM32 32h11v-11h-11v11zM21 32h11v-11h-11v11z M11 32h11v-11h-11v11zM11 22h11v-11h-11v11zM11 11h11v-11h-11v11zM0 11h11v-11h-11v11zM0 22h11v-11h-11v11zM0 32h11v-11h-11v11zM0 43h11v-11h-11v11zM0 54h11v-11h-11v11zM0 65h11v-11h-11v11z"
         id="glyph2" />
      <glyph
         glyph-name="Aacute"
         unicode="Á"
         d="M21 96h11v-10h-11v10zM32 96h11v-10h-11v10zM32 107h11v-11h-11v11zM43 96h11v-10h-11v10zM43 86h11v-11h-11v11zM54 86h10v-11h-10v11zM32 86h11v-11h-11v11zM21 86h11v-11h-11v11zM11 86h10v-11h-10v11zM11 75h10v-11h-10v11zM0 75h11v-11h-11v11zM21 75h11v-11h-11v11 zM11 64h10v-10h-10v10zM11 54h10v-11h-10v11zM11 43h10v-11h-10v11zM21 43h11v-11h-11v11zM32 43h11v-11h-11v11zM43 43h11v-11h-11v11zM54 43h10v-11h-10v11zM64 43h11v-11h-11v11zM64 54h11v-11h-11v11zM64 64h11v-10h-11v10zM64 75h11v-11h-11v11zM54 75h10v-11h-10v11z M43 75h11v-11h-11v11zM54 64h10v-10h-10v10zM54 54h10v-11h-10v11zM54 32h10v-11h-10v11zM64 32h11v-11h-11v11zM64 21h11v-10h-11v10zM64 11h11v-11h-11v11zM54 11h10v-11h-10v11zM54 21h10v-10h-10v10zM43 32h11v-11h-11v11zM32 32h11v-11h-11v11zM21 32h11v-11h-11v11z M11 32h10v-11h-10v11zM11 21h10v-10h-10v10zM11 11h10v-11h-10v11zM0 11h11v-11h-11v11zM0 21h11v-10h-11v10zM0 32h11v-11h-11v11zM0 43h11v-11h-11v11zM0 54h11v-11h-11v11zM0 64h11v-10h-11v10zM43 139v-10h-11v10h11zM43 129v-11h-11v11h11zM54 139v-10h-11v10h11z M54 150v-11h-11v11h11z"
         id="glyph3" />
      <glyph
         glyph-name="Abreve"
         unicode="Ă"
         d="M21 96h11v-10h-11v10zM32 96h11v-10h-11v10zM32 107h11v-11h-11v11zM43 96h11v-10h-11v10zM43 86h11v-11h-11v11zM54 86h10v-11h-10v11zM32 86h11v-11h-11v11zM21 86h11v-11h-11v11zM11 86h10v-11h-10v11zM11 75h10v-11h-10v11zM0 75h11v-11h-11v11zM21 75h11v-11h-11v11 zM11 64h10v-10h-10v10zM11 54h10v-11h-10v11zM11 43h10v-11h-10v11zM21 43h11v-11h-11v11zM32 43h11v-11h-11v11zM43 43h11v-11h-11v11zM54 43h10v-11h-10v11zM64 43h11v-11h-11v11zM64 54h11v-11h-11v11zM64 64h11v-10h-11v10zM64 75h11v-11h-11v11zM54 75h10v-11h-10v11z M43 75h11v-11h-11v11zM54 64h10v-10h-10v10zM54 54h10v-11h-10v11zM54 32h10v-11h-10v11zM64 32h11v-11h-11v11zM64 21h11v-10h-11v10zM64 11h11v-11h-11v11zM54 11h10v-11h-10v11zM54 21h10v-10h-10v10zM43 32h11v-11h-11v11zM32 32h11v-11h-11v11zM21 32h11v-11h-11v11z M11 32h10v-11h-10v11zM11 21h10v-10h-10v10zM11 11h10v-11h-10v11zM0 11h11v-11h-11v11zM0 21h11v-10h-11v10zM0 32h11v-11h-11v11zM0 43h11v-11h-11v11zM0 54h11v-11h-11v11zM0 64h11v-10h-11v10zM21 129v10h11v-10h-11zM11 139v11h10v-11h-10zM43 129v10h11v-10h-11z M11 129v10h10v-10h-10zM32 118v11h11v-11h-11zM21 118v11h11v-11h-11zM54 150h10v-11h-10v11zM54 139h10v-10h-10v10zM43 129h11v-11h-11v11zM32 139h11v-10h-11v10z"
         id="glyph4" />
      <glyph
         glyph-name="Acircumflex"
         unicode="Â"
         d="M21 97h11v-11h-11v11zM32 97h11v-11h-11v11zM32 107h11v-11h-11v11zM43 97h11v-11h-11v11zM43 86h11v-11h-11v11zM54 86h11v-11h-11v11zM32 86h11v-11h-11v11zM21 86h11v-11h-11v11zM11 86h11v-11h-11v11zM11 75h11v-11h-11v11zM0 75h11v-11h-11v11zM21 75h11v-11h-11v11 zM11 65h11v-11h-11v11zM11 54h11v-11h-11v11zM11 43h11v-11h-11v11zM21 43h11v-11h-11v11zM32 43h11v-11h-11v11zM43 43h11v-11h-11v11zM54 43h11v-11h-11v11zM64 43h11v-11h-11v11zM64 54h11v-11h-11v11zM64 65h11v-11h-11v11zM64 75h11v-11h-11v11zM54 75h11v-11h-11v11z M43 75h11v-11h-11v11zM54 65h11v-11h-11v11zM54 54h11v-11h-11v11zM54 32h11v-11h-11v11zM64 32h11v-11h-11v11zM64 22h11v-11h-11v11zM64 11h11v-11h-11v11zM54 11h11v-11h-11v11zM54 22h11v-11h-11v11zM43 32h11v-11h-11v11zM32 32h11v-11h-11v11zM21 32h11v-11h-11v11z M11 32h11v-11h-11v11zM11 22h11v-11h-11v11zM11 11h11v-11h-11v11zM0 11h11v-11h-11v11zM0 22h11v-11h-11v11zM0 32h11v-11h-11v11zM0 43h11v-11h-11v11zM0 54h11v-11h-11v11zM0 65h11v-11h-11v11zM21 129h11v-11h-11v11zM43 129h11v-11h-11v11zM11 129h11v-11h-11v11z M32 140h11v-11h-11v11zM21 140h11v-11h-11v11zM54 129h11v-11h-11v11zM43 140h11v-11h-11v11zM32 150h11v-11h-11v11z"
         id="glyph5" />
      <glyph
         glyph-name="Adieresis"
         unicode="Ä"
         d="M21 97h11v-11h-11v11zM32 97h11v-11h-11v11zM32 107h11v-11h-11v11zM43 97h11v-11h-11v11zM43 86h11v-11h-11v11zM54 86h11v-11h-11v11zM32 86h11v-11h-11v11zM21 86h11v-11h-11v11zM11 86h11v-11h-11v11zM11 75h11v-11h-11v11zM0 75h11v-11h-11v11zM21 75h11v-11h-11v11 zM11 65h11v-11h-11v11zM11 54h11v-11h-11v11zM11 43h11v-11h-11v11zM21 43h11v-11h-11v11zM32 43h11v-11h-11v11zM43 43h11v-11h-11v11zM54 43h11v-11h-11v11zM64 43h11v-11h-11v11zM64 54h11v-11h-11v11zM64 65h11v-11h-11v11zM64 75h11v-11h-11v11zM54 75h11v-11h-11v11z M43 75h11v-11h-11v11zM54 65h11v-11h-11v11zM54 54h11v-11h-11v11zM54 32h11v-11h-11v11zM64 32h11v-11h-11v11zM64 22h11v-11h-11v11zM64 11h11v-11h-11v11zM54 11h11v-11h-11v11zM54 22h11v-11h-11v11zM43 32h11v-11h-11v11zM32 32h11v-11h-11v11zM21 32h11v-11h-11v11z M11 32h11v-11h-11v11zM11 22h11v-11h-11v11zM11 11h11v-11h-11v11zM0 11h11v-11h-11v11zM0 22h11v-11h-11v11zM0 32h11v-11h-11v11zM0 43h11v-11h-11v11zM0 54h11v-11h-11v11zM0 65h11v-11h-11v11zM43 140h11v-11h-11v11zM54 140h11v-11h-11v11zM54 129h11v-11h-11v11z M43 129h11v-11h-11v11zM11 129h11v-11h-11v11zM21 129h11v-11h-11v11zM21 140h11v-11h-11v11zM11 140h11v-11h-11v11z"
         id="glyph6" />
      <glyph
         glyph-name="Agrave"
         unicode="À"
         d="M21 97h11v-11h-11v11zM32 97h11v-11h-11v11zM32 107h11v-11h-11v11zM43 97h11v-11h-11v11zM43 86h11v-11h-11v11zM54 86h11v-11h-11v11zM32 86h11v-11h-11v11zM21 86h11v-11h-11v11zM11 86h11v-11h-11v11zM11 75h11v-11h-11v11zM0 75h11v-11h-11v11zM21 75h11v-11h-11v11 zM11 65h11v-11h-11v11zM11 54h11v-11h-11v11zM11 43h11v-11h-11v11zM21 43h11v-11h-11v11zM32 43h11v-11h-11v11zM43 43h11v-11h-11v11zM54 43h11v-11h-11v11zM64 43h11v-11h-11v11zM64 54h11v-11h-11v11zM64 65h11v-11h-11v11zM64 75h11v-11h-11v11zM54 75h11v-11h-11v11z M43 75h11v-11h-11v11zM54 65h11v-11h-11v11zM54 54h11v-11h-11v11zM54 32h11v-11h-11v11zM64 32h11v-11h-11v11zM64 22h11v-11h-11v11zM64 11h11v-11h-11v11zM54 11h11v-11h-11v11zM54 22h11v-11h-11v11zM43 32h11v-11h-11v11zM32 32h11v-11h-11v11zM21 32h11v-11h-11v11z M11 32h11v-11h-11v11zM11 22h11v-11h-11v11zM11 11h11v-11h-11v11zM0 11h11v-11h-11v11zM0 22h11v-11h-11v11zM0 32h11v-11h-11v11zM0 43h11v-11h-11v11zM0 54h11v-11h-11v11zM0 65h11v-11h-11v11zM32 140h11v-11h-11v11zM32 129h11v-11h-11v11zM21 140h11v-11h-11v11z M43 129h11v-11h-11v11zM21 150h11v-11h-11v11z"
         id="glyph7" />
      <glyph
         glyph-name="Amacron"
         unicode="Ā"
         d="M21 97h11v-11h-11v11zM32 97h11v-11h-11v11zM32 107h11v-11h-11v11zM43 97h11v-11h-11v11zM43 86h11v-11h-11v11zM54 86h11v-11h-11v11zM32 86h11v-11h-11v11zM21 86h11v-11h-11v11zM11 86h11v-11h-11v11zM11 75h11v-11h-11v11zM0 75h11v-11h-11v11zM21 75h11v-11h-11v11 zM11 65h11v-11h-11v11zM11 54h11v-11h-11v11zM11 43h11v-11h-11v11zM21 43h11v-11h-11v11zM32 43h11v-11h-11v11zM43 43h11v-11h-11v11zM54 43h11v-11h-11v11zM64 43h11v-11h-11v11zM64 54h11v-11h-11v11zM64 65h11v-11h-11v11zM64 75h11v-11h-11v11zM54 75h11v-11h-11v11z M43 75h11v-11h-11v11zM54 65h11v-11h-11v11zM54 54h11v-11h-11v11zM54 32h11v-11h-11v11zM64 32h11v-11h-11v11zM64 22h11v-11h-11v11zM64 11h11v-11h-11v11zM54 11h11v-11h-11v11zM54 22h11v-11h-11v11zM43 32h11v-11h-11v11zM32 32h11v-11h-11v11zM21 32h11v-11h-11v11z M11 32h11v-11h-11v11zM11 22h11v-11h-11v11zM11 11h11v-11h-11v11zM0 11h11v-11h-11v11zM0 22h11v-11h-11v11zM0 32h11v-11h-11v11zM0 43h11v-11h-11v11zM0 54h11v-11h-11v11zM0 65h11v-11h-11v11zM21 140h11v-11h-11v11zM32 140h11v-11h-11v11zM32 129h11v-11h-11v11z M21 129h11v-11h-11v11zM11 140h11v-11h-11v11zM11 129h11v-11h-11v11zM43 140h11v-11h-11v11zM43 129h11v-11h-11v11zM54 140h11v-11h-11v11zM54 129h11v-11h-11v11z"
         id="glyph8" />
      <glyph
         glyph-name="Aogonek"
         unicode="Ą"
         d="M21 96h11v-10h-11v10zM32 96h11v-10h-11v10zM32 107h11v-11h-11v11zM43 96h11v-10h-11v10zM43 86h11v-11h-11v11zM54 86h10v-11h-10v11zM32 86h11v-11h-11v11zM21 86h11v-11h-11v11zM11 86h10v-11h-10v11zM11 75h10v-11h-10v11zM0 75h11v-11h-11v11zM21 75h11v-11h-11v11 zM11 64h10v-10h-10v10zM11 54h10v-11h-10v11zM11 43h10v-11h-10v11zM21 43h11v-11h-11v11zM32 43h11v-11h-11v11zM43 43h11v-11h-11v11zM54 43h10v-11h-10v11zM64 43h11v-11h-11v11zM64 54h11v-11h-11v11zM64 64h11v-10h-11v10zM64 75h11v-11h-11v11zM54 75h10v-11h-10v11z M43 75h11v-11h-11v11zM54 64h10v-10h-10v10zM54 54h10v-11h-10v11zM54 32h10v-11h-10v11zM64 32h11v-11h-11v11zM64 21h11v-10h-11v10zM64 11h11v-11h-11v11zM54 11h10v-11h-10v11zM54 21h10v-10h-10v10zM43 32h11v-11h-11v11zM32 32h11v-11h-11v11zM21 32h11v-11h-11v11z M11 32h10v-11h-10v11zM11 21h10v-10h-10v10zM11 11h10v-11h-10v11zM0 11h11v-11h-11v11zM0 21h11v-10h-11v10zM0 32h11v-11h-11v11zM0 43h11v-11h-11v11zM0 54h11v-11h-11v11zM0 64h11v-10h-11v10zM75 0v-11h-11v11h11zM64 -11v-10h-10v10h10zM64 -21v-11h-10v11h10zM75 -21 v-11h-11v11h11zM54 -32h10v-11h-10v11zM64 -32h11v-11h-11v11z"
         id="glyph9" />
      <glyph
         glyph-name="Aring"
         unicode="Å"
         d="M21 97h11v-11h-11v11zM32 97h11v-11h-11v11zM32 107h11v-11h-11v11zM43 97h11v-11h-11v11zM43 86h11v-11h-11v11zM54 86h11v-11h-11v11zM32 86h11v-11h-11v11zM21 86h11v-11h-11v11zM11 86h11v-11h-11v11zM11 75h11v-11h-11v11zM0 75h11v-11h-11v11zM21 75h11v-11h-11v11 zM11 65h11v-11h-11v11zM11 54h11v-11h-11v11zM11 43h11v-11h-11v11zM21 43h11v-11h-11v11zM32 43h11v-11h-11v11zM43 43h11v-11h-11v11zM54 43h11v-11h-11v11zM64 43h11v-11h-11v11zM64 54h11v-11h-11v11zM64 65h11v-11h-11v11zM64 75h11v-11h-11v11zM54 75h11v-11h-11v11z M43 75h11v-11h-11v11zM54 65h11v-11h-11v11zM54 54h11v-11h-11v11zM54 32h11v-11h-11v11zM64 32h11v-11h-11v11zM64 22h11v-11h-11v11zM64 11h11v-11h-11v11zM54 11h11v-11h-11v11zM54 22h11v-11h-11v11zM43 32h11v-11h-11v11zM32 32h11v-11h-11v11zM21 32h11v-11h-11v11z M11 32h11v-11h-11v11zM11 22h11v-11h-11v11zM11 11h11v-11h-11v11zM0 11h11v-11h-11v11zM0 22h11v-11h-11v11zM0 32h11v-11h-11v11zM0 43h11v-11h-11v11zM0 54h11v-11h-11v11zM0 65h11v-11h-11v11zM21 129h11v-11h-11v11zM32 129h11v-11h-11v11zM32 150h11v-11h-11v11z M21 150h11v-11h-11v11zM43 150h11v-11h-11v11zM43 140h11v-11h-11v11zM43 129h11v-11h-11v11zM21 140h11v-11h-11v11z"
         id="glyph10" />
      <glyph
         glyph-name="Atilde"
         unicode="Ã"
         d="M21 97h11v-11h-11v11zM32 97h11v-11h-11v11zM32 107h11v-11h-11v11zM43 97h11v-11h-11v11zM43 86h11v-11h-11v11zM54 86h11v-11h-11v11zM32 86h11v-11h-11v11zM21 86h11v-11h-11v11zM11 86h11v-11h-11v11zM11 75h11v-11h-11v11zM0 75h11v-11h-11v11zM21 75h11v-11h-11v11 zM11 65h11v-11h-11v11zM11 54h11v-11h-11v11zM11 43h11v-11h-11v11zM21 43h11v-11h-11v11zM32 43h11v-11h-11v11zM43 43h11v-11h-11v11zM54 43h11v-11h-11v11zM64 43h11v-11h-11v11zM64 54h11v-11h-11v11zM64 65h11v-11h-11v11zM64 75h11v-11h-11v11zM54 75h11v-11h-11v11z M43 75h11v-11h-11v11zM54 65h11v-11h-11v11zM54 54h11v-11h-11v11zM54 32h11v-11h-11v11zM64 32h11v-11h-11v11zM64 22h11v-11h-11v11zM64 11h11v-11h-11v11zM54 11h11v-11h-11v11zM54 22h11v-11h-11v11zM43 32h11v-11h-11v11zM32 32h11v-11h-11v11zM21 32h11v-11h-11v11z M11 32h11v-11h-11v11zM11 22h11v-11h-11v11zM11 11h11v-11h-11v11zM0 11h11v-11h-11v11zM0 22h11v-11h-11v11zM0 32h11v-11h-11v11zM0 43h11v-11h-11v11zM0 54h11v-11h-11v11zM0 65h11v-11h-11v11zM32 140h11v-11h-11v11zM11 150h11v-11h-11v11zM21 150h11v-11h-11v11z M43 140h11v-11h-11v11zM54 140h11v-11h-11v11zM54 150h11v-11h-11v11zM43 129h11v-11h-11v11zM32 150h11v-11h-11v11zM21 161h11v-11h-11v11zM11 140h11v-11h-11v11z"
         id="glyph11" />
      <glyph
         glyph-name="AE"
         unicode="Æ"
         horiz-adv-x="139"
         d="M21 97h11v-11h-11v11zM32 97h11v-11h-11v11zM32 107h11v-11h-11v11zM43 97h11v-11h-11v11zM43 86h11v-11h-11v11zM54 86h11v-11h-11v11zM32 86h11v-11h-11v11zM21 86h11v-11h-11v11zM11 86h11v-11h-11v11zM11 75h11v-11h-11v11zM0 75h11v-11h-11v11zM21 75h11v-11h-11v11 zM11 65h11v-11h-11v11zM11 54h11v-11h-11v11zM11 43h11v-11h-11v11zM21 43h11v-11h-11v11zM32 43h11v-11h-11v11zM43 43h11v-11h-11v11zM54 43h11v-11h-11v11zM54 75h11v-11h-11v11zM43 75h11v-11h-11v11zM54 65h11v-11h-11v11zM54 54h11v-11h-11v11zM54 32h11v-11h-11v11z M54 11h11v-11h-11v11zM54 22h11v-11h-11v11zM43 32h11v-11h-11v11zM32 32h11v-11h-11v11zM21 32h11v-11h-11v11zM11 32h11v-11h-11v11zM11 22h11v-11h-11v11zM11 11h11v-11h-11v11zM0 11h11v-11h-11v11zM0 22h11v-11h-11v11zM0 32h11v-11h-11v11zM0 43h11v-11h-11v11zM0 54 h11v-11h-11v11zM0 65h11v-11h-11v11zM64 107h11v-11h-11v11zM75 107h11v-11h-11v11zM75 97h11v-11h-11v11zM75 86h11v-11h-11v11zM75 75h11v-11h-11v11zM64 75h11v-11h-11v11zM64 86h11v-11h-11v11zM64 97h11v-11h-11v11zM64 65h11v-11h-11v11zM64 54h11v-11h-11v11zM64 43 h11v-11h-11v11zM75 54h11v-11h-11v11zM75 65h11v-11h-11v11zM75 43h11v-11h-11v11zM75 32h11v-11h-11v11zM64 22h11v-11h-11v11zM64 32h11v-11h-11v11zM64 11h11v-11h-11v11zM75 11h11v-11h-11v11zM75 22h11v-11h-11v11zM86 11h11v-11h-11v11zM96 11h11v-11h-11v11zM107 11 h11v-11h-11v11zM107 22h11v-11h-11v11zM96 22h11v-11h-11v11zM86 22h11v-11h-11v11zM86 107h11v-11h-11v11zM96 107h11v-11h-11v11zM107 107h11v-11h-11v11zM118 107h11v-11h-11v11zM107 97h11v-11h-11v11zM96 97h11v-11h-11v11zM86 97h11v-11h-11v11zM86 54h11v-11h-11v11z M96 65h11v-11h-11v11zM86 65h11v-11h-11v11zM96 54h11v-11h-11v11zM118 97h11v-11h-11v11zM118 22h11v-11h-11v11zM118 11h11v-11h-11v11zM107 65h11v-11h-11v11zM107 54h11v-11h-11v11z"
         id="glyph12" />
      <glyph
         glyph-name="B"
         unicode="B"
         d="M0 107h11v-11h-11v11zM11 107h11v-11h-11v11zM21 107h11v-11h-11v11zM32 107h11v-11h-11v11zM43 107h11v-11h-11v11zM54 107h11v-11h-11v11zM54 97h11v-11h-11v11zM43 97h11v-11h-11v11zM32 97h11v-11h-11v11zM21 97h11v-11h-11v11zM11 97h11v-11h-11v11zM0 97h11v-11 h-11v11zM64 97h11v-11h-11v11zM64 86h11v-11h-11v11zM64 75h11v-11h-11v11zM54 75h11v-11h-11v11zM54 86h11v-11h-11v11zM54 65h11v-11h-11v11zM43 65h11v-11h-11v11zM32 65h11v-11h-11v11zM21 65h11v-11h-11v11zM11 65h11v-11h-11v11zM11 75h11v-11h-11v11zM11 86h11v-11 h-11v11zM0 86h11v-11h-11v11zM0 75h11v-11h-11v11zM0 65h11v-11h-11v11zM0 54h11v-11h-11v11zM11 54h11v-11h-11v11zM21 54h11v-11h-11v11zM32 54h11v-11h-11v11zM43 54h11v-11h-11v11zM54 54h11v-11h-11v11zM64 54h11v-11h-11v11zM64 43h11v-11h-11v11zM54 43h11v-11h-11 v11zM54 22h11v-11h-11v11zM64 22h11v-11h-11v11zM64 32h11v-11h-11v11zM54 32h11v-11h-11v11zM54 11h11v-11h-11v11zM43 11h11v-11h-11v11zM32 11h11v-11h-11v11zM21 11h11v-11h-11v11zM11 11h11v-11h-11v11zM0 11h11v-11h-11v11zM0 22h11v-11h-11v11zM0 32h11v-11h-11v11z M0 43h11v-11h-11v11zM11 43h11v-11h-11v11zM11 32h11v-11h-11v11zM11 22h11v-11h-11v11zM21 22h11v-11h-11v11zM32 22h11v-11h-11v11zM43 22h11v-11h-11v11z"
         id="glyph13" />
      <glyph
         glyph-name="C"
         unicode="C"
         d="M21 107h11v-11h-11v11zM11 107h11v-11h-11v11zM11 97h11v-11h-11v11zM21 97h11v-11h-11v11zM32 97h11v-11h-11v11zM32 107h11v-11h-11v11zM43 107h11v-11h-11v11zM54 107h11v-11h-11v11zM54 97h11v-11h-11v11zM43 97h11v-11h-11v11zM54 86h11v-11h-11v11zM64 97h11v-11 h-11v11zM64 86h11v-11h-11v11zM64 32h11v-11h-11v11zM64 22h11v-11h-11v11zM54 22h11v-11h-11v11zM54 32h11v-11h-11v11zM43 22h11v-11h-11v11zM54 11h11v-11h-11v11zM43 11h11v-11h-11v11zM32 11h11v-11h-11v11zM32 22h11v-11h-11v11zM21 11h11v-11h-11v11zM11 11h11v-11 h-11v11zM11 22h11v-11h-11v11zM21 22h11v-11h-11v11zM21 32h11v-11h-11v11zM11 32h11v-11h-11v11zM0 22h11v-11h-11v11zM0 32h11v-11h-11v11zM0 43h11v-11h-11v11zM0 54h11v-11h-11v11zM0 65h11v-11h-11v11zM0 75h11v-11h-11v11zM0 86h11v-11h-11v11zM11 86h11v-11h-11v11z M0 97h11v-11h-11v11zM21 86h11v-11h-11v11zM11 75h11v-11h-11v11zM11 65h11v-11h-11v11zM11 54h11v-11h-11v11zM11 43h11v-11h-11v11z"
         id="glyph14" />
      <glyph
         glyph-name="Cacute"
         unicode="Ć"
         d="M21 107h11v-11h-11v11zM11 107h10v-11h-10v11zM11 96h10v-10h-10v10zM21 96h11v-10h-11v10zM32 96h11v-10h-11v10zM32 107h11v-11h-11v11zM43 107h11v-11h-11v11zM54 107h10v-11h-10v11zM54 96h10v-10h-10v10zM43 96h11v-10h-11v10zM54 86h10v-11h-10v11zM64 96h11v-10 h-11v10zM64 86h11v-11h-11v11zM64 32h11v-11h-11v11zM64 21h11v-10h-11v10zM54 21h10v-10h-10v10zM54 32h10v-11h-10v11zM43 21h11v-10h-11v10zM54 11h10v-11h-10v11zM43 11h11v-11h-11v11zM32 11h11v-11h-11v11zM32 21h11v-10h-11v10zM21 11h11v-11h-11v11zM11 11h10v-11 h-10v11zM11 21h10v-10h-10v10zM21 21h11v-10h-11v10zM21 32h11v-11h-11v11zM11 32h10v-11h-10v11zM0 21h11v-10h-11v10zM0 32h11v-11h-11v11zM0 43h11v-11h-11v11zM0 54h11v-11h-11v11zM0 64h11v-10h-11v10zM0 75h11v-11h-11v11zM0 86h11v-11h-11v11zM11 86h10v-11h-10v11z M0 96h11v-10h-11v10zM21 86h11v-11h-11v11zM11 75h10v-11h-10v11zM11 64h10v-10h-10v10zM11 54h10v-11h-10v11zM11 43h10v-11h-10v11zM43 139v-10h-11v10h11zM43 129v-11h-11v11h11zM54 139v-10h-11v10h11zM54 150v-11h-11v11h11z"
         id="glyph15" />
      <glyph
         glyph-name="Ccaron"
         unicode="Č"
         d="M21 107h11v-11h-11v11zM11 107h10v-11h-10v11zM11 96h10v-10h-10v10zM21 96h11v-10h-11v10zM32 96h11v-10h-11v10zM32 107h11v-11h-11v11zM43 107h11v-11h-11v11zM54 107h10v-11h-10v11zM54 96h10v-10h-10v10zM43 96h11v-10h-11v10zM54 86h10v-11h-10v11zM64 96h11v-10 h-11v10zM64 86h11v-11h-11v11zM64 32h11v-11h-11v11zM64 21h11v-10h-11v10zM54 21h10v-10h-10v10zM54 32h10v-11h-10v11zM43 21h11v-10h-11v10zM54 11h10v-11h-10v11zM43 11h11v-11h-11v11zM32 11h11v-11h-11v11zM32 21h11v-10h-11v10zM21 11h11v-11h-11v11zM11 11h10v-11 h-10v11zM11 21h10v-10h-10v10zM21 21h11v-10h-11v10zM21 32h11v-11h-11v11zM11 32h10v-11h-10v11zM0 21h11v-10h-11v10zM0 32h11v-11h-11v11zM0 43h11v-11h-11v11zM0 54h11v-11h-11v11zM0 64h11v-10h-11v10zM0 75h11v-11h-11v11zM0 86h11v-11h-11v11zM11 86h10v-11h-10v11z M0 96h11v-10h-11v10zM21 86h11v-11h-11v11zM11 75h10v-11h-10v11zM11 64h10v-10h-10v10zM11 54h10v-11h-10v11zM11 43h10v-11h-10v11zM21 139v11h11v-11h-11zM43 139v11h11v-11h-11zM11 139v11h10v-11h-10zM32 129v10h11v-10h-11zM21 129v10h11v-10h-11zM54 150h10v-11h-10 v11zM43 139h11v-10h-11v10zM32 129h11v-11h-11v11z"
         id="glyph16" />
      <glyph
         glyph-name="Ccedilla"
         unicode="Ç"
         d="M21 107h11v-11h-11v11zM11 107h11v-11h-11v11zM11 97h11v-11h-11v11zM21 97h11v-11h-11v11zM32 97h11v-11h-11v11zM32 107h11v-11h-11v11zM43 107h11v-11h-11v11zM54 107h11v-11h-11v11zM54 97h11v-11h-11v11zM43 97h11v-11h-11v11zM54 86h11v-11h-11v11zM64 97h11v-11 h-11v11zM64 86h11v-11h-11v11zM64 32h11v-11h-11v11zM64 22h11v-11h-11v11zM54 22h11v-11h-11v11zM54 32h11v-11h-11v11zM43 22h11v-11h-11v11zM54 11h11v-11h-11v11zM43 11h11v-11h-11v11zM32 11h11v-11h-11v11zM32 22h11v-11h-11v11zM21 11h11v-11h-11v11zM11 11h11v-11 h-11v11zM11 22h11v-11h-11v11zM21 22h11v-11h-11v11zM21 32h11v-11h-11v11zM11 32h11v-11h-11v11zM0 22h11v-11h-11v11zM0 32h11v-11h-11v11zM0 43h11v-11h-11v11zM0 54h11v-11h-11v11zM0 65h11v-11h-11v11zM0 75h11v-11h-11v11zM0 86h11v-11h-11v11zM11 86h11v-11h-11v11z M0 97h11v-11h-11v11zM21 86h11v-11h-11v11zM11 75h11v-11h-11v11zM11 65h11v-11h-11v11zM11 54h11v-11h-11v11zM11 43h11v-11h-11v11zM32 0h11v-11h-11v11zM43 -10h11v-11h-11v11zM43 -21h11v-11h-11v11zM32 -21h11v-11h-11v11zM32 -32h11v-11h-11v11zM43 -32h11v-11h-11v11 z"
         id="glyph17" />
      <glyph
         glyph-name="Cdotaccent"
         unicode="Ċ"
         d="M21 107h11v-11h-11v11zM11 107h11v-11h-11v11zM11 97h11v-11h-11v11zM21 97h11v-11h-11v11zM32 97h11v-11h-11v11zM32 107h11v-11h-11v11zM43 107h11v-11h-11v11zM54 107h11v-11h-11v11zM54 97h11v-11h-11v11zM43 97h11v-11h-11v11zM54 86h11v-11h-11v11zM64 97h11v-11 h-11v11zM64 86h11v-11h-11v11zM64 32h11v-11h-11v11zM64 22h11v-11h-11v11zM54 22h11v-11h-11v11zM54 32h11v-11h-11v11zM43 22h11v-11h-11v11zM54 11h11v-11h-11v11zM43 11h11v-11h-11v11zM32 11h11v-11h-11v11zM32 22h11v-11h-11v11zM21 11h11v-11h-11v11zM11 11h11v-11 h-11v11zM11 22h11v-11h-11v11zM21 22h11v-11h-11v11zM21 32h11v-11h-11v11zM11 32h11v-11h-11v11zM0 22h11v-11h-11v11zM0 32h11v-11h-11v11zM0 43h11v-11h-11v11zM0 54h11v-11h-11v11zM0 65h11v-11h-11v11zM0 75h11v-11h-11v11zM0 86h11v-11h-11v11zM11 86h11v-11h-11v11z M0 97h11v-11h-11v11zM21 86h11v-11h-11v11zM11 75h11v-11h-11v11zM11 65h11v-11h-11v11zM11 54h11v-11h-11v11zM11 43h11v-11h-11v11zM21 140h11v-11h-11v11zM32 140h11v-11h-11v11zM32 129h11v-11h-11v11zM21 129h11v-11h-11v11z"
         id="glyph18" />
      <glyph
         glyph-name="D"
         unicode="D"
         d="M21 107h11v-11h-11v11zM11 107h11v-11h-11v11zM11 97h11v-11h-11v11zM21 97h11v-11h-11v11zM32 97h11v-11h-11v11zM32 107h11v-11h-11v11zM43 107h11v-11h-11v11zM54 107h11v-11h-11v11zM54 97h11v-11h-11v11zM43 97h11v-11h-11v11zM43 86h11v-11h-11v11zM54 86h11v-11 h-11v11zM64 97h11v-11h-11v11zM64 86h11v-11h-11v11zM64 75h11v-11h-11v11zM64 65h11v-11h-11v11zM64 54h11v-11h-11v11zM64 43h11v-11h-11v11zM64 32h11v-11h-11v11zM64 22h11v-11h-11v11zM54 22h11v-11h-11v11zM54 32h11v-11h-11v11zM54 43h11v-11h-11v11zM54 54h11v-11 h-11v11zM54 65h11v-11h-11v11zM54 75h11v-11h-11v11zM43 32h11v-11h-11v11zM43 22h11v-11h-11v11zM54 11h11v-11h-11v11zM43 11h11v-11h-11v11zM32 11h11v-11h-11v11zM32 22h11v-11h-11v11zM21 11h11v-11h-11v11zM11 11h11v-11h-11v11zM11 22h11v-11h-11v11zM21 22h11v-11 h-11v11zM11 32h11v-11h-11v11zM0 22h11v-11h-11v11zM0 32h11v-11h-11v11zM0 43h11v-11h-11v11zM0 54h11v-11h-11v11zM0 65h11v-11h-11v11zM0 75h11v-11h-11v11zM0 86h11v-11h-11v11zM11 86h11v-11h-11v11zM0 97h11v-11h-11v11zM11 75h11v-11h-11v11zM11 65h11v-11h-11v11z M11 54h11v-11h-11v11zM11 43h11v-11h-11v11zM0 11h11v-11h-11v11zM0 107h11v-11h-11v11z"
         id="glyph19" />
      <glyph
         glyph-name="Eth"
         unicode="Ð"
         horiz-adv-x="96"
         d="M32 107h11v-11h-11v11zM21 107h11v-11h-11v11zM21 97h11v-11h-11v11zM32 97h11v-11h-11v11zM43 97h11v-11h-11v11zM43 107h11v-11h-11v11zM54 107h11v-11h-11v11zM64 107h11v-11h-11v11zM64 97h11v-11h-11v11zM54 97h11v-11h-11v11zM54 86h11v-11h-11v11zM64 86h11v-11 h-11v11zM75 97h11v-11h-11v11zM75 86h11v-11h-11v11zM75 75h11v-11h-11v11zM75 65h11v-11h-11v11zM75 54h11v-11h-11v11zM75 43h11v-11h-11v11zM75 32h11v-11h-11v11zM75 22h11v-11h-11v11zM64 22h11v-11h-11v11zM64 32h11v-11h-11v11zM64 43h11v-11h-11v11zM64 54h11v-11 h-11v11zM64 65h11v-11h-11v11zM64 75h11v-11h-11v11zM54 32h11v-11h-11v11zM54 22h11v-11h-11v11zM64 11h11v-11h-11v11zM54 11h11v-11h-11v11zM43 11h11v-11h-11v11zM43 22h11v-11h-11v11zM32 11h11v-11h-11v11zM21 11h11v-11h-11v11zM21 22h11v-11h-11v11zM32 22h11v-11 h-11v11zM21 32h11v-11h-11v11zM11 22h11v-11h-11v11zM11 32h11v-11h-11v11zM11 43h11v-11h-11v11zM11 54h11v-11h-11v11zM11 65h11v-11h-11v11zM11 75h11v-11h-11v11zM11 86h11v-11h-11v11zM21 86h11v-11h-11v11zM11 97h11v-11h-11v11zM21 75h11v-11h-11v11zM21 65h11v-11 h-11v11zM21 54h11v-11h-11v11zM21 43h11v-11h-11v11zM11 11h11v-11h-11v11zM11 107h11v-11h-11v11zM0 65h11v-11h-11v11zM0 54h11v-11h-11v11zM32 54h11v-11h-11v11zM32 65h11v-11h-11v11zM43 65h11v-11h-11v11zM43 54h11v-11h-11v11z"
         id="glyph20" />
      <glyph
         glyph-name="Dcaron"
         unicode="Ď"
         d="M21 107h11v-11h-11v11zM11 107h10v-11h-10v11zM11 96h10v-10h-10v10zM21 96h11v-10h-11v10zM32 96h11v-10h-11v10zM32 107h11v-11h-11v11zM43 107h11v-11h-11v11zM54 107h10v-11h-10v11zM54 96h10v-10h-10v10zM43 96h11v-10h-11v10zM43 86h11v-11h-11v11zM54 86h10v-11 h-10v11zM64 96h11v-10h-11v10zM64 86h11v-11h-11v11zM64 75h11v-11h-11v11zM64 64h11v-10h-11v10zM64 54h11v-11h-11v11zM64 43h11v-11h-11v11zM64 32h11v-11h-11v11zM64 21h11v-10h-11v10zM54 21h10v-10h-10v10zM54 32h10v-11h-10v11zM54 43h10v-11h-10v11zM54 54h10v-11 h-10v11zM54 64h10v-10h-10v10zM54 75h10v-11h-10v11zM43 32h11v-11h-11v11zM43 21h11v-10h-11v10zM54 11h10v-11h-10v11zM43 11h11v-11h-11v11zM32 11h11v-11h-11v11zM32 21h11v-10h-11v10zM21 11h11v-11h-11v11zM11 11h10v-11h-10v11zM11 21h10v-10h-10v10zM21 21h11v-10 h-11v10zM11 32h10v-11h-10v11zM0 21h11v-10h-11v10zM0 32h11v-11h-11v11zM0 43h11v-11h-11v11zM0 54h11v-11h-11v11zM0 64h11v-10h-11v10zM0 75h11v-11h-11v11zM0 86h11v-11h-11v11zM11 86h10v-11h-10v11zM0 96h11v-10h-11v10zM11 75h10v-11h-10v11zM11 64h10v-10h-10v10z M11 54h10v-11h-10v11zM11 43h10v-11h-10v11zM0 11h11v-11h-11v11zM0 107h11v-11h-11v11zM21 139v11h11v-11h-11zM43 139v11h11v-11h-11zM11 139v11h10v-11h-10zM32 129v10h11v-10h-11zM21 129v10h11v-10h-11zM54 150h10v-11h-10v11zM43 139h11v-10h-11v10zM32 129h11v-11 h-11v11z"
         id="glyph21" />
      <glyph
         glyph-name="Dcroat"
         unicode="Đ"
         horiz-adv-x="96"
         d="M32 107h11v-11h-11v11zM21 107h11v-11h-11v11zM21 97h11v-11h-11v11zM32 97h11v-11h-11v11zM43 97h11v-11h-11v11zM43 107h11v-11h-11v11zM54 107h11v-11h-11v11zM64 107h11v-11h-11v11zM64 97h11v-11h-11v11zM54 97h11v-11h-11v11zM54 86h11v-11h-11v11zM64 86h11v-11 h-11v11zM75 97h11v-11h-11v11zM75 86h11v-11h-11v11zM75 75h11v-11h-11v11zM75 65h11v-11h-11v11zM75 54h11v-11h-11v11zM75 43h11v-11h-11v11zM75 32h11v-11h-11v11zM75 22h11v-11h-11v11zM64 22h11v-11h-11v11zM64 32h11v-11h-11v11zM64 43h11v-11h-11v11zM64 54h11v-11 h-11v11zM64 65h11v-11h-11v11zM64 75h11v-11h-11v11zM54 32h11v-11h-11v11zM54 22h11v-11h-11v11zM64 11h11v-11h-11v11zM54 11h11v-11h-11v11zM43 11h11v-11h-11v11zM43 22h11v-11h-11v11zM32 11h11v-11h-11v11zM21 11h11v-11h-11v11zM21 22h11v-11h-11v11zM32 22h11v-11 h-11v11zM21 32h11v-11h-11v11zM11 22h11v-11h-11v11zM11 32h11v-11h-11v11zM11 43h11v-11h-11v11zM11 54h11v-11h-11v11zM11 65h11v-11h-11v11zM11 75h11v-11h-11v11zM11 86h11v-11h-11v11zM21 86h11v-11h-11v11zM11 97h11v-11h-11v11zM21 75h11v-11h-11v11zM21 65h11v-11 h-11v11zM21 54h11v-11h-11v11zM21 43h11v-11h-11v11zM11 11h11v-11h-11v11zM11 107h11v-11h-11v11zM0 65h11v-11h-11v11zM0 54h11v-11h-11v11zM32 54h11v-11h-11v11zM32 65h11v-11h-11v11zM43 65h11v-11h-11v11zM43 54h11v-11h-11v11z"
         id="glyph22" />
      <glyph
         glyph-name="E"
         unicode="E"
         horiz-adv-x="75"
         d="M0 107h11v-11h-11v11zM11 107h11v-11h-11v11zM11 97h11v-11h-11v11zM11 86h11v-11h-11v11zM11 75h11v-11h-11v11zM0 75h11v-11h-11v11zM0 86h11v-11h-11v11zM0 97h11v-11h-11v11zM0 65h11v-11h-11v11zM0 54h11v-11h-11v11zM0 43h11v-11h-11v11zM11 54h11v-11h-11v11z M11 65h11v-11h-11v11zM11 43h11v-11h-11v11zM11 32h11v-11h-11v11zM0 22h11v-11h-11v11zM0 32h11v-11h-11v11zM0 11h11v-11h-11v11zM11 11h11v-11h-11v11zM11 22h11v-11h-11v11zM21 11h11v-11h-11v11zM32 11h11v-11h-11v11zM43 11h11v-11h-11v11zM43 22h11v-11h-11v11z M32 22h11v-11h-11v11zM21 22h11v-11h-11v11zM21 107h11v-11h-11v11zM32 107h11v-11h-11v11zM43 107h11v-11h-11v11zM54 107h11v-11h-11v11zM43 97h11v-11h-11v11zM32 97h11v-11h-11v11zM21 97h11v-11h-11v11zM21 54h11v-11h-11v11zM32 65h11v-11h-11v11zM21 65h11v-11h-11 v11zM32 54h11v-11h-11v11zM54 97h11v-11h-11v11zM54 22h11v-11h-11v11zM54 11h11v-11h-11v11zM43 65h11v-11h-11v11zM43 54h11v-11h-11v11z"
         id="glyph23" />
      <glyph
         glyph-name="Eacute"
         unicode="É"
         horiz-adv-x="75"
         d="M0 107h11v-11h-11v11zM11 107h10v-11h-10v11zM11 96h10v-10h-10v10zM11 86h10v-11h-10v11zM11 75h10v-11h-10v11zM0 75h11v-11h-11v11zM0 86h11v-11h-11v11zM0 96h11v-10h-11v10zM0 64h11v-10h-11v10zM0 54h11v-11h-11v11zM0 43h11v-11h-11v11zM11 54h10v-11h-10v11z M11 64h10v-10h-10v10zM11 43h10v-11h-10v11zM11 32h10v-11h-10v11zM0 21h11v-10h-11v10zM0 32h11v-11h-11v11zM0 11h11v-11h-11v11zM11 11h10v-11h-10v11zM11 21h10v-10h-10v10zM21 11h11v-11h-11v11zM32 11h11v-11h-11v11zM43 11h11v-11h-11v11zM43 21h11v-10h-11v10z M32 21h11v-10h-11v10zM21 21h11v-10h-11v10zM21 107h11v-11h-11v11zM32 107h11v-11h-11v11zM43 107h11v-11h-11v11zM54 107h10v-11h-10v11zM43 96h11v-10h-11v10zM32 96h11v-10h-11v10zM21 96h11v-10h-11v10zM21 54h11v-11h-11v11zM32 64h11v-10h-11v10zM21 64h11v-10h-11 v10zM32 54h11v-11h-11v11zM54 96h10v-10h-10v10zM54 21h10v-10h-10v10zM54 11h10v-11h-10v11zM43 64h11v-10h-11v10zM43 54h11v-11h-11v11zM43 139v-10h-11v10h11zM43 129v-11h-11v11h11zM54 139v-10h-11v10h11zM54 150v-11h-11v11h11z"
         id="glyph24" />
      <glyph
         glyph-name="Ecaron"
         unicode="Ě"
         horiz-adv-x="75"
         d="M0 107h11v-11h-11v11zM11 107h10v-11h-10v11zM11 96h10v-10h-10v10zM11 86h10v-11h-10v11zM11 75h10v-11h-10v11zM0 75h11v-11h-11v11zM0 86h11v-11h-11v11zM0 96h11v-10h-11v10zM0 64h11v-10h-11v10zM0 54h11v-11h-11v11zM0 43h11v-11h-11v11zM11 54h10v-11h-10v11z M11 64h10v-10h-10v10zM11 43h10v-11h-10v11zM11 32h10v-11h-10v11zM0 21h11v-10h-11v10zM0 32h11v-11h-11v11zM0 11h11v-11h-11v11zM11 11h10v-11h-10v11zM11 21h10v-10h-10v10zM21 11h11v-11h-11v11zM32 11h11v-11h-11v11zM43 11h11v-11h-11v11zM43 21h11v-10h-11v10z M32 21h11v-10h-11v10zM21 21h11v-10h-11v10zM21 107h11v-11h-11v11zM32 107h11v-11h-11v11zM43 107h11v-11h-11v11zM54 107h10v-11h-10v11zM43 96h11v-10h-11v10zM32 96h11v-10h-11v10zM21 96h11v-10h-11v10zM21 54h11v-11h-11v11zM32 64h11v-10h-11v10zM21 64h11v-10h-11 v10zM32 54h11v-11h-11v11zM54 96h10v-10h-10v10zM54 21h10v-10h-10v10zM54 11h10v-11h-10v11zM43 64h11v-10h-11v10zM43 54h11v-11h-11v11zM21 139v11h11v-11h-11zM43 139v11h11v-11h-11zM11 139v11h10v-11h-10zM32 129v10h11v-10h-11zM21 129v10h11v-10h-11zM54 150h10v-11 h-10v11zM43 139h11v-10h-11v10zM32 129h11v-11h-11v11z"
         id="glyph25" />
      <glyph
         glyph-name="Ecircumflex"
         unicode="Ê"
         horiz-adv-x="75"
         d="M0 107h11v-11h-11v11zM11 107h11v-11h-11v11zM11 97h11v-11h-11v11zM11 86h11v-11h-11v11zM11 75h11v-11h-11v11zM0 75h11v-11h-11v11zM0 86h11v-11h-11v11zM0 97h11v-11h-11v11zM0 65h11v-11h-11v11zM0 54h11v-11h-11v11zM0 43h11v-11h-11v11zM11 54h11v-11h-11v11z M11 65h11v-11h-11v11zM11 43h11v-11h-11v11zM11 32h11v-11h-11v11zM0 22h11v-11h-11v11zM0 32h11v-11h-11v11zM0 11h11v-11h-11v11zM11 11h11v-11h-11v11zM11 22h11v-11h-11v11zM21 11h11v-11h-11v11zM32 11h11v-11h-11v11zM43 11h11v-11h-11v11zM43 22h11v-11h-11v11z M32 22h11v-11h-11v11zM21 22h11v-11h-11v11zM21 107h11v-11h-11v11zM32 107h11v-11h-11v11zM43 107h11v-11h-11v11zM54 107h11v-11h-11v11zM43 97h11v-11h-11v11zM32 97h11v-11h-11v11zM21 97h11v-11h-11v11zM21 54h11v-11h-11v11zM32 65h11v-11h-11v11zM21 65h11v-11h-11 v11zM32 54h11v-11h-11v11zM54 97h11v-11h-11v11zM54 22h11v-11h-11v11zM54 11h11v-11h-11v11zM43 65h11v-11h-11v11zM43 54h11v-11h-11v11zM21 129h11v-11h-11v11zM43 129h11v-11h-11v11zM11 129h11v-11h-11v11zM32 140h11v-11h-11v11zM21 140h11v-11h-11v11zM54 129h11v-11 h-11v11zM43 140h11v-11h-11v11zM32 150h11v-11h-11v11z"
         id="glyph26" />
      <glyph
         glyph-name="Edieresis"
         unicode="Ë"
         horiz-adv-x="75"
         d="M0 107h11v-11h-11v11zM11 107h11v-11h-11v11zM11 97h11v-11h-11v11zM11 86h11v-11h-11v11zM11 75h11v-11h-11v11zM0 75h11v-11h-11v11zM0 86h11v-11h-11v11zM0 97h11v-11h-11v11zM0 65h11v-11h-11v11zM0 54h11v-11h-11v11zM0 43h11v-11h-11v11zM11 54h11v-11h-11v11z M11 65h11v-11h-11v11zM11 43h11v-11h-11v11zM11 32h11v-11h-11v11zM0 22h11v-11h-11v11zM0 32h11v-11h-11v11zM0 11h11v-11h-11v11zM11 11h11v-11h-11v11zM11 22h11v-11h-11v11zM21 11h11v-11h-11v11zM32 11h11v-11h-11v11zM43 11h11v-11h-11v11zM43 22h11v-11h-11v11z M32 22h11v-11h-11v11zM21 22h11v-11h-11v11zM21 107h11v-11h-11v11zM32 107h11v-11h-11v11zM43 107h11v-11h-11v11zM54 107h11v-11h-11v11zM43 97h11v-11h-11v11zM32 97h11v-11h-11v11zM21 97h11v-11h-11v11zM21 54h11v-11h-11v11zM32 65h11v-11h-11v11zM21 65h11v-11h-11 v11zM32 54h11v-11h-11v11zM54 97h11v-11h-11v11zM54 22h11v-11h-11v11zM54 11h11v-11h-11v11zM43 65h11v-11h-11v11zM43 54h11v-11h-11v11zM43 140h11v-11h-11v11zM54 140h11v-11h-11v11zM54 129h11v-11h-11v11zM43 129h11v-11h-11v11zM11 129h11v-11h-11v11zM21 129h11v-11 h-11v11zM21 140h11v-11h-11v11zM11 140h11v-11h-11v11z"
         id="glyph27" />
      <glyph
         glyph-name="Edotaccent"
         unicode="Ė"
         horiz-adv-x="75"
         d="M0 107h11v-11h-11v11zM11 107h11v-11h-11v11zM11 97h11v-11h-11v11zM11 86h11v-11h-11v11zM11 75h11v-11h-11v11zM0 75h11v-11h-11v11zM0 86h11v-11h-11v11zM0 97h11v-11h-11v11zM0 65h11v-11h-11v11zM0 54h11v-11h-11v11zM0 43h11v-11h-11v11zM11 54h11v-11h-11v11z M11 65h11v-11h-11v11zM11 43h11v-11h-11v11zM11 32h11v-11h-11v11zM0 22h11v-11h-11v11zM0 32h11v-11h-11v11zM0 11h11v-11h-11v11zM11 11h11v-11h-11v11zM11 22h11v-11h-11v11zM21 11h11v-11h-11v11zM32 11h11v-11h-11v11zM43 11h11v-11h-11v11zM43 22h11v-11h-11v11z M32 22h11v-11h-11v11zM21 22h11v-11h-11v11zM21 107h11v-11h-11v11zM32 107h11v-11h-11v11zM43 107h11v-11h-11v11zM54 107h11v-11h-11v11zM43 97h11v-11h-11v11zM32 97h11v-11h-11v11zM21 97h11v-11h-11v11zM21 54h11v-11h-11v11zM32 65h11v-11h-11v11zM21 65h11v-11h-11 v11zM32 54h11v-11h-11v11zM54 97h11v-11h-11v11zM54 22h11v-11h-11v11zM54 11h11v-11h-11v11zM43 65h11v-11h-11v11zM43 54h11v-11h-11v11zM21 140h11v-11h-11v11zM32 140h11v-11h-11v11zM32 129h11v-11h-11v11zM21 129h11v-11h-11v11z"
         id="glyph28" />
      <glyph
         glyph-name="Egrave"
         unicode="È"
         horiz-adv-x="75"
         d="M0 107h11v-11h-11v11zM11 107h11v-11h-11v11zM11 97h11v-11h-11v11zM11 86h11v-11h-11v11zM11 75h11v-11h-11v11zM0 75h11v-11h-11v11zM0 86h11v-11h-11v11zM0 97h11v-11h-11v11zM0 65h11v-11h-11v11zM0 54h11v-11h-11v11zM0 43h11v-11h-11v11zM11 54h11v-11h-11v11z M11 65h11v-11h-11v11zM11 43h11v-11h-11v11zM11 32h11v-11h-11v11zM0 22h11v-11h-11v11zM0 32h11v-11h-11v11zM0 11h11v-11h-11v11zM11 11h11v-11h-11v11zM11 22h11v-11h-11v11zM21 11h11v-11h-11v11zM32 11h11v-11h-11v11zM43 11h11v-11h-11v11zM43 22h11v-11h-11v11z M32 22h11v-11h-11v11zM21 22h11v-11h-11v11zM21 107h11v-11h-11v11zM32 107h11v-11h-11v11zM43 107h11v-11h-11v11zM54 107h11v-11h-11v11zM43 97h11v-11h-11v11zM32 97h11v-11h-11v11zM21 97h11v-11h-11v11zM21 54h11v-11h-11v11zM32 65h11v-11h-11v11zM21 65h11v-11h-11 v11zM32 54h11v-11h-11v11zM54 97h11v-11h-11v11zM54 22h11v-11h-11v11zM54 11h11v-11h-11v11zM43 65h11v-11h-11v11zM43 54h11v-11h-11v11zM32 140h11v-11h-11v11zM32 129h11v-11h-11v11zM21 140h11v-11h-11v11zM43 129h11v-11h-11v11zM21 150h11v-11h-11v11z"
         id="glyph29" />
      <glyph
         glyph-name="Emacron"
         unicode="Ē"
         horiz-adv-x="75"
         d="M0 107h11v-11h-11v11zM11 107h11v-11h-11v11zM11 97h11v-11h-11v11zM11 86h11v-11h-11v11zM11 75h11v-11h-11v11zM0 75h11v-11h-11v11zM0 86h11v-11h-11v11zM0 97h11v-11h-11v11zM0 65h11v-11h-11v11zM0 54h11v-11h-11v11zM0 43h11v-11h-11v11zM11 54h11v-11h-11v11z M11 65h11v-11h-11v11zM11 43h11v-11h-11v11zM11 32h11v-11h-11v11zM0 22h11v-11h-11v11zM0 32h11v-11h-11v11zM0 11h11v-11h-11v11zM11 11h11v-11h-11v11zM11 22h11v-11h-11v11zM21 11h11v-11h-11v11zM32 11h11v-11h-11v11zM43 11h11v-11h-11v11zM43 22h11v-11h-11v11z M32 22h11v-11h-11v11zM21 22h11v-11h-11v11zM21 107h11v-11h-11v11zM32 107h11v-11h-11v11zM43 107h11v-11h-11v11zM54 107h11v-11h-11v11zM43 97h11v-11h-11v11zM32 97h11v-11h-11v11zM21 97h11v-11h-11v11zM21 54h11v-11h-11v11zM32 65h11v-11h-11v11zM21 65h11v-11h-11 v11zM32 54h11v-11h-11v11zM54 97h11v-11h-11v11zM54 22h11v-11h-11v11zM54 11h11v-11h-11v11zM43 65h11v-11h-11v11zM43 54h11v-11h-11v11zM21 140h11v-11h-11v11zM32 140h11v-11h-11v11zM32 129h11v-11h-11v11zM21 129h11v-11h-11v11zM11 140h11v-11h-11v11zM11 129h11v-11 h-11v11zM43 140h11v-11h-11v11zM43 129h11v-11h-11v11zM54 140h11v-11h-11v11zM54 129h11v-11h-11v11z"
         id="glyph30" />
      <glyph
         glyph-name="Eogonek"
         unicode="Ę"
         horiz-adv-x="75"
         d="M0 107h11v-11h-11v11zM11 107h10v-11h-10v11zM11 96h10v-10h-10v10zM11 86h10v-11h-10v11zM11 75h10v-11h-10v11zM0 75h11v-11h-11v11zM0 86h11v-11h-11v11zM0 96h11v-10h-11v10zM0 64h11v-10h-11v10zM0 54h11v-11h-11v11zM0 43h11v-11h-11v11zM11 54h10v-11h-10v11z M11 64h10v-10h-10v10zM11 43h10v-11h-10v11zM11 32h10v-11h-10v11zM0 21h11v-10h-11v10zM0 32h11v-11h-11v11zM0 11h11v-11h-11v11zM11 11h10v-11h-10v11zM11 21h10v-10h-10v10zM21 11h11v-11h-11v11zM32 11h11v-11h-11v11zM43 11h11v-11h-11v11zM43 21h11v-10h-11v10z M32 21h11v-10h-11v10zM21 21h11v-10h-11v10zM21 107h11v-11h-11v11zM32 107h11v-11h-11v11zM43 107h11v-11h-11v11zM54 107h10v-11h-10v11zM43 96h11v-10h-11v10zM32 96h11v-10h-11v10zM21 96h11v-10h-11v10zM21 54h11v-11h-11v11zM32 64h11v-10h-11v10zM21 64h11v-10h-11 v10zM32 54h11v-11h-11v11zM54 96h10v-10h-10v10zM54 21h10v-10h-10v10zM54 11h10v-11h-10v11zM43 64h11v-10h-11v10zM43 54h11v-11h-11v11zM64 0v-11h-10v11h10zM54 -11v-10h-11v10h11zM54 -21v-11h-11v11h11zM64 -21v-11h-10v11h10zM43 -32h11v-11h-11v11zM54 -32h10v-11 h-10v11z"
         id="glyph31" />
      <glyph
         glyph-name="F"
         unicode="F"
         horiz-adv-x="75"
         d="M0 107h11v-11h-11v11zM11 107h11v-11h-11v11zM11 97h11v-11h-11v11zM11 86h11v-11h-11v11zM11 75h11v-11h-11v11zM0 75h11v-11h-11v11zM0 86h11v-11h-11v11zM0 97h11v-11h-11v11zM0 65h11v-11h-11v11zM0 54h11v-11h-11v11zM0 43h11v-11h-11v11zM11 54h11v-11h-11v11z M11 65h11v-11h-11v11zM11 43h11v-11h-11v11zM11 32h11v-11h-11v11zM0 22h11v-11h-11v11zM0 32h11v-11h-11v11zM0 11h11v-11h-11v11zM11 11h11v-11h-11v11zM11 22h11v-11h-11v11zM21 107h11v-11h-11v11zM32 107h11v-11h-11v11zM43 107h11v-11h-11v11zM54 107h11v-11h-11v11z M43 97h11v-11h-11v11zM32 97h11v-11h-11v11zM21 97h11v-11h-11v11zM21 54h11v-11h-11v11zM32 65h11v-11h-11v11zM21 65h11v-11h-11v11zM32 54h11v-11h-11v11zM54 97h11v-11h-11v11zM43 65h11v-11h-11v11zM43 54h11v-11h-11v11z"
         id="glyph32" />
      <glyph
         glyph-name="G"
         unicode="G"
         d="M21 107h11v-11h-11v11zM11 107h11v-11h-11v11zM11 97h11v-11h-11v11zM21 97h11v-11h-11v11zM32 97h11v-11h-11v11zM32 107h11v-11h-11v11zM43 107h11v-11h-11v11zM54 107h11v-11h-11v11zM54 97h11v-11h-11v11zM43 97h11v-11h-11v11zM54 86h11v-11h-11v11zM64 97h11v-11 h-11v11zM64 86h11v-11h-11v11zM64 32h11v-11h-11v11zM64 22h11v-11h-11v11zM54 22h11v-11h-11v11zM54 32h11v-11h-11v11zM43 22h11v-11h-11v11zM54 11h11v-11h-11v11zM43 11h11v-11h-11v11zM32 11h11v-11h-11v11zM32 22h11v-11h-11v11zM21 11h11v-11h-11v11zM11 11h11v-11 h-11v11zM11 22h11v-11h-11v11zM21 22h11v-11h-11v11zM21 32h11v-11h-11v11zM11 32h11v-11h-11v11zM0 22h11v-11h-11v11zM0 32h11v-11h-11v11zM0 43h11v-11h-11v11zM0 54h11v-11h-11v11zM0 65h11v-11h-11v11zM0 75h11v-11h-11v11zM0 86h11v-11h-11v11zM11 86h11v-11h-11v11z M0 97h11v-11h-11v11zM21 86h11v-11h-11v11zM11 75h11v-11h-11v11zM11 65h11v-11h-11v11zM11 54h11v-11h-11v11zM11 43h11v-11h-11v11zM64 43h11v-11h-11v11zM54 43h11v-11h-11v11zM54 54h11v-11h-11v11zM64 54h11v-11h-11v11zM64 65h11v-11h-11v11zM54 65h11v-11h-11v11z M43 65h11v-11h-11v11zM32 65h11v-11h-11v11zM32 54h11v-11h-11v11zM43 54h11v-11h-11v11z"
         id="glyph33" />
      <glyph
         glyph-name="Gbreve"
         unicode="Ğ"
         d="M21 107h11v-11h-11v11zM11 107h10v-11h-10v11zM11 96h10v-10h-10v10zM21 96h11v-10h-11v10zM32 96h11v-10h-11v10zM32 107h11v-11h-11v11zM43 107h11v-11h-11v11zM54 107h10v-11h-10v11zM54 96h10v-10h-10v10zM43 96h11v-10h-11v10zM54 86h10v-11h-10v11zM64 96h11v-10 h-11v10zM64 86h11v-11h-11v11zM64 32h11v-11h-11v11zM64 21h11v-10h-11v10zM54 21h10v-10h-10v10zM54 32h10v-11h-10v11zM43 21h11v-10h-11v10zM54 11h10v-11h-10v11zM43 11h11v-11h-11v11zM32 11h11v-11h-11v11zM32 21h11v-10h-11v10zM21 11h11v-11h-11v11zM11 11h10v-11 h-10v11zM11 21h10v-10h-10v10zM21 21h11v-10h-11v10zM21 32h11v-11h-11v11zM11 32h10v-11h-10v11zM0 21h11v-10h-11v10zM0 32h11v-11h-11v11zM0 43h11v-11h-11v11zM0 54h11v-11h-11v11zM0 64h11v-10h-11v10zM0 75h11v-11h-11v11zM0 86h11v-11h-11v11zM11 86h10v-11h-10v11z M0 96h11v-10h-11v10zM21 86h11v-11h-11v11zM11 75h10v-11h-10v11zM11 64h10v-10h-10v10zM11 54h10v-11h-10v11zM11 43h10v-11h-10v11zM64 43h11v-11h-11v11zM54 43h10v-11h-10v11zM54 54h10v-11h-10v11zM64 54h11v-11h-11v11zM64 64h11v-10h-11v10zM54 64h10v-10h-10v10z M43 64h11v-10h-11v10zM32 64h11v-10h-11v10zM32 54h11v-11h-11v11zM43 54h11v-11h-11v11zM21 129v10h11v-10h-11zM11 139v11h10v-11h-10zM43 129v10h11v-10h-11zM11 129v10h10v-10h-10zM32 118v11h11v-11h-11zM21 118v11h11v-11h-11zM54 150h10v-11h-10v11zM54 139h10v-10 h-10v10zM43 129h11v-11h-11v11zM32 139h11v-10h-11v10z"
         id="glyph34" />
      <glyph
         glyph-name="uni0122"
         unicode="Ģ"
         d="M21 107h11v-11h-11v11zM11 107h11v-11h-11v11zM11 97h11v-11h-11v11zM21 97h11v-11h-11v11zM32 97h11v-11h-11v11zM32 107h11v-11h-11v11zM43 107h11v-11h-11v11zM54 107h11v-11h-11v11zM54 97h11v-11h-11v11zM43 97h11v-11h-11v11zM54 86h11v-11h-11v11zM64 97h11v-11 h-11v11zM64 86h11v-11h-11v11zM64 32h11v-11h-11v11zM64 22h11v-11h-11v11zM54 22h11v-11h-11v11zM54 32h11v-11h-11v11zM43 22h11v-11h-11v11zM54 11h11v-11h-11v11zM43 11h11v-11h-11v11zM32 11h11v-11h-11v11zM32 22h11v-11h-11v11zM21 11h11v-11h-11v11zM11 11h11v-11 h-11v11zM11 22h11v-11h-11v11zM21 22h11v-11h-11v11zM21 32h11v-11h-11v11zM11 32h11v-11h-11v11zM0 22h11v-11h-11v11zM0 32h11v-11h-11v11zM0 43h11v-11h-11v11zM0 54h11v-11h-11v11zM0 65h11v-11h-11v11zM0 75h11v-11h-11v11zM0 86h11v-11h-11v11zM11 86h11v-11h-11v11z M0 97h11v-11h-11v11zM21 86h11v-11h-11v11zM11 75h11v-11h-11v11zM11 65h11v-11h-11v11zM11 54h11v-11h-11v11zM11 43h11v-11h-11v11zM64 43h11v-11h-11v11zM54 43h11v-11h-11v11zM54 54h11v-11h-11v11zM64 54h11v-11h-11v11zM64 65h11v-11h-11v11zM54 65h11v-11h-11v11z M43 65h11v-11h-11v11zM32 65h11v-11h-11v11zM32 54h11v-11h-11v11zM43 54h11v-11h-11v11zM32 -10h11v-11h-11v11zM43 -10h11v-11h-11v11zM43 -21h11v-11h-11v11zM32 -21h11v-11h-11v11zM43 -32h11v-11h-11v11zM32 -43h11v-11h-11v11z"
         id="glyph35" />
      <glyph
         glyph-name="Gdotaccent"
         unicode="Ġ"
         d="M21 107h11v-11h-11v11zM11 107h11v-11h-11v11zM11 97h11v-11h-11v11zM21 97h11v-11h-11v11zM32 97h11v-11h-11v11zM32 107h11v-11h-11v11zM43 107h11v-11h-11v11zM54 107h11v-11h-11v11zM54 97h11v-11h-11v11zM43 97h11v-11h-11v11zM54 86h11v-11h-11v11zM64 97h11v-11 h-11v11zM64 86h11v-11h-11v11zM64 32h11v-11h-11v11zM64 22h11v-11h-11v11zM54 22h11v-11h-11v11zM54 32h11v-11h-11v11zM43 22h11v-11h-11v11zM54 11h11v-11h-11v11zM43 11h11v-11h-11v11zM32 11h11v-11h-11v11zM32 22h11v-11h-11v11zM21 11h11v-11h-11v11zM11 11h11v-11 h-11v11zM11 22h11v-11h-11v11zM21 22h11v-11h-11v11zM21 32h11v-11h-11v11zM11 32h11v-11h-11v11zM0 22h11v-11h-11v11zM0 32h11v-11h-11v11zM0 43h11v-11h-11v11zM0 54h11v-11h-11v11zM0 65h11v-11h-11v11zM0 75h11v-11h-11v11zM0 86h11v-11h-11v11zM11 86h11v-11h-11v11z M0 97h11v-11h-11v11zM21 86h11v-11h-11v11zM11 75h11v-11h-11v11zM11 65h11v-11h-11v11zM11 54h11v-11h-11v11zM11 43h11v-11h-11v11zM64 43h11v-11h-11v11zM54 43h11v-11h-11v11zM54 54h11v-11h-11v11zM64 54h11v-11h-11v11zM64 65h11v-11h-11v11zM54 65h11v-11h-11v11z M43 65h11v-11h-11v11zM32 65h11v-11h-11v11zM32 54h11v-11h-11v11zM43 54h11v-11h-11v11zM21 140h11v-11h-11v11zM32 140h11v-11h-11v11zM32 129h11v-11h-11v11zM21 129h11v-11h-11v11z"
         id="glyph36" />
      <glyph
         glyph-name="H"
         unicode="H"
         d="M0 107h11v-11h-11v11zM11 107h11v-11h-11v11zM11 97h11v-11h-11v11zM11 86h11v-11h-11v11zM11 75h11v-11h-11v11zM0 86h11v-11h-11v11zM0 97h11v-11h-11v11zM0 75h11v-11h-11v11zM0 65h11v-11h-11v11zM0 43h11v-11h-11v11zM0 54h11v-11h-11v11zM11 65h11v-11h-11v11z M11 54h11v-11h-11v11zM11 43h11v-11h-11v11zM11 32h11v-11h-11v11zM0 32h11v-11h-11v11zM0 11h11v-11h-11v11zM11 11h11v-11h-11v11zM11 22h11v-11h-11v11zM0 22h11v-11h-11v11zM64 11h11v-11h-11v11zM64 22h11v-11h-11v11zM64 32h11v-11h-11v11zM64 43h11v-11h-11v11z M64 54h11v-11h-11v11zM64 65h11v-11h-11v11zM64 107h11v-11h-11v11zM54 107h11v-11h-11v11zM54 97h11v-11h-11v11zM54 86h11v-11h-11v11zM54 75h11v-11h-11v11zM64 75h11v-11h-11v11zM64 86h11v-11h-11v11zM64 97h11v-11h-11v11zM54 65h11v-11h-11v11zM54 22h11v-11h-11v11z M54 32h11v-11h-11v11zM54 43h11v-11h-11v11zM54 54h11v-11h-11v11zM54 11h11v-11h-11v11zM43 65h11v-11h-11v11zM32 65h11v-11h-11v11zM21 65h11v-11h-11v11zM21 54h11v-11h-11v11zM32 54h11v-11h-11v11zM43 54h11v-11h-11v11z"
         id="glyph37" />
      <glyph
         glyph-name="Hbar"
         unicode="Ħ"
         horiz-adv-x="107"
         d="M11 107h11v-11h-11v11zM21 107h11v-11h-11v11zM21 97h11v-11h-11v11zM21 86h11v-11h-11v11zM21 75h11v-11h-11v11zM11 86h11v-11h-11v11zM11 97h11v-11h-11v11zM11 75h11v-11h-11v11zM11 65h11v-11h-11v11zM11 43h11v-11h-11v11zM11 54h11v-11h-11v11zM21 65h11v-11h-11 v11zM21 54h11v-11h-11v11zM21 43h11v-11h-11v11zM21 32h11v-11h-11v11zM11 32h11v-11h-11v11zM11 11h11v-11h-11v11zM21 11h11v-11h-11v11zM21 22h11v-11h-11v11zM11 22h11v-11h-11v11zM75 11h11v-11h-11v11zM75 22h11v-11h-11v11zM75 32h11v-11h-11v11zM75 43h11v-11h-11 v11zM75 54h11v-11h-11v11zM75 65h11v-11h-11v11zM75 107h11v-11h-11v11zM64 107h11v-11h-11v11zM64 97h11v-11h-11v11zM64 86h11v-11h-11v11zM64 75h11v-11h-11v11zM75 75h11v-11h-11v11zM75 86h11v-11h-11v11zM75 97h11v-11h-11v11zM64 65h11v-11h-11v11zM64 22h11v-11h-11 v11zM64 32h11v-11h-11v11zM64 43h11v-11h-11v11zM64 54h11v-11h-11v11zM64 11h11v-11h-11v11zM54 65h11v-11h-11v11zM43 65h11v-11h-11v11zM32 65h11v-11h-11v11zM32 54h11v-11h-11v11zM43 54h11v-11h-11v11zM54 54h11v-11h-11v11zM86 86h11v-11h-11v11zM86 97h11v-11h-11 v11zM54 97h11v-11h-11v11zM43 97h11v-11h-11v11zM32 97h11v-11h-11v11zM0 97h11v-11h-11v11zM0 86h11v-11h-11v11zM54 86h11v-11h-11v11zM43 86h11v-11h-11v11zM32 86h11v-11h-11v11z"
         id="glyph38" />
      <glyph
         glyph-name="I"
         unicode="I"
         horiz-adv-x="32"
         d="M0 11h11v-11h-11v11zM11 11h11v-11h-11v11zM11 22h11v-11h-11v11zM11 32h11v-11h-11v11zM11 43h11v-11h-11v11zM11 54h11v-11h-11v11zM11 65h11v-11h-11v11zM0 65h11v-11h-11v11zM0 54h11v-11h-11v11zM0 43h11v-11h-11v11zM0 32h11v-11h-11v11zM0 22h11v-11h-11v11zM0 75 h11v-11h-11v11zM11 75h11v-11h-11v11zM11 86h11v-11h-11v11zM11 97h11v-11h-11v11zM11 107h11v-11h-11v11zM0 107h11v-11h-11v11zM0 97h11v-11h-11v11zM0 86h11v-11h-11v11z"
         id="glyph39" />
      <glyph
         glyph-name="IJ"
         unicode="Ĳ"
         horiz-adv-x="107"
         d="M0 11h11v-11h-11v11zM11 11h11v-11h-11v11zM11 22h11v-11h-11v11zM11 32h11v-11h-11v11zM11 43h11v-11h-11v11zM11 54h11v-11h-11v11zM11 65h11v-11h-11v11zM0 65h11v-11h-11v11zM0 54h11v-11h-11v11zM0 43h11v-11h-11v11zM0 32h11v-11h-11v11zM0 22h11v-11h-11v11zM0 75 h11v-11h-11v11zM11 75h11v-11h-11v11zM11 86h11v-11h-11v11zM11 97h11v-11h-11v11zM11 107h11v-11h-11v11zM0 107h11v-11h-11v11zM0 97h11v-11h-11v11zM0 86h11v-11h-11v11zM86 107h11v-11h-11v11zM75 107h11v-11h-11v11zM75 97h11v-11h-11v11zM75 86h11v-11h-11v11zM75 75 h11v-11h-11v11zM75 65h11v-11h-11v11zM86 65h11v-11h-11v11zM86 75h11v-11h-11v11zM86 86h11v-11h-11v11zM86 97h11v-11h-11v11zM86 54h11v-11h-11v11zM86 43h11v-11h-11v11zM86 32h11v-11h-11v11zM86 22h11v-11h-11v11zM75 22h11v-11h-11v11zM75 11h11v-11h-11v11zM64 11 h11v-11h-11v11zM64 22h11v-11h-11v11zM75 32h11v-11h-11v11zM75 43h11v-11h-11v11zM75 54h11v-11h-11v11zM54 11h11v-11h-11v11zM43 11h11v-11h-11v11zM32 22h11v-11h-11v11zM32 32h11v-11h-11v11zM43 32h11v-11h-11v11zM43 22h11v-11h-11v11zM54 22h11v-11h-11v11zM64 32 h11v-11h-11v11z"
         id="glyph40" />
      <glyph
         glyph-name="Iacute"
         unicode="Í"
         horiz-adv-x="32"
         d="M0 11h11v-11h-11v11zM11 11h10v-11h-10v11zM11 21h10v-10h-10v10zM11 32h10v-11h-10v11zM11 43h10v-11h-10v11zM11 54h10v-11h-10v11zM11 64h10v-10h-10v10zM0 64h11v-10h-11v10zM0 54h11v-11h-11v11zM0 43h11v-11h-11v11zM0 32h11v-11h-11v11zM0 21h11v-10h-11v10zM0 75 h11v-11h-11v11zM11 75h10v-11h-10v11zM11 86h10v-11h-10v11zM11 96h10v-10h-10v10zM11 107h10v-11h-10v11zM0 107h11v-11h-11v11zM0 96h11v-10h-11v10zM0 86h11v-11h-11v11zM21 139v-10h-10v10h10zM21 129v-11h-10v11h10zM32 139v-10h-11v10h11zM32 150v-11h-11v11h11z"
         id="glyph41" />
      <glyph
         glyph-name="Icircumflex"
         unicode="Î"
         horiz-adv-x="42"
         d="M0 139h11v11h21v-11h11v-21h-11v11h-21v-11h-11v21zM11 107h21v-107h-21v107z"
         id="glyph42" />
      <glyph
         glyph-name="Idieresis"
         unicode="Ï"
         horiz-adv-x="42"
         d="M32 139h22v-21h-22v21zM-11 139h22v-21h-22v21zM11 107h21v-107h-21v107z"
         id="glyph43" />
      <glyph
         glyph-name="Idotaccent"
         unicode="İ"
         horiz-adv-x="32"
         d="M0 11h11v-11h-11v11zM11 11h11v-11h-11v11zM11 22h11v-11h-11v11zM11 32h11v-11h-11v11zM11 43h11v-11h-11v11zM11 54h11v-11h-11v11zM11 65h11v-11h-11v11zM0 65h11v-11h-11v11zM0 54h11v-11h-11v11zM0 43h11v-11h-11v11zM0 32h11v-11h-11v11zM0 22h11v-11h-11v11zM0 75 h11v-11h-11v11zM11 75h11v-11h-11v11zM11 86h11v-11h-11v11zM11 97h11v-11h-11v11zM11 107h11v-11h-11v11zM0 107h11v-11h-11v11zM0 97h11v-11h-11v11zM0 86h11v-11h-11v11zM0 140h11v-11h-11v11zM11 140h11v-11h-11v11zM11 129h11v-11h-11v11zM0 129h11v-11h-11v11z"
         id="glyph44" />
      <glyph
         glyph-name="Igrave"
         unicode="Ì"
         horiz-adv-x="32"
         d="M0 11h11v-11h-11v11zM11 11h11v-11h-11v11zM11 22h11v-11h-11v11zM11 32h11v-11h-11v11zM11 43h11v-11h-11v11zM11 54h11v-11h-11v11zM11 65h11v-11h-11v11zM0 65h11v-11h-11v11zM0 54h11v-11h-11v11zM0 43h11v-11h-11v11zM0 32h11v-11h-11v11zM0 22h11v-11h-11v11zM0 75 h11v-11h-11v11zM11 75h11v-11h-11v11zM11 86h11v-11h-11v11zM11 97h11v-11h-11v11zM11 107h11v-11h-11v11zM0 107h11v-11h-11v11zM0 97h11v-11h-11v11zM0 86h11v-11h-11v11zM11 140h11v-11h-11v11zM11 129h11v-11h-11v11zM0 140h11v-11h-11v11zM21 129h11v-11h-11v11zM0 150 h11v-11h-11v11z"
         id="glyph45" />
      <glyph
         glyph-name="Imacron"
         unicode="Ī"
         horiz-adv-x="42"
         d="M0 139h43v-21h-43v21zM11 107h21v-107h-21v107z"
         id="glyph46" />
      <glyph
         glyph-name="Iogonek"
         unicode="Į"
         horiz-adv-x="32"
         d="M0 11h11v-11h-11v11zM11 11h10v-11h-10v11zM11 21h10v-10h-10v10zM11 32h10v-11h-10v11zM11 43h10v-11h-10v11zM11 54h10v-11h-10v11zM11 64h10v-10h-10v10zM0 64h11v-10h-11v10zM0 54h11v-11h-11v11zM0 43h11v-11h-11v11zM0 32h11v-11h-11v11zM0 21h11v-10h-11v10zM0 75 h11v-11h-11v11zM11 75h10v-11h-10v11zM11 86h10v-11h-10v11zM11 96h10v-10h-10v10zM11 107h10v-11h-10v11zM0 107h11v-11h-11v11zM0 96h11v-10h-11v10zM0 86h11v-11h-11v11zM21 0v-11h-10v11h10zM11 -11v-10h-11v10h11zM11 -21v-11h-11v11h11zM21 -21v-11h-10v11h10zM0 -32 h11v-11h-11v11zM11 -32h10v-11h-10v11z"
         id="glyph47" />
      <glyph
         glyph-name="J"
         unicode="J"
         horiz-adv-x="75"
         d="M54 107h11v-11h-11v11zM43 107h11v-11h-11v11zM43 97h11v-11h-11v11zM43 86h11v-11h-11v11zM43 75h11v-11h-11v11zM43 65h11v-11h-11v11zM54 65h11v-11h-11v11zM54 75h11v-11h-11v11zM54 86h11v-11h-11v11zM54 97h11v-11h-11v11zM54 54h11v-11h-11v11zM54 43h11v-11h-11 v11zM54 32h11v-11h-11v11zM54 22h11v-11h-11v11zM43 22h11v-11h-11v11zM43 11h11v-11h-11v11zM32 11h11v-11h-11v11zM32 22h11v-11h-11v11zM43 32h11v-11h-11v11zM43 43h11v-11h-11v11zM43 54h11v-11h-11v11zM21 11h11v-11h-11v11zM11 11h11v-11h-11v11zM0 22h11v-11h-11v11 zM0 32h11v-11h-11v11zM11 32h11v-11h-11v11zM11 22h11v-11h-11v11zM21 22h11v-11h-11v11zM32 32h11v-11h-11v11z"
         id="glyph48" />
      <glyph
         glyph-name="uni004A0301"
         horiz-adv-x="75"
         d="M54 107h10v-11h-10v11zM43 107h11v-11h-11v11zM43 96h11v-10h-11v10zM43 86h11v-11h-11v11zM43 75h11v-11h-11v11zM43 64h11v-10h-11v10zM54 64h10v-10h-10v10zM54 75h10v-11h-10v11zM54 86h10v-11h-10v11zM54 96h10v-10h-10v10zM54 54h10v-11h-10v11zM54 43h10v-11h-10 v11zM54 32h10v-11h-10v11zM54 21h10v-10h-10v10zM43 21h11v-10h-11v10zM43 11h11v-11h-11v11zM32 11h11v-11h-11v11zM32 21h11v-10h-11v10zM43 32h11v-11h-11v11zM43 43h11v-11h-11v11zM43 54h11v-11h-11v11zM21 11h11v-11h-11v11zM11 11h10v-11h-10v11zM0 21h11v-10h-11v10 zM0 32h11v-11h-11v11zM11 32h10v-11h-10v11zM11 21h10v-10h-10v10zM21 21h11v-10h-11v10zM32 32h11v-11h-11v11zM54 139v-10h-11v10h11zM54 129v-11h-11v11h11zM64 139v-10h-10v10h10zM64 150v-11h-10v11h10z"
         id="glyph49" />
      <glyph
         glyph-name="K"
         unicode="K"
         horiz-adv-x="75"
         d="M11 107h11v-11h-11v11zM0 107h11v-11h-11v11zM0 97h11v-11h-11v11zM0 86h11v-11h-11v11zM0 75h11v-11h-11v11zM0 65h11v-11h-11v11zM0 54h11v-11h-11v11zM0 43h11v-11h-11v11zM0 32h11v-11h-11v11zM0 22h11v-11h-11v11zM0 11h11v-11h-11v11zM11 11h11v-11h-11v11zM11 22 h11v-11h-11v11zM11 32h11v-11h-11v11zM11 43h11v-11h-11v11zM11 54h11v-11h-11v11zM11 65h11v-11h-11v11zM11 75h11v-11h-11v11zM11 86h11v-11h-11v11zM11 97h11v-11h-11v11zM21 54h11v-11h-11v11zM32 54h11v-11h-11v11zM32 65h11v-11h-11v11zM21 65h11v-11h-11v11zM32 75 h11v-11h-11v11zM43 75h11v-11h-11v11zM43 86h11v-11h-11v11zM43 97h11v-11h-11v11zM43 107h11v-11h-11v11zM54 107h11v-11h-11v11zM54 97h11v-11h-11v11zM54 86h11v-11h-11v11zM32 43h11v-11h-11v11zM43 43h11v-11h-11v11zM43 32h11v-11h-11v11zM43 22h11v-11h-11v11zM43 11 h11v-11h-11v11zM54 11h11v-11h-11v11zM54 22h11v-11h-11v11zM54 32h11v-11h-11v11zM54 43h11v-11h-11v11zM43 54h11v-11h-11v11z"
         id="glyph50" />
      <glyph
         glyph-name="uni0136"
         unicode="Ķ"
         horiz-adv-x="75"
         d="M11 107h11v-11h-11v11zM0 107h11v-11h-11v11zM0 97h11v-11h-11v11zM0 86h11v-11h-11v11zM0 75h11v-11h-11v11zM0 65h11v-11h-11v11zM0 54h11v-11h-11v11zM0 43h11v-11h-11v11zM0 32h11v-11h-11v11zM0 22h11v-11h-11v11zM0 11h11v-11h-11v11zM11 11h11v-11h-11v11zM11 22 h11v-11h-11v11zM11 32h11v-11h-11v11zM11 43h11v-11h-11v11zM11 54h11v-11h-11v11zM11 65h11v-11h-11v11zM11 75h11v-11h-11v11zM11 86h11v-11h-11v11zM11 97h11v-11h-11v11zM21 54h11v-11h-11v11zM32 54h11v-11h-11v11zM32 65h11v-11h-11v11zM21 65h11v-11h-11v11zM32 75 h11v-11h-11v11zM43 75h11v-11h-11v11zM43 86h11v-11h-11v11zM43 97h11v-11h-11v11zM43 107h11v-11h-11v11zM54 107h11v-11h-11v11zM54 97h11v-11h-11v11zM54 86h11v-11h-11v11zM32 43h11v-11h-11v11zM43 43h11v-11h-11v11zM43 32h11v-11h-11v11zM43 22h11v-11h-11v11zM43 11 h11v-11h-11v11zM54 11h11v-11h-11v11zM54 22h11v-11h-11v11zM54 32h11v-11h-11v11zM54 43h11v-11h-11v11zM43 54h11v-11h-11v11zM21 -10h11v-11h-11v11zM32 -10h11v-11h-11v11zM32 -21h11v-11h-11v11zM21 -21h11v-11h-11v11zM32 -32h11v-11h-11v11zM21 -43h11v-11h-11v11z "
         id="glyph51" />
      <glyph
         glyph-name="L"
         unicode="L"
         horiz-adv-x="64"
         d="M0 107h11v-11h-11v11zM11 107h11v-11h-11v11zM11 97h11v-11h-11v11zM11 86h11v-11h-11v11zM11 75h11v-11h-11v11zM0 75h11v-11h-11v11zM0 86h11v-11h-11v11zM0 97h11v-11h-11v11zM0 65h11v-11h-11v11zM0 54h11v-11h-11v11zM0 43h11v-11h-11v11zM11 54h11v-11h-11v11z M11 65h11v-11h-11v11zM11 43h11v-11h-11v11zM11 32h11v-11h-11v11zM0 22h11v-11h-11v11zM0 32h11v-11h-11v11zM0 11h11v-11h-11v11zM11 11h11v-11h-11v11zM11 22h11v-11h-11v11zM21 11h11v-11h-11v11zM32 11h11v-11h-11v11zM43 11h11v-11h-11v11zM43 22h11v-11h-11v11z M32 22h11v-11h-11v11zM21 22h11v-11h-11v11z"
         id="glyph52" />
      <glyph
         glyph-name="Lacute"
         unicode="Ĺ"
         horiz-adv-x="64"
         d="M0 107h11v-11h-11v11zM11 107h10v-11h-10v11zM11 96h10v-10h-10v10zM11 86h10v-11h-10v11zM11 75h10v-11h-10v11zM0 75h11v-11h-11v11zM0 86h11v-11h-11v11zM0 96h11v-10h-11v10zM0 64h11v-10h-11v10zM0 54h11v-11h-11v11zM0 43h11v-11h-11v11zM11 54h10v-11h-10v11z M11 64h10v-10h-10v10zM11 43h10v-11h-10v11zM11 32h10v-11h-10v11zM0 21h11v-10h-11v10zM0 32h11v-11h-11v11zM0 11h11v-11h-11v11zM11 11h10v-11h-10v11zM11 21h10v-10h-10v10zM21 11h11v-11h-11v11zM32 11h11v-11h-11v11zM43 11h11v-11h-11v11zM43 21h11v-10h-11v10z M32 21h11v-10h-11v10zM21 21h11v-10h-11v10zM21 139v-10h-10v10h10zM21 129v-11h-10v11h10zM32 139v-10h-11v10h11zM32 150v-11h-11v11h11z"
         id="glyph53" />
      <glyph
         glyph-name="Lcaron"
         unicode="Ľ"
         horiz-adv-x="75"
         d="M0 107h11v-11h-11v11zM11 107h11v-11h-11v11zM11 97h11v-11h-11v11zM11 86h11v-11h-11v11zM11 75h11v-11h-11v11zM0 75h11v-11h-11v11zM0 86h11v-11h-11v11zM0 97h11v-11h-11v11zM0 65h11v-11h-11v11zM0 54h11v-11h-11v11zM0 43h11v-11h-11v11zM11 54h11v-11h-11v11z M11 65h11v-11h-11v11zM11 43h11v-11h-11v11zM11 32h11v-11h-11v11zM0 22h11v-11h-11v11zM0 32h11v-11h-11v11zM0 11h11v-11h-11v11zM11 11h11v-11h-11v11zM11 22h11v-11h-11v11zM21 11h11v-11h-11v11zM32 11h11v-11h-11v11zM43 11h11v-11h-11v11zM43 22h11v-11h-11v11z M32 22h11v-11h-11v11zM21 22h11v-11h-11v11zM43 107h11v-11h-11v11zM54 107h11v-11h-11v11zM54 97h11v-11h-11v11zM43 118h11v-11h-11v11zM54 118h11v-11h-11v11z"
         id="glyph54" />
      <glyph
         glyph-name="uni013B"
         unicode="Ļ"
         horiz-adv-x="64"
         d="M0 107h11v-11h-11v11zM11 107h11v-11h-11v11zM11 97h11v-11h-11v11zM11 86h11v-11h-11v11zM11 75h11v-11h-11v11zM0 75h11v-11h-11v11zM0 86h11v-11h-11v11zM0 97h11v-11h-11v11zM0 65h11v-11h-11v11zM0 54h11v-11h-11v11zM0 43h11v-11h-11v11zM11 54h11v-11h-11v11z M11 65h11v-11h-11v11zM11 43h11v-11h-11v11zM11 32h11v-11h-11v11zM0 22h11v-11h-11v11zM0 32h11v-11h-11v11zM0 11h11v-11h-11v11zM11 11h11v-11h-11v11zM11 22h11v-11h-11v11zM21 11h11v-11h-11v11zM32 11h11v-11h-11v11zM43 11h11v-11h-11v11zM43 22h11v-11h-11v11z M32 22h11v-11h-11v11zM21 22h11v-11h-11v11zM21 -10h11v-11h-11v11zM32 -10h11v-11h-11v11zM32 -21h11v-11h-11v11zM21 -21h11v-11h-11v11zM32 -32h11v-11h-11v11zM21 -43h11v-11h-11v11z"
         id="glyph55" />
      <glyph
         glyph-name="Lslash"
         unicode="Ł"
         horiz-adv-x="75"
         d="M11 107h11v-11h-11v11zM21 107h11v-11h-11v11zM21 97h11v-11h-11v11zM21 86h11v-11h-11v11zM21 75h11v-11h-11v11zM11 75h11v-11h-11v11zM11 86h11v-11h-11v11zM11 97h11v-11h-11v11zM11 65h11v-11h-11v11zM11 54h11v-11h-11v11zM11 43h11v-11h-11v11zM21 54h11v-11h-11 v11zM21 65h11v-11h-11v11zM21 43h11v-11h-11v11zM21 32h11v-11h-11v11zM11 22h11v-11h-11v11zM11 32h11v-11h-11v11zM11 11h11v-11h-11v11zM21 11h11v-11h-11v11zM21 22h11v-11h-11v11zM32 11h11v-11h-11v11zM43 11h11v-11h-11v11zM54 11h11v-11h-11v11zM54 22h11v-11h-11 v11zM43 22h11v-11h-11v11zM32 22h11v-11h-11v11zM43 75h11v-11h-11v11zM32 65h11v-11h-11v11zM0 32h11v-11h-11v11zM0 43h11v-11h-11v11zM32 75h11v-11h-11v11zM43 86h11v-11h-11v11z"
         id="glyph56" />
      <glyph
         glyph-name="M"
         unicode="M"
         horiz-adv-x="107"
         d="M0 11h11v-11h-11v11zM0 22h11v-11h-11v11zM0 32h11v-11h-11v11zM0 43h11v-11h-11v11zM0 54h11v-11h-11v11zM0 65h11v-11h-11v11zM11 65h11v-11h-11v11zM11 75h11v-11h-11v11zM11 86h11v-11h-11v11zM11 97h11v-11h-11v11zM0 97h11v-11h-11v11zM0 107h11v-11h-11v11zM0 86 h11v-11h-11v11zM0 75h11v-11h-11v11zM11 107h11v-11h-11v11zM11 54h11v-11h-11v11zM11 43h11v-11h-11v11zM11 32h11v-11h-11v11zM11 22h11v-11h-11v11zM11 11h11v-11h-11v11zM21 86h11v-11h-11v11zM21 75h11v-11h-11v11zM32 75h11v-11h-11v11zM32 65h11v-11h-11v11zM43 65 h11v-11h-11v11zM43 54h11v-11h-11v11zM54 65h11v-11h-11v11zM54 75h11v-11h-11v11zM64 75h11v-11h-11v11zM64 86h11v-11h-11v11zM75 107h11v-11h-11v11zM75 97h11v-11h-11v11zM75 86h11v-11h-11v11zM75 75h11v-11h-11v11zM75 65h11v-11h-11v11zM75 54h11v-11h-11v11zM75 43 h11v-11h-11v11zM75 32h11v-11h-11v11zM75 22h11v-11h-11v11zM75 11h11v-11h-11v11zM86 11h11v-11h-11v11zM86 22h11v-11h-11v11zM86 32h11v-11h-11v11zM86 43h11v-11h-11v11zM86 54h11v-11h-11v11zM86 65h11v-11h-11v11zM86 75h11v-11h-11v11zM86 86h11v-11h-11v11zM86 97 h11v-11h-11v11zM86 107h11v-11h-11v11zM21 97h11v-11h-11v11zM32 86h11v-11h-11v11zM43 75h11v-11h-11v11zM54 86h11v-11h-11v11zM64 97h11v-11h-11v11z"
         id="glyph57" />
      <glyph
         glyph-name="N"
         unicode="N"
         horiz-adv-x="96"
         d="M32 54h11v-11h-11v11zM32 65h11v-11h-11v11zM43 65h11v-11h-11v11zM43 54h11v-11h-11v11zM43 43h11v-11h-11v11zM32 43h11v-11h-11v11zM32 86h11v-11h-11v11zM32 75h11v-11h-11v11zM21 65h11v-11h-11v11zM21 75h11v-11h-11v11zM21 86h11v-11h-11v11zM0 107h11v-11h-11v11 zM11 107h11v-11h-11v11zM21 107h11v-11h-11v11zM21 97h11v-11h-11v11zM11 97h11v-11h-11v11zM0 97h11v-11h-11v11zM0 86h11v-11h-11v11zM11 86h11v-11h-11v11zM11 75h11v-11h-11v11zM11 65h11v-11h-11v11zM0 65h11v-11h-11v11zM0 75h11v-11h-11v11zM0 54h11v-11h-11v11z M11 54h11v-11h-11v11zM11 43h11v-11h-11v11zM11 32h11v-11h-11v11zM11 22h11v-11h-11v11zM11 11h11v-11h-11v11zM0 11h11v-11h-11v11zM0 22h11v-11h-11v11zM0 32h11v-11h-11v11zM0 43h11v-11h-11v11zM43 32h11v-11h-11v11zM43 22h11v-11h-11v11zM54 32h11v-11h-11v11zM54 43 h11v-11h-11v11zM54 22h11v-11h-11v11zM54 11h11v-11h-11v11zM64 11h11v-11h-11v11zM75 11h11v-11h-11v11zM75 22h11v-11h-11v11zM75 32h11v-11h-11v11zM64 32h11v-11h-11v11zM64 22h11v-11h-11v11zM64 43h11v-11h-11v11zM75 54h11v-11h-11v11zM75 65h11v-11h-11v11zM75 43 h11v-11h-11v11zM64 54h11v-11h-11v11zM64 65h11v-11h-11v11zM64 75h11v-11h-11v11zM75 75h11v-11h-11v11zM75 86h11v-11h-11v11zM64 107h11v-11h-11v11zM75 107h11v-11h-11v11zM75 97h11v-11h-11v11zM64 97h11v-11h-11v11zM64 86h11v-11h-11v11z"
         id="glyph58" />
      <glyph
         glyph-name="Nacute"
         unicode="Ń"
         horiz-adv-x="96"
         d="M32 54h11v-11h-11v11zM32 64h11v-10h-11v10zM43 64h11v-10h-11v10zM43 54h11v-11h-11v11zM43 43h11v-11h-11v11zM32 43h11v-11h-11v11zM32 86h11v-11h-11v11zM32 75h11v-11h-11v11zM21 64h11v-10h-11v10zM21 75h11v-11h-11v11zM21 86h11v-11h-11v11zM0 107h11v-11h-11v11 zM11 107h10v-11h-10v11zM21 107h11v-11h-11v11zM21 96h11v-10h-11v10zM11 96h10v-10h-10v10zM0 96h11v-10h-11v10zM0 86h11v-11h-11v11zM11 86h10v-11h-10v11zM11 75h10v-11h-10v11zM11 64h10v-10h-10v10zM0 64h11v-10h-11v10zM0 75h11v-11h-11v11zM0 54h11v-11h-11v11z M11 54h10v-11h-10v11zM11 43h10v-11h-10v11zM11 32h10v-11h-10v11zM11 21h10v-10h-10v10zM11 11h10v-11h-10v11zM0 11h11v-11h-11v11zM0 21h11v-10h-11v10zM0 32h11v-11h-11v11zM0 43h11v-11h-11v11zM43 32h11v-11h-11v11zM43 21h11v-10h-11v10zM54 32h10v-11h-10v11zM54 43 h10v-11h-10v11zM54 21h10v-10h-10v10zM54 11h10v-11h-10v11zM64 11h11v-11h-11v11zM75 11h11v-11h-11v11zM75 21h11v-10h-11v10zM75 32h11v-11h-11v11zM64 32h11v-11h-11v11zM64 21h11v-10h-11v10zM64 43h11v-11h-11v11zM75 54h11v-11h-11v11zM75 64h11v-10h-11v10zM75 43 h11v-11h-11v11zM64 54h11v-11h-11v11zM64 64h11v-10h-11v10zM64 75h11v-11h-11v11zM75 75h11v-11h-11v11zM75 86h11v-11h-11v11zM64 107h11v-11h-11v11zM75 107h11v-11h-11v11zM75 96h11v-10h-11v10zM64 96h11v-10h-11v10zM64 86h11v-11h-11v11zM54 139v-10h-11v10h11z M54 129v-11h-11v11h11zM64 139v-10h-10v10h10zM64 150v-11h-10v11h10z"
         id="glyph59" />
      <glyph
         glyph-name="Ncaron"
         unicode="Ň"
         horiz-adv-x="96"
         d="M32 54h11v-11h-11v11zM32 64h11v-10h-11v10zM43 64h11v-10h-11v10zM43 54h11v-11h-11v11zM43 43h11v-11h-11v11zM32 43h11v-11h-11v11zM32 86h11v-11h-11v11zM32 75h11v-11h-11v11zM21 64h11v-10h-11v10zM21 75h11v-11h-11v11zM21 86h11v-11h-11v11zM0 107h11v-11h-11v11 zM11 107h10v-11h-10v11zM21 107h11v-11h-11v11zM21 96h11v-10h-11v10zM11 96h10v-10h-10v10zM0 96h11v-10h-11v10zM0 86h11v-11h-11v11zM11 86h10v-11h-10v11zM11 75h10v-11h-10v11zM11 64h10v-10h-10v10zM0 64h11v-10h-11v10zM0 75h11v-11h-11v11zM0 54h11v-11h-11v11z M11 54h10v-11h-10v11zM11 43h10v-11h-10v11zM11 32h10v-11h-10v11zM11 21h10v-10h-10v10zM11 11h10v-11h-10v11zM0 11h11v-11h-11v11zM0 21h11v-10h-11v10zM0 32h11v-11h-11v11zM0 43h11v-11h-11v11zM43 32h11v-11h-11v11zM43 21h11v-10h-11v10zM54 32h10v-11h-10v11zM54 43 h10v-11h-10v11zM54 21h10v-10h-10v10zM54 11h10v-11h-10v11zM64 11h11v-11h-11v11zM75 11h11v-11h-11v11zM75 21h11v-10h-11v10zM75 32h11v-11h-11v11zM64 32h11v-11h-11v11zM64 21h11v-10h-11v10zM64 43h11v-11h-11v11zM75 54h11v-11h-11v11zM75 64h11v-10h-11v10zM75 43 h11v-11h-11v11zM64 54h11v-11h-11v11zM64 64h11v-10h-11v10zM64 75h11v-11h-11v11zM75 75h11v-11h-11v11zM75 86h11v-11h-11v11zM64 107h11v-11h-11v11zM75 107h11v-11h-11v11zM75 96h11v-10h-11v10zM64 96h11v-10h-11v10zM64 86h11v-11h-11v11zM32 139v11h11v-11h-11z M54 139v11h10v-11h-10zM21 139v11h11v-11h-11zM43 129v10h11v-10h-11zM32 129v10h11v-10h-11zM64 150h11v-11h-11v11zM54 139h10v-10h-10v10zM43 129h11v-11h-11v11z"
         id="glyph60" />
      <glyph
         glyph-name="uni0145"
         unicode="Ņ"
         horiz-adv-x="96"
         d="M32 54h11v-11h-11v11zM32 65h11v-11h-11v11zM43 65h11v-11h-11v11zM43 54h11v-11h-11v11zM43 43h11v-11h-11v11zM32 43h11v-11h-11v11zM32 86h11v-11h-11v11zM32 75h11v-11h-11v11zM21 65h11v-11h-11v11zM21 75h11v-11h-11v11zM21 86h11v-11h-11v11zM0 107h11v-11h-11v11 zM11 107h11v-11h-11v11zM21 107h11v-11h-11v11zM21 97h11v-11h-11v11zM11 97h11v-11h-11v11zM0 97h11v-11h-11v11zM0 86h11v-11h-11v11zM11 86h11v-11h-11v11zM11 75h11v-11h-11v11zM11 65h11v-11h-11v11zM0 65h11v-11h-11v11zM0 75h11v-11h-11v11zM0 54h11v-11h-11v11z M11 54h11v-11h-11v11zM11 43h11v-11h-11v11zM11 32h11v-11h-11v11zM11 22h11v-11h-11v11zM11 11h11v-11h-11v11zM0 11h11v-11h-11v11zM0 22h11v-11h-11v11zM0 32h11v-11h-11v11zM0 43h11v-11h-11v11zM43 32h11v-11h-11v11zM43 22h11v-11h-11v11zM54 32h11v-11h-11v11zM54 43 h11v-11h-11v11zM54 22h11v-11h-11v11zM54 11h11v-11h-11v11zM64 11h11v-11h-11v11zM75 11h11v-11h-11v11zM75 22h11v-11h-11v11zM75 32h11v-11h-11v11zM64 32h11v-11h-11v11zM64 22h11v-11h-11v11zM64 43h11v-11h-11v11zM75 54h11v-11h-11v11zM75 65h11v-11h-11v11zM75 43 h11v-11h-11v11zM64 54h11v-11h-11v11zM64 65h11v-11h-11v11zM64 75h11v-11h-11v11zM75 75h11v-11h-11v11zM75 86h11v-11h-11v11zM64 107h11v-11h-11v11zM75 107h11v-11h-11v11zM75 97h11v-11h-11v11zM64 97h11v-11h-11v11zM64 86h11v-11h-11v11zM32 -10h11v-11h-11v11z M43 -10h11v-11h-11v11zM43 -21h11v-11h-11v11zM32 -21h11v-11h-11v11zM43 -32h11v-11h-11v11zM32 -43h11v-11h-11v11z"
         id="glyph61" />
      <glyph
         glyph-name="Ntilde"
         unicode="Ñ"
         horiz-adv-x="96"
         d="M32 54h11v-11h-11v11zM32 65h11v-11h-11v11zM43 65h11v-11h-11v11zM43 54h11v-11h-11v11zM43 43h11v-11h-11v11zM32 43h11v-11h-11v11zM32 86h11v-11h-11v11zM32 75h11v-11h-11v11zM21 65h11v-11h-11v11zM21 75h11v-11h-11v11zM21 86h11v-11h-11v11zM0 107h11v-11h-11v11 zM11 107h11v-11h-11v11zM21 107h11v-11h-11v11zM21 97h11v-11h-11v11zM11 97h11v-11h-11v11zM0 97h11v-11h-11v11zM0 86h11v-11h-11v11zM11 86h11v-11h-11v11zM11 75h11v-11h-11v11zM11 65h11v-11h-11v11zM0 65h11v-11h-11v11zM0 75h11v-11h-11v11zM0 54h11v-11h-11v11z M11 54h11v-11h-11v11zM11 43h11v-11h-11v11zM11 32h11v-11h-11v11zM11 22h11v-11h-11v11zM11 11h11v-11h-11v11zM0 11h11v-11h-11v11zM0 22h11v-11h-11v11zM0 32h11v-11h-11v11zM0 43h11v-11h-11v11zM43 32h11v-11h-11v11zM43 22h11v-11h-11v11zM54 32h11v-11h-11v11zM54 43 h11v-11h-11v11zM54 22h11v-11h-11v11zM54 11h11v-11h-11v11zM64 11h11v-11h-11v11zM75 11h11v-11h-11v11zM75 22h11v-11h-11v11zM75 32h11v-11h-11v11zM64 32h11v-11h-11v11zM64 22h11v-11h-11v11zM64 43h11v-11h-11v11zM75 54h11v-11h-11v11zM75 65h11v-11h-11v11zM75 43 h11v-11h-11v11zM64 54h11v-11h-11v11zM64 65h11v-11h-11v11zM64 75h11v-11h-11v11zM75 75h11v-11h-11v11zM75 86h11v-11h-11v11zM64 107h11v-11h-11v11zM75 107h11v-11h-11v11zM75 97h11v-11h-11v11zM64 97h11v-11h-11v11zM64 86h11v-11h-11v11zM43 140h11v-11h-11v11z M21 150h11v-11h-11v11zM32 150h11v-11h-11v11zM54 140h11v-11h-11v11zM64 140h11v-11h-11v11zM64 150h11v-11h-11v11zM54 129h11v-11h-11v11zM43 150h11v-11h-11v11zM32 161h11v-11h-11v11zM21 140h11v-11h-11v11z"
         id="glyph62" />
      <glyph
         glyph-name="Eng"
         unicode="Ŋ"
         horiz-adv-x="96"
         d="M32 54h11v-11h-11v11zM32 65h11v-11h-11v11zM43 65h11v-11h-11v11zM43 54h11v-11h-11v11zM43 43h11v-11h-11v11zM32 43h11v-11h-11v11zM32 86h11v-11h-11v11zM32 75h11v-11h-11v11zM21 65h11v-11h-11v11zM21 75h11v-11h-11v11zM21 86h11v-11h-11v11zM0 107h11v-11h-11v11 zM11 107h11v-11h-11v11zM21 107h11v-11h-11v11zM21 97h11v-11h-11v11zM11 97h11v-11h-11v11zM0 97h11v-11h-11v11zM0 86h11v-11h-11v11zM11 86h11v-11h-11v11zM11 75h11v-11h-11v11zM11 65h11v-11h-11v11zM0 65h11v-11h-11v11zM0 75h11v-11h-11v11zM0 54h11v-11h-11v11z M11 54h11v-11h-11v11zM11 43h11v-11h-11v11zM11 32h11v-11h-11v11zM11 22h11v-11h-11v11zM11 11h11v-11h-11v11zM0 11h11v-11h-11v11zM0 22h11v-11h-11v11zM0 32h11v-11h-11v11zM0 43h11v-11h-11v11zM43 32h11v-11h-11v11zM43 22h11v-11h-11v11zM54 32h11v-11h-11v11zM54 43 h11v-11h-11v11zM54 22h11v-11h-11v11zM54 11h11v-11h-11v11zM64 11h11v-11h-11v11zM75 11h11v-11h-11v11zM75 22h11v-11h-11v11zM75 32h11v-11h-11v11zM64 32h11v-11h-11v11zM64 22h11v-11h-11v11zM64 43h11v-11h-11v11zM75 54h11v-11h-11v11zM75 65h11v-11h-11v11zM75 43 h11v-11h-11v11zM64 54h11v-11h-11v11zM64 65h11v-11h-11v11zM64 75h11v-11h-11v11zM75 75h11v-11h-11v11zM75 86h11v-11h-11v11zM64 107h11v-11h-11v11zM75 107h11v-11h-11v11zM75 97h11v-11h-11v11zM64 97h11v-11h-11v11zM64 86h11v-11h-11v11zM75 0h11v-11h-11v11zM75 -10 h11v-11h-11v11zM64 0h11v-11h-11v11zM64 -21h11v-11h-11v11zM64 -10h11v-11h-11v11zM54 -21h11v-11h-11v11z"
         id="glyph63" />
      <glyph
         glyph-name="O"
         unicode="O"
         d="M21 107h11v-11h-11v11zM11 107h11v-11h-11v11zM11 97h11v-11h-11v11zM21 97h11v-11h-11v11zM32 97h11v-11h-11v11zM32 107h11v-11h-11v11zM43 107h11v-11h-11v11zM54 107h11v-11h-11v11zM54 97h11v-11h-11v11zM43 97h11v-11h-11v11zM43 86h11v-11h-11v11zM54 86h11v-11 h-11v11zM64 97h11v-11h-11v11zM64 86h11v-11h-11v11zM64 75h11v-11h-11v11zM64 65h11v-11h-11v11zM64 54h11v-11h-11v11zM64 43h11v-11h-11v11zM64 32h11v-11h-11v11zM64 22h11v-11h-11v11zM54 22h11v-11h-11v11zM54 32h11v-11h-11v11zM54 43h11v-11h-11v11zM54 54h11v-11 h-11v11zM54 65h11v-11h-11v11zM54 75h11v-11h-11v11zM43 32h11v-11h-11v11zM43 22h11v-11h-11v11zM54 11h11v-11h-11v11zM43 11h11v-11h-11v11zM32 11h11v-11h-11v11zM32 22h11v-11h-11v11zM21 11h11v-11h-11v11zM11 11h11v-11h-11v11zM11 22h11v-11h-11v11zM21 22h11v-11 h-11v11zM21 32h11v-11h-11v11zM11 32h11v-11h-11v11zM0 22h11v-11h-11v11zM0 32h11v-11h-11v11zM0 43h11v-11h-11v11zM0 54h11v-11h-11v11zM0 65h11v-11h-11v11zM0 75h11v-11h-11v11zM0 86h11v-11h-11v11zM11 86h11v-11h-11v11zM0 97h11v-11h-11v11zM21 86h11v-11h-11v11z M11 75h11v-11h-11v11zM11 65h11v-11h-11v11zM11 54h11v-11h-11v11zM11 43h11v-11h-11v11z"
         id="glyph64" />
      <glyph
         glyph-name="Oacute"
         unicode="Ó"
         d="M21 107h11v-11h-11v11zM11 107h10v-11h-10v11zM11 96h10v-10h-10v10zM21 96h11v-10h-11v10zM32 96h11v-10h-11v10zM32 107h11v-11h-11v11zM43 107h11v-11h-11v11zM54 107h10v-11h-10v11zM54 96h10v-10h-10v10zM43 96h11v-10h-11v10zM43 86h11v-11h-11v11zM54 86h10v-11 h-10v11zM64 96h11v-10h-11v10zM64 86h11v-11h-11v11zM64 75h11v-11h-11v11zM64 64h11v-10h-11v10zM64 54h11v-11h-11v11zM64 43h11v-11h-11v11zM64 32h11v-11h-11v11zM64 21h11v-10h-11v10zM54 21h10v-10h-10v10zM54 32h10v-11h-10v11zM54 43h10v-11h-10v11zM54 54h10v-11 h-10v11zM54 64h10v-10h-10v10zM54 75h10v-11h-10v11zM43 32h11v-11h-11v11zM43 21h11v-10h-11v10zM54 11h10v-11h-10v11zM43 11h11v-11h-11v11zM32 11h11v-11h-11v11zM32 21h11v-10h-11v10zM21 11h11v-11h-11v11zM11 11h10v-11h-10v11zM11 21h10v-10h-10v10zM21 21h11v-10 h-11v10zM21 32h11v-11h-11v11zM11 32h10v-11h-10v11zM0 21h11v-10h-11v10zM0 32h11v-11h-11v11zM0 43h11v-11h-11v11zM0 54h11v-11h-11v11zM0 64h11v-10h-11v10zM0 75h11v-11h-11v11zM0 86h11v-11h-11v11zM11 86h10v-11h-10v11zM0 96h11v-10h-11v10zM21 86h11v-11h-11v11z M11 75h10v-11h-10v11zM11 64h10v-10h-10v10zM11 54h10v-11h-10v11zM11 43h10v-11h-10v11zM43 139v-10h-11v10h11zM43 129v-11h-11v11h11zM54 139v-10h-11v10h11zM54 150v-11h-11v11h11z"
         id="glyph65" />
      <glyph
         glyph-name="Ocircumflex"
         unicode="Ô"
         d="M21 107h11v-11h-11v11zM11 107h11v-11h-11v11zM11 97h11v-11h-11v11zM21 97h11v-11h-11v11zM32 97h11v-11h-11v11zM32 107h11v-11h-11v11zM43 107h11v-11h-11v11zM54 107h11v-11h-11v11zM54 97h11v-11h-11v11zM43 97h11v-11h-11v11zM43 86h11v-11h-11v11zM54 86h11v-11 h-11v11zM64 97h11v-11h-11v11zM64 86h11v-11h-11v11zM64 75h11v-11h-11v11zM64 65h11v-11h-11v11zM64 54h11v-11h-11v11zM64 43h11v-11h-11v11zM64 32h11v-11h-11v11zM64 22h11v-11h-11v11zM54 22h11v-11h-11v11zM54 32h11v-11h-11v11zM54 43h11v-11h-11v11zM54 54h11v-11 h-11v11zM54 65h11v-11h-11v11zM54 75h11v-11h-11v11zM43 32h11v-11h-11v11zM43 22h11v-11h-11v11zM54 11h11v-11h-11v11zM43 11h11v-11h-11v11zM32 11h11v-11h-11v11zM32 22h11v-11h-11v11zM21 11h11v-11h-11v11zM11 11h11v-11h-11v11zM11 22h11v-11h-11v11zM21 22h11v-11 h-11v11zM21 32h11v-11h-11v11zM11 32h11v-11h-11v11zM0 22h11v-11h-11v11zM0 32h11v-11h-11v11zM0 43h11v-11h-11v11zM0 54h11v-11h-11v11zM0 65h11v-11h-11v11zM0 75h11v-11h-11v11zM0 86h11v-11h-11v11zM11 86h11v-11h-11v11zM0 97h11v-11h-11v11zM21 86h11v-11h-11v11z M11 75h11v-11h-11v11zM11 65h11v-11h-11v11zM11 54h11v-11h-11v11zM11 43h11v-11h-11v11zM21 129h11v-11h-11v11zM43 129h11v-11h-11v11zM11 129h11v-11h-11v11zM32 140h11v-11h-11v11zM21 140h11v-11h-11v11zM54 129h11v-11h-11v11zM43 140h11v-11h-11v11zM32 150h11v-11 h-11v11z"
         id="glyph66" />
      <glyph
         glyph-name="Odieresis"
         unicode="Ö"
         d="M21 107h11v-11h-11v11zM11 107h11v-11h-11v11zM11 97h11v-11h-11v11zM21 97h11v-11h-11v11zM32 97h11v-11h-11v11zM32 107h11v-11h-11v11zM43 107h11v-11h-11v11zM54 107h11v-11h-11v11zM54 97h11v-11h-11v11zM43 97h11v-11h-11v11zM43 86h11v-11h-11v11zM54 86h11v-11 h-11v11zM64 97h11v-11h-11v11zM64 86h11v-11h-11v11zM64 75h11v-11h-11v11zM64 65h11v-11h-11v11zM64 54h11v-11h-11v11zM64 43h11v-11h-11v11zM64 32h11v-11h-11v11zM64 22h11v-11h-11v11zM54 22h11v-11h-11v11zM54 32h11v-11h-11v11zM54 43h11v-11h-11v11zM54 54h11v-11 h-11v11zM54 65h11v-11h-11v11zM54 75h11v-11h-11v11zM43 32h11v-11h-11v11zM43 22h11v-11h-11v11zM54 11h11v-11h-11v11zM43 11h11v-11h-11v11zM32 11h11v-11h-11v11zM32 22h11v-11h-11v11zM21 11h11v-11h-11v11zM11 11h11v-11h-11v11zM11 22h11v-11h-11v11zM21 22h11v-11 h-11v11zM21 32h11v-11h-11v11zM11 32h11v-11h-11v11zM0 22h11v-11h-11v11zM0 32h11v-11h-11v11zM0 43h11v-11h-11v11zM0 54h11v-11h-11v11zM0 65h11v-11h-11v11zM0 75h11v-11h-11v11zM0 86h11v-11h-11v11zM11 86h11v-11h-11v11zM0 97h11v-11h-11v11zM21 86h11v-11h-11v11z M11 75h11v-11h-11v11zM11 65h11v-11h-11v11zM11 54h11v-11h-11v11zM11 43h11v-11h-11v11zM43 140h11v-11h-11v11zM54 140h11v-11h-11v11zM54 129h11v-11h-11v11zM43 129h11v-11h-11v11zM11 129h11v-11h-11v11zM21 129h11v-11h-11v11zM21 140h11v-11h-11v11zM11 140h11v-11 h-11v11z"
         id="glyph67" />
      <glyph
         glyph-name="Ograve"
         unicode="Ò"
         d="M21 107h11v-11h-11v11zM11 107h11v-11h-11v11zM11 97h11v-11h-11v11zM21 97h11v-11h-11v11zM32 97h11v-11h-11v11zM32 107h11v-11h-11v11zM43 107h11v-11h-11v11zM54 107h11v-11h-11v11zM54 97h11v-11h-11v11zM43 97h11v-11h-11v11zM43 86h11v-11h-11v11zM54 86h11v-11 h-11v11zM64 97h11v-11h-11v11zM64 86h11v-11h-11v11zM64 75h11v-11h-11v11zM64 65h11v-11h-11v11zM64 54h11v-11h-11v11zM64 43h11v-11h-11v11zM64 32h11v-11h-11v11zM64 22h11v-11h-11v11zM54 22h11v-11h-11v11zM54 32h11v-11h-11v11zM54 43h11v-11h-11v11zM54 54h11v-11 h-11v11zM54 65h11v-11h-11v11zM54 75h11v-11h-11v11zM43 32h11v-11h-11v11zM43 22h11v-11h-11v11zM54 11h11v-11h-11v11zM43 11h11v-11h-11v11zM32 11h11v-11h-11v11zM32 22h11v-11h-11v11zM21 11h11v-11h-11v11zM11 11h11v-11h-11v11zM11 22h11v-11h-11v11zM21 22h11v-11 h-11v11zM21 32h11v-11h-11v11zM11 32h11v-11h-11v11zM0 22h11v-11h-11v11zM0 32h11v-11h-11v11zM0 43h11v-11h-11v11zM0 54h11v-11h-11v11zM0 65h11v-11h-11v11zM0 75h11v-11h-11v11zM0 86h11v-11h-11v11zM11 86h11v-11h-11v11zM0 97h11v-11h-11v11zM21 86h11v-11h-11v11z M11 75h11v-11h-11v11zM11 65h11v-11h-11v11zM11 54h11v-11h-11v11zM11 43h11v-11h-11v11zM32 140h11v-11h-11v11zM32 129h11v-11h-11v11zM21 140h11v-11h-11v11zM43 129h11v-11h-11v11zM21 150h11v-11h-11v11z"
         id="glyph68" />
      <glyph
         glyph-name="Ohungarumlaut"
         unicode="Ő"
         d="M21 107h11v-11h-11v11zM11 107h10v-11h-10v11zM11 96h10v-10h-10v10zM21 96h11v-10h-11v10zM32 96h11v-10h-11v10zM32 107h11v-11h-11v11zM43 107h11v-11h-11v11zM54 107h10v-11h-10v11zM54 96h10v-10h-10v10zM43 96h11v-10h-11v10zM43 86h11v-11h-11v11zM54 86h10v-11 h-10v11zM64 96h11v-10h-11v10zM64 86h11v-11h-11v11zM64 75h11v-11h-11v11zM64 64h11v-10h-11v10zM64 54h11v-11h-11v11zM64 43h11v-11h-11v11zM64 32h11v-11h-11v11zM64 21h11v-10h-11v10zM54 21h10v-10h-10v10zM54 32h10v-11h-10v11zM54 43h10v-11h-10v11zM54 54h10v-11 h-10v11zM54 64h10v-10h-10v10zM54 75h10v-11h-10v11zM43 32h11v-11h-11v11zM43 21h11v-10h-11v10zM54 11h10v-11h-10v11zM43 11h11v-11h-11v11zM32 11h11v-11h-11v11zM32 21h11v-10h-11v10zM21 11h11v-11h-11v11zM11 11h10v-11h-10v11zM11 21h10v-10h-10v10zM21 21h11v-10 h-11v10zM21 32h11v-11h-11v11zM11 32h10v-11h-10v11zM0 21h11v-10h-11v10zM0 32h11v-11h-11v11zM0 43h11v-11h-11v11zM0 54h11v-11h-11v11zM0 64h11v-10h-11v10zM0 75h11v-11h-11v11zM0 86h11v-11h-11v11zM11 86h10v-11h-10v11zM0 96h11v-10h-11v10zM21 86h11v-11h-11v11z M11 75h10v-11h-10v11zM11 64h10v-10h-10v10zM11 54h10v-11h-10v11zM11 43h10v-11h-10v11zM21 139v-10h-10v10h10zM21 129v-11h-10v11h10zM32 139v-10h-11v10h11zM11 129v-11h-11v11h11zM32 150v-11h-11v11h11zM54 139v-10h-11v10h11zM54 129v-11h-11v11h11zM64 139v-10h-10 v10h10zM43 129v-11h-11v11h11zM64 150v-11h-10v11h10z"
         id="glyph69" />
      <glyph
         glyph-name="Omacron"
         unicode="Ō"
         d="M21 107h11v-11h-11v11zM11 107h11v-11h-11v11zM11 97h11v-11h-11v11zM21 97h11v-11h-11v11zM32 97h11v-11h-11v11zM32 107h11v-11h-11v11zM43 107h11v-11h-11v11zM54 107h11v-11h-11v11zM54 97h11v-11h-11v11zM43 97h11v-11h-11v11zM43 86h11v-11h-11v11zM54 86h11v-11 h-11v11zM64 97h11v-11h-11v11zM64 86h11v-11h-11v11zM64 75h11v-11h-11v11zM64 65h11v-11h-11v11zM64 54h11v-11h-11v11zM64 43h11v-11h-11v11zM64 32h11v-11h-11v11zM64 22h11v-11h-11v11zM54 22h11v-11h-11v11zM54 32h11v-11h-11v11zM54 43h11v-11h-11v11zM54 54h11v-11 h-11v11zM54 65h11v-11h-11v11zM54 75h11v-11h-11v11zM43 32h11v-11h-11v11zM43 22h11v-11h-11v11zM54 11h11v-11h-11v11zM43 11h11v-11h-11v11zM32 11h11v-11h-11v11zM32 22h11v-11h-11v11zM21 11h11v-11h-11v11zM11 11h11v-11h-11v11zM11 22h11v-11h-11v11zM21 22h11v-11 h-11v11zM21 32h11v-11h-11v11zM11 32h11v-11h-11v11zM0 22h11v-11h-11v11zM0 32h11v-11h-11v11zM0 43h11v-11h-11v11zM0 54h11v-11h-11v11zM0 65h11v-11h-11v11zM0 75h11v-11h-11v11zM0 86h11v-11h-11v11zM11 86h11v-11h-11v11zM0 97h11v-11h-11v11zM21 86h11v-11h-11v11z M11 75h11v-11h-11v11zM11 65h11v-11h-11v11zM11 54h11v-11h-11v11zM11 43h11v-11h-11v11zM21 140h11v-11h-11v11zM32 140h11v-11h-11v11zM32 129h11v-11h-11v11zM21 129h11v-11h-11v11zM11 140h11v-11h-11v11zM11 129h11v-11h-11v11zM43 140h11v-11h-11v11zM43 129h11v-11 h-11v11zM54 140h11v-11h-11v11zM54 129h11v-11h-11v11z"
         id="glyph70" />
      <glyph
         glyph-name="Oslash"
         unicode="Ø"
         horiz-adv-x="128"
         d="M43 107h11v-11h-11v11zM32 107h11v-11h-11v11zM32 97h11v-11h-11v11zM43 97h11v-11h-11v11zM54 97h11v-11h-11v11zM54 107h11v-11h-11v11zM64 107h11v-11h-11v11zM75 107h11v-11h-11v11zM75 97h11v-11h-11v11zM64 97h11v-11h-11v11zM64 86h11v-11h-11v11zM75 86h11v-11 h-11v11zM86 97h11v-11h-11v11zM86 86h11v-11h-11v11zM86 75h11v-11h-11v11zM86 65h11v-11h-11v11zM86 54h11v-11h-11v11zM86 43h11v-11h-11v11zM86 32h11v-11h-11v11zM86 22h11v-11h-11v11zM75 22h11v-11h-11v11zM75 32h11v-11h-11v11zM75 43h11v-11h-11v11zM75 54h11v-11 h-11v11zM75 65h11v-11h-11v11zM75 75h11v-11h-11v11zM64 32h11v-11h-11v11zM64 22h11v-11h-11v11zM75 11h11v-11h-11v11zM64 11h11v-11h-11v11zM54 11h11v-11h-11v11zM54 22h11v-11h-11v11zM43 11h11v-11h-11v11zM32 11h11v-11h-11v11zM32 22h11v-11h-11v11zM43 22h11v-11 h-11v11zM43 32h11v-11h-11v11zM32 32h11v-11h-11v11zM21 22h11v-11h-11v11zM21 32h11v-11h-11v11zM21 43h11v-11h-11v11zM21 54h11v-11h-11v11zM21 65h11v-11h-11v11zM21 75h11v-11h-11v11zM21 86h11v-11h-11v11zM32 86h11v-11h-11v11zM21 97h11v-11h-11v11zM43 86h11v-11 h-11v11zM32 75h11v-11h-11v11zM32 65h11v-11h-11v11zM32 54h11v-11h-11v11zM32 43h11v-11h-11v11zM43 54h11v-11h-11v11zM54 65h11v-11h-11v11zM64 65h11v-11h-11v11zM54 54h11v-11h-11v11zM96 75h11v-11h-11v11zM11 43h11v-11h-11v11zM11 32h11v-11h-11v11zM96 86h11v-11 h-11v11zM107 86h11v-11h-11v11zM0 32h11v-11h-11v11z"
         id="glyph71" />
      <glyph
         glyph-name="Otilde"
         unicode="Õ"
         d="M21 107h11v-11h-11v11zM11 107h11v-11h-11v11zM11 97h11v-11h-11v11zM21 97h11v-11h-11v11zM32 97h11v-11h-11v11zM32 107h11v-11h-11v11zM43 107h11v-11h-11v11zM54 107h11v-11h-11v11zM54 97h11v-11h-11v11zM43 97h11v-11h-11v11zM43 86h11v-11h-11v11zM54 86h11v-11 h-11v11zM64 97h11v-11h-11v11zM64 86h11v-11h-11v11zM64 75h11v-11h-11v11zM64 65h11v-11h-11v11zM64 54h11v-11h-11v11zM64 43h11v-11h-11v11zM64 32h11v-11h-11v11zM64 22h11v-11h-11v11zM54 22h11v-11h-11v11zM54 32h11v-11h-11v11zM54 43h11v-11h-11v11zM54 54h11v-11 h-11v11zM54 65h11v-11h-11v11zM54 75h11v-11h-11v11zM43 32h11v-11h-11v11zM43 22h11v-11h-11v11zM54 11h11v-11h-11v11zM43 11h11v-11h-11v11zM32 11h11v-11h-11v11zM32 22h11v-11h-11v11zM21 11h11v-11h-11v11zM11 11h11v-11h-11v11zM11 22h11v-11h-11v11zM21 22h11v-11 h-11v11zM21 32h11v-11h-11v11zM11 32h11v-11h-11v11zM0 22h11v-11h-11v11zM0 32h11v-11h-11v11zM0 43h11v-11h-11v11zM0 54h11v-11h-11v11zM0 65h11v-11h-11v11zM0 75h11v-11h-11v11zM0 86h11v-11h-11v11zM11 86h11v-11h-11v11zM0 97h11v-11h-11v11zM21 86h11v-11h-11v11z M11 75h11v-11h-11v11zM11 65h11v-11h-11v11zM11 54h11v-11h-11v11zM11 43h11v-11h-11v11zM32 140h11v-11h-11v11zM11 150h11v-11h-11v11zM21 150h11v-11h-11v11zM43 140h11v-11h-11v11zM54 140h11v-11h-11v11zM54 150h11v-11h-11v11zM43 129h11v-11h-11v11zM32 150h11v-11 h-11v11zM21 161h11v-11h-11v11zM11 140h11v-11h-11v11z"
         id="glyph72" />
      <glyph
         glyph-name="OE"
         unicode="Œ"
         horiz-adv-x="117"
         d="M21 107h11v-11h-11v11zM11 107h11v-11h-11v11zM11 97h11v-11h-11v11zM21 97h11v-11h-11v11zM32 97h11v-11h-11v11zM32 107h11v-11h-11v11zM43 107h11v-11h-11v11zM43 97h11v-11h-11v11zM43 86h11v-11h-11v11zM43 32h11v-11h-11v11zM43 22h11v-11h-11v11zM43 11h11v-11 h-11v11zM32 11h11v-11h-11v11zM32 22h11v-11h-11v11zM21 11h11v-11h-11v11zM11 11h11v-11h-11v11zM11 22h11v-11h-11v11zM21 22h11v-11h-11v11zM21 32h11v-11h-11v11zM11 32h11v-11h-11v11zM0 22h11v-11h-11v11zM0 32h11v-11h-11v11zM0 43h11v-11h-11v11zM0 54h11v-11h-11 v11zM0 65h11v-11h-11v11zM0 75h11v-11h-11v11zM0 86h11v-11h-11v11zM11 86h11v-11h-11v11zM0 97h11v-11h-11v11zM21 86h11v-11h-11v11zM11 75h11v-11h-11v11zM11 65h11v-11h-11v11zM11 54h11v-11h-11v11zM11 43h11v-11h-11v11zM64 107h11v-11h-11v11zM64 97h11v-11h-11v11z M64 86h11v-11h-11v11zM64 75h11v-11h-11v11zM54 75h11v-11h-11v11zM54 86h11v-11h-11v11zM54 97h11v-11h-11v11zM54 65h11v-11h-11v11zM54 54h11v-11h-11v11zM54 43h11v-11h-11v11zM64 54h11v-11h-11v11zM64 65h11v-11h-11v11zM64 43h11v-11h-11v11zM64 32h11v-11h-11v11z M54 32h11v-11h-11v11zM64 11h11v-11h-11v11zM64 22h11v-11h-11v11zM75 11h11v-11h-11v11zM86 11h11v-11h-11v11zM96 11h11v-11h-11v11zM96 22h11v-11h-11v11zM86 22h11v-11h-11v11zM75 22h11v-11h-11v11zM75 107h11v-11h-11v11zM86 107h11v-11h-11v11zM96 107h11v-11h-11v11 zM86 97h11v-11h-11v11zM75 97h11v-11h-11v11zM75 54h11v-11h-11v11zM86 65h11v-11h-11v11zM75 65h11v-11h-11v11zM86 54h11v-11h-11v11zM96 97h11v-11h-11v11zM54 22h11v-11h-11v11zM54 11h11v-11h-11v11zM54 107h11v-11h-11v11z"
         id="glyph73" />
      <glyph
         glyph-name="P"
         unicode="P"
         d="M0 107h11v-11h-11v11zM11 107h11v-11h-11v11zM21 107h11v-11h-11v11zM32 107h11v-11h-11v11zM43 107h11v-11h-11v11zM54 107h11v-11h-11v11zM54 97h11v-11h-11v11zM43 97h11v-11h-11v11zM32 97h11v-11h-11v11zM21 97h11v-11h-11v11zM11 97h11v-11h-11v11zM0 97h11v-11 h-11v11zM64 97h11v-11h-11v11zM54 86h11v-11h-11v11zM64 86h11v-11h-11v11zM64 75h11v-11h-11v11zM64 65h11v-11h-11v11zM54 65h11v-11h-11v11zM54 75h11v-11h-11v11zM54 54h11v-11h-11v11zM54 43h11v-11h-11v11zM43 43h11v-11h-11v11zM43 54h11v-11h-11v11zM32 54h11v-11 h-11v11zM32 43h11v-11h-11v11zM21 43h11v-11h-11v11zM21 54h11v-11h-11v11zM11 54h11v-11h-11v11zM0 54h11v-11h-11v11zM0 43h11v-11h-11v11zM11 43h11v-11h-11v11zM0 86h11v-11h-11v11zM11 86h11v-11h-11v11zM11 75h11v-11h-11v11zM11 65h11v-11h-11v11zM0 75h11v-11h-11 v11zM0 65h11v-11h-11v11zM0 32h11v-11h-11v11zM11 32h11v-11h-11v11zM11 22h11v-11h-11v11zM11 11h11v-11h-11v11zM0 11h11v-11h-11v11zM0 22h11v-11h-11v11zM64 54h11v-11h-11v11z"
         id="glyph74" />
      <glyph
         glyph-name="Thorn"
         unicode="Þ"
         d="M0 107h11v-11h-11v11zM11 107h11v-11h-11v11zM21 86h11v-11h-11v11zM32 86h11v-11h-11v11zM43 86h11v-11h-11v11zM54 86h11v-11h-11v11zM54 75h11v-11h-11v11zM43 75h11v-11h-11v11zM32 75h11v-11h-11v11zM21 75h11v-11h-11v11zM11 97h11v-11h-11v11zM0 97h11v-11h-11v11 zM64 75h11v-11h-11v11zM64 65h11v-11h-11v11zM64 54h11v-11h-11v11zM54 54h11v-11h-11v11zM54 65h11v-11h-11v11zM54 43h11v-11h-11v11zM54 32h11v-11h-11v11zM43 32h11v-11h-11v11zM43 43h11v-11h-11v11zM32 43h11v-11h-11v11zM32 32h11v-11h-11v11zM21 32h11v-11h-11v11z M21 43h11v-11h-11v11zM11 54h11v-11h-11v11zM0 54h11v-11h-11v11zM0 43h11v-11h-11v11zM11 43h11v-11h-11v11zM0 86h11v-11h-11v11zM11 86h11v-11h-11v11zM11 75h11v-11h-11v11zM11 65h11v-11h-11v11zM0 75h11v-11h-11v11zM0 65h11v-11h-11v11zM0 32h11v-11h-11v11zM11 32 h11v-11h-11v11zM11 22h11v-11h-11v11zM11 11h11v-11h-11v11zM0 11h11v-11h-11v11zM0 22h11v-11h-11v11z"
         id="glyph75" />
      <glyph
         glyph-name="Q"
         unicode="Q"
         d="M21 107h11v-11h-11v11zM11 107h11v-11h-11v11zM11 97h11v-11h-11v11zM21 97h11v-11h-11v11zM32 97h11v-11h-11v11zM32 107h11v-11h-11v11zM43 107h11v-11h-11v11zM54 107h11v-11h-11v11zM54 97h11v-11h-11v11zM43 97h11v-11h-11v11zM43 86h11v-11h-11v11zM54 86h11v-11 h-11v11zM64 97h11v-11h-11v11zM64 86h11v-11h-11v11zM64 75h11v-11h-11v11zM64 65h11v-11h-11v11zM64 54h11v-11h-11v11zM64 43h11v-11h-11v11zM64 32h11v-11h-11v11zM64 22h11v-11h-11v11zM54 22h11v-11h-11v11zM54 32h11v-11h-11v11zM54 43h11v-11h-11v11zM54 54h11v-11 h-11v11zM54 65h11v-11h-11v11zM54 75h11v-11h-11v11zM43 32h11v-11h-11v11zM43 22h11v-11h-11v11zM43 11h11v-11h-11v11zM32 11h11v-11h-11v11zM32 22h11v-11h-11v11zM21 11h11v-11h-11v11zM11 11h11v-11h-11v11zM11 22h11v-11h-11v11zM21 22h11v-11h-11v11zM21 32h11v-11 h-11v11zM11 32h11v-11h-11v11zM0 22h11v-11h-11v11zM0 32h11v-11h-11v11zM0 43h11v-11h-11v11zM0 54h11v-11h-11v11zM0 65h11v-11h-11v11zM0 75h11v-11h-11v11zM0 86h11v-11h-11v11zM11 86h11v-11h-11v11zM0 97h11v-11h-11v11zM21 86h11v-11h-11v11zM11 75h11v-11h-11v11z M11 65h11v-11h-11v11zM11 54h11v-11h-11v11zM11 43h11v-11h-11v11zM32 0h11v-11h-11v11zM43 0h11v-11h-11v11zM54 0h11v-11h-11v11zM43 -10h11v-11h-11v11zM54 -10h11v-11h-11v11zM64 -10h11v-11h-11v11zM64 0h11v-11h-11v11z"
         id="glyph76" />
      <glyph
         glyph-name="R"
         unicode="R"
         d="M11 54h11v-11h-11v11zM21 54h11v-11h-11v11zM32 54h11v-11h-11v11zM43 54h11v-11h-11v11zM21 43h11v-11h-11v11zM11 43h11v-11h-11v11zM32 43h11v-11h-11v11zM43 43h11v-11h-11v11zM54 32h11v-11h-11v11zM64 43h11v-11h-11v11zM54 43h11v-11h-11v11zM64 32h11v-11h-11v11 zM54 22h11v-11h-11v11zM64 22h11v-11h-11v11zM64 11h11v-11h-11v11zM54 11h11v-11h-11v11zM11 11h11v-11h-11v11zM0 11h11v-11h-11v11zM0 22h11v-11h-11v11zM11 22h11v-11h-11v11zM11 32h11v-11h-11v11zM0 32h11v-11h-11v11zM0 43h11v-11h-11v11zM0 54h11v-11h-11v11zM0 65 h11v-11h-11v11zM11 65h11v-11h-11v11zM0 107h11v-11h-11v11zM11 107h11v-11h-11v11zM21 107h11v-11h-11v11zM32 107h11v-11h-11v11zM43 107h11v-11h-11v11zM54 107h11v-11h-11v11zM54 97h11v-11h-11v11zM43 97h11v-11h-11v11zM32 97h11v-11h-11v11zM21 97h11v-11h-11v11z M11 97h11v-11h-11v11zM0 97h11v-11h-11v11zM0 86h11v-11h-11v11zM0 75h11v-11h-11v11zM11 75h11v-11h-11v11zM11 86h11v-11h-11v11zM54 86h11v-11h-11v11zM64 86h11v-11h-11v11zM64 97h11v-11h-11v11zM64 75h11v-11h-11v11zM54 75h11v-11h-11v11zM54 65h11v-11h-11v11z M64 65h11v-11h-11v11zM54 54h11v-11h-11v11z"
         id="glyph77" />
      <glyph
         glyph-name="Racute"
         unicode="Ŕ"
         d="M11 54h10v-11h-10v11zM21 54h11v-11h-11v11zM32 54h11v-11h-11v11zM43 54h11v-11h-11v11zM21 43h11v-11h-11v11zM11 43h10v-11h-10v11zM32 43h11v-11h-11v11zM43 43h11v-11h-11v11zM54 32h10v-11h-10v11zM64 43h11v-11h-11v11zM54 43h10v-11h-10v11zM64 32h11v-11h-11v11 zM54 21h10v-10h-10v10zM64 21h11v-10h-11v10zM64 11h11v-11h-11v11zM54 11h10v-11h-10v11zM11 11h10v-11h-10v11zM0 11h11v-11h-11v11zM0 21h11v-10h-11v10zM11 21h10v-10h-10v10zM11 32h10v-11h-10v11zM0 32h11v-11h-11v11zM0 43h11v-11h-11v11zM0 54h11v-11h-11v11zM0 64 h11v-10h-11v10zM11 64h10v-10h-10v10zM0 107h11v-11h-11v11zM11 107h10v-11h-10v11zM21 107h11v-11h-11v11zM32 107h11v-11h-11v11zM43 107h11v-11h-11v11zM54 107h10v-11h-10v11zM54 96h10v-10h-10v10zM43 96h11v-10h-11v10zM32 96h11v-10h-11v10zM21 96h11v-10h-11v10z M11 96h10v-10h-10v10zM0 96h11v-10h-11v10zM0 86h11v-11h-11v11zM0 75h11v-11h-11v11zM11 75h10v-11h-10v11zM11 86h10v-11h-10v11zM54 86h10v-11h-10v11zM64 86h11v-11h-11v11zM64 96h11v-10h-11v10zM64 75h11v-11h-11v11zM54 75h10v-11h-10v11zM54 64h10v-10h-10v10z M64 64h11v-10h-11v10zM54 54h10v-11h-10v11zM43 139v-10h-11v10h11zM43 129v-11h-11v11h11zM54 139v-10h-11v10h11zM54 150v-11h-11v11h11z"
         id="glyph78" />
      <glyph
         glyph-name="Rcaron"
         unicode="Ř"
         d="M11 54h10v-11h-10v11zM21 54h11v-11h-11v11zM32 54h11v-11h-11v11zM43 54h11v-11h-11v11zM21 43h11v-11h-11v11zM11 43h10v-11h-10v11zM32 43h11v-11h-11v11zM43 43h11v-11h-11v11zM54 32h10v-11h-10v11zM64 43h11v-11h-11v11zM54 43h10v-11h-10v11zM64 32h11v-11h-11v11 zM54 21h10v-10h-10v10zM64 21h11v-10h-11v10zM64 11h11v-11h-11v11zM54 11h10v-11h-10v11zM11 11h10v-11h-10v11zM0 11h11v-11h-11v11zM0 21h11v-10h-11v10zM11 21h10v-10h-10v10zM11 32h10v-11h-10v11zM0 32h11v-11h-11v11zM0 43h11v-11h-11v11zM0 54h11v-11h-11v11zM0 64 h11v-10h-11v10zM11 64h10v-10h-10v10zM0 107h11v-11h-11v11zM11 107h10v-11h-10v11zM21 107h11v-11h-11v11zM32 107h11v-11h-11v11zM43 107h11v-11h-11v11zM54 107h10v-11h-10v11zM54 96h10v-10h-10v10zM43 96h11v-10h-11v10zM32 96h11v-10h-11v10zM21 96h11v-10h-11v10z M11 96h10v-10h-10v10zM0 96h11v-10h-11v10zM0 86h11v-11h-11v11zM0 75h11v-11h-11v11zM11 75h10v-11h-10v11zM11 86h10v-11h-10v11zM54 86h10v-11h-10v11zM64 86h11v-11h-11v11zM64 96h11v-10h-11v10zM64 75h11v-11h-11v11zM54 75h10v-11h-10v11zM54 64h10v-10h-10v10z M64 64h11v-10h-11v10zM54 54h10v-11h-10v11zM21 139v11h11v-11h-11zM43 139v11h11v-11h-11zM11 139v11h10v-11h-10zM32 129v10h11v-10h-11zM21 129v10h11v-10h-11zM54 150h10v-11h-10v11zM43 139h11v-10h-11v10zM32 129h11v-11h-11v11z"
         id="glyph79" />
      <glyph
         glyph-name="uni0156"
         unicode="Ŗ"
         d="M11 54h11v-11h-11v11zM21 54h11v-11h-11v11zM32 54h11v-11h-11v11zM43 54h11v-11h-11v11zM21 43h11v-11h-11v11zM11 43h11v-11h-11v11zM32 43h11v-11h-11v11zM43 43h11v-11h-11v11zM54 32h11v-11h-11v11zM64 43h11v-11h-11v11zM54 43h11v-11h-11v11zM64 32h11v-11h-11v11 zM54 22h11v-11h-11v11zM64 22h11v-11h-11v11zM64 11h11v-11h-11v11zM54 11h11v-11h-11v11zM11 11h11v-11h-11v11zM0 11h11v-11h-11v11zM0 22h11v-11h-11v11zM11 22h11v-11h-11v11zM11 32h11v-11h-11v11zM0 32h11v-11h-11v11zM0 43h11v-11h-11v11zM0 54h11v-11h-11v11zM0 65 h11v-11h-11v11zM11 65h11v-11h-11v11zM0 107h11v-11h-11v11zM11 107h11v-11h-11v11zM21 107h11v-11h-11v11zM32 107h11v-11h-11v11zM43 107h11v-11h-11v11zM54 107h11v-11h-11v11zM54 97h11v-11h-11v11zM43 97h11v-11h-11v11zM32 97h11v-11h-11v11zM21 97h11v-11h-11v11z M11 97h11v-11h-11v11zM0 97h11v-11h-11v11zM0 86h11v-11h-11v11zM0 75h11v-11h-11v11zM11 75h11v-11h-11v11zM11 86h11v-11h-11v11zM54 86h11v-11h-11v11zM64 86h11v-11h-11v11zM64 97h11v-11h-11v11zM64 75h11v-11h-11v11zM54 75h11v-11h-11v11zM54 65h11v-11h-11v11z M64 65h11v-11h-11v11zM54 54h11v-11h-11v11zM21 -10h11v-11h-11v11zM32 -10h11v-11h-11v11zM32 -21h11v-11h-11v11zM21 -21h11v-11h-11v11zM32 -32h11v-11h-11v11zM21 -43h11v-11h-11v11z"
         id="glyph80" />
      <glyph
         glyph-name="S"
         unicode="S"
         d="M64 86h11v-11h-11v11zM54 86h11v-11h-11v11zM54 97h11v-11h-11v11zM64 97h11v-11h-11v11zM54 107h11v-11h-11v11zM43 107h11v-11h-11v11zM43 97h11v-11h-11v11zM32 97h11v-11h-11v11zM21 97h11v-11h-11v11zM21 107h11v-11h-11v11zM11 107h11v-11h-11v11zM32 107h11v-11 h-11v11zM11 97h11v-11h-11v11zM0 97h11v-11h-11v11zM0 86h11v-11h-11v11zM11 86h11v-11h-11v11zM11 75h11v-11h-11v11zM11 65h11v-11h-11v11zM0 65h11v-11h-11v11zM0 75h11v-11h-11v11zM11 54h11v-11h-11v11zM21 54h11v-11h-11v11zM21 65h11v-11h-11v11zM32 65h11v-11h-11 v11zM43 65h11v-11h-11v11zM54 65h11v-11h-11v11zM54 54h11v-11h-11v11zM43 54h11v-11h-11v11zM32 54h11v-11h-11v11zM64 54h11v-11h-11v11zM64 43h11v-11h-11v11zM54 43h11v-11h-11v11zM43 22h11v-11h-11v11zM54 22h11v-11h-11v11zM54 32h11v-11h-11v11zM64 32h11v-11h-11 v11zM64 22h11v-11h-11v11zM54 11h11v-11h-11v11zM43 11h11v-11h-11v11zM32 11h11v-11h-11v11zM21 11h11v-11h-11v11zM11 11h11v-11h-11v11zM11 22h11v-11h-11v11zM21 22h11v-11h-11v11zM32 22h11v-11h-11v11zM0 22h11v-11h-11v11zM0 32h11v-11h-11v11zM11 32h11v-11h-11v11z "
         id="glyph81" />
      <glyph
         glyph-name="Sacute"
         unicode="Ś"
         d="M64 86h11v-11h-11v11zM54 86h10v-11h-10v11zM54 96h10v-10h-10v10zM64 96h11v-10h-11v10zM54 107h10v-11h-10v11zM43 107h11v-11h-11v11zM43 96h11v-10h-11v10zM32 96h11v-10h-11v10zM21 96h11v-10h-11v10zM21 107h11v-11h-11v11zM11 107h10v-11h-10v11zM32 107h11v-11 h-11v11zM11 96h10v-10h-10v10zM0 96h11v-10h-11v10zM0 86h11v-11h-11v11zM11 86h10v-11h-10v11zM11 75h10v-11h-10v11zM11 64h10v-10h-10v10zM0 64h11v-10h-11v10zM0 75h11v-11h-11v11zM11 54h10v-11h-10v11zM21 54h11v-11h-11v11zM21 64h11v-10h-11v10zM32 64h11v-10h-11 v10zM43 64h11v-10h-11v10zM54 64h10v-10h-10v10zM54 54h10v-11h-10v11zM43 54h11v-11h-11v11zM32 54h11v-11h-11v11zM64 54h11v-11h-11v11zM64 43h11v-11h-11v11zM54 43h10v-11h-10v11zM43 21h11v-10h-11v10zM54 21h10v-10h-10v10zM54 32h10v-11h-10v11zM64 32h11v-11h-11 v11zM64 21h11v-10h-11v10zM54 11h10v-11h-10v11zM43 11h11v-11h-11v11zM32 11h11v-11h-11v11zM21 11h11v-11h-11v11zM11 11h10v-11h-10v11zM11 21h10v-10h-10v10zM21 21h11v-10h-11v10zM32 21h11v-10h-11v10zM0 21h11v-10h-11v10zM0 32h11v-11h-11v11zM11 32h10v-11h-10v11z M43 139v-10h-11v10h11zM43 129v-11h-11v11h11zM54 139v-10h-11v10h11zM54 150v-11h-11v11h11z"
         id="glyph82" />
      <glyph
         glyph-name="Scaron"
         unicode="Š"
         d="M64 86h11v-11h-11v11zM54 86h10v-11h-10v11zM54 96h10v-10h-10v10zM64 96h11v-10h-11v10zM54 107h10v-11h-10v11zM43 107h11v-11h-11v11zM43 96h11v-10h-11v10zM32 96h11v-10h-11v10zM21 96h11v-10h-11v10zM21 107h11v-11h-11v11zM11 107h10v-11h-10v11zM32 107h11v-11 h-11v11zM11 96h10v-10h-10v10zM0 96h11v-10h-11v10zM0 86h11v-11h-11v11zM11 86h10v-11h-10v11zM11 75h10v-11h-10v11zM11 64h10v-10h-10v10zM0 64h11v-10h-11v10zM0 75h11v-11h-11v11zM11 54h10v-11h-10v11zM21 54h11v-11h-11v11zM21 64h11v-10h-11v10zM32 64h11v-10h-11 v10zM43 64h11v-10h-11v10zM54 64h10v-10h-10v10zM54 54h10v-11h-10v11zM43 54h11v-11h-11v11zM32 54h11v-11h-11v11zM64 54h11v-11h-11v11zM64 43h11v-11h-11v11zM54 43h10v-11h-10v11zM43 21h11v-10h-11v10zM54 21h10v-10h-10v10zM54 32h10v-11h-10v11zM64 32h11v-11h-11 v11zM64 21h11v-10h-11v10zM54 11h10v-11h-10v11zM43 11h11v-11h-11v11zM32 11h11v-11h-11v11zM21 11h11v-11h-11v11zM11 11h10v-11h-10v11zM11 21h10v-10h-10v10zM21 21h11v-10h-11v10zM32 21h11v-10h-11v10zM0 21h11v-10h-11v10zM0 32h11v-11h-11v11zM11 32h10v-11h-10v11z M21 139v11h11v-11h-11zM43 139v11h11v-11h-11zM11 139v11h10v-11h-10zM32 129v10h11v-10h-11zM21 129v10h11v-10h-11zM54 150h10v-11h-10v11zM43 139h11v-10h-11v10zM32 129h11v-11h-11v11z"
         id="glyph83" />
      <glyph
         glyph-name="Scedilla"
         unicode="Ş"
         d="M64 86h11v-11h-11v11zM54 86h11v-11h-11v11zM54 97h11v-11h-11v11zM64 97h11v-11h-11v11zM54 107h11v-11h-11v11zM43 107h11v-11h-11v11zM43 97h11v-11h-11v11zM32 97h11v-11h-11v11zM21 97h11v-11h-11v11zM21 107h11v-11h-11v11zM11 107h11v-11h-11v11zM32 107h11v-11 h-11v11zM11 97h11v-11h-11v11zM0 97h11v-11h-11v11zM0 86h11v-11h-11v11zM11 86h11v-11h-11v11zM11 75h11v-11h-11v11zM11 65h11v-11h-11v11zM0 65h11v-11h-11v11zM0 75h11v-11h-11v11zM11 54h11v-11h-11v11zM21 54h11v-11h-11v11zM21 65h11v-11h-11v11zM32 65h11v-11h-11 v11zM43 65h11v-11h-11v11zM54 65h11v-11h-11v11zM54 54h11v-11h-11v11zM43 54h11v-11h-11v11zM32 54h11v-11h-11v11zM64 54h11v-11h-11v11zM64 43h11v-11h-11v11zM54 43h11v-11h-11v11zM43 22h11v-11h-11v11zM54 22h11v-11h-11v11zM54 32h11v-11h-11v11zM64 32h11v-11h-11 v11zM64 22h11v-11h-11v11zM54 11h11v-11h-11v11zM43 11h11v-11h-11v11zM32 11h11v-11h-11v11zM21 11h11v-11h-11v11zM11 11h11v-11h-11v11zM11 22h11v-11h-11v11zM21 22h11v-11h-11v11zM32 22h11v-11h-11v11zM0 22h11v-11h-11v11zM0 32h11v-11h-11v11zM11 32h11v-11h-11v11z M32 0h11v-11h-11v11zM43 -10h11v-11h-11v11zM43 -21h11v-11h-11v11zM32 -21h11v-11h-11v11zM32 -32h11v-11h-11v11zM43 -32h11v-11h-11v11z"
         id="glyph84" />
      <glyph
         glyph-name="uni0218"
         unicode="Ș"
         d="M64 86h11v-11h-11v11zM54 86h11v-11h-11v11zM54 97h11v-11h-11v11zM64 97h11v-11h-11v11zM54 107h11v-11h-11v11zM43 107h11v-11h-11v11zM43 97h11v-11h-11v11zM32 97h11v-11h-11v11zM21 97h11v-11h-11v11zM21 107h11v-11h-11v11zM11 107h11v-11h-11v11zM32 107h11v-11 h-11v11zM11 97h11v-11h-11v11zM0 97h11v-11h-11v11zM0 86h11v-11h-11v11zM11 86h11v-11h-11v11zM11 75h11v-11h-11v11zM11 65h11v-11h-11v11zM0 65h11v-11h-11v11zM0 75h11v-11h-11v11zM11 54h11v-11h-11v11zM21 54h11v-11h-11v11zM21 65h11v-11h-11v11zM32 65h11v-11h-11 v11zM43 65h11v-11h-11v11zM54 65h11v-11h-11v11zM54 54h11v-11h-11v11zM43 54h11v-11h-11v11zM32 54h11v-11h-11v11zM64 54h11v-11h-11v11zM64 43h11v-11h-11v11zM54 43h11v-11h-11v11zM43 22h11v-11h-11v11zM54 22h11v-11h-11v11zM54 32h11v-11h-11v11zM64 32h11v-11h-11 v11zM64 22h11v-11h-11v11zM54 11h11v-11h-11v11zM43 11h11v-11h-11v11zM32 11h11v-11h-11v11zM21 11h11v-11h-11v11zM11 11h11v-11h-11v11zM11 22h11v-11h-11v11zM21 22h11v-11h-11v11zM32 22h11v-11h-11v11zM0 22h11v-11h-11v11zM0 32h11v-11h-11v11zM11 32h11v-11h-11v11z M32 -10h11v-11h-11v11zM43 -10h11v-11h-11v11zM43 -21h11v-11h-11v11zM32 -21h11v-11h-11v11zM43 -32h11v-11h-11v11zM32 -43h11v-11h-11v11z"
         id="glyph85" />
      <glyph
         glyph-name="uni1E9E"
         unicode="ẞ"
         d="M0 11h11v-11h-11v11zM11 11h11v-11h-11v11zM11 22h11v-11h-11v11zM11 32h11v-11h-11v11zM11 43h11v-11h-11v11zM11 54h11v-11h-11v11zM11 65h11v-11h-11v11zM11 75h11v-11h-11v11zM11 86h11v-11h-11v11zM0 86h11v-11h-11v11zM0 75h11v-11h-11v11zM0 65h11v-11h-11v11z M0 54h11v-11h-11v11zM0 43h11v-11h-11v11zM0 32h11v-11h-11v11zM0 22h11v-11h-11v11zM0 97h11v-11h-11v11zM11 97h11v-11h-11v11zM11 107h11v-11h-11v11zM21 107h11v-11h-11v11zM32 107h11v-11h-11v11zM32 97h11v-11h-11v11zM21 97h11v-11h-11v11zM43 97h11v-11h-11v11z M43 107h11v-11h-11v11zM64 107h11v-11h-11v11zM54 97h11v-11h-11v11zM54 107h11v-11h-11v11zM54 86h11v-11h-11v11zM43 75h11v-11h-11v11zM32 65h11v-11h-11v11zM32 54h11v-11h-11v11zM43 54h11v-11h-11v11zM54 54h11v-11h-11v11zM64 43h11v-11h-11v11zM64 32h11v-11h-11v11 zM64 22h11v-11h-11v11zM54 11h11v-11h-11v11zM43 11h11v-11h-11v11zM32 11h11v-11h-11v11zM43 86h11v-11h-11v11zM32 75h11v-11h-11v11zM64 97h11v-11h-11v11zM32 22h11v-11h-11v11zM43 22h11v-11h-11v11zM54 22h11v-11h-11v11zM54 32h11v-11h-11v11zM54 43h11v-11h-11v11z M43 65h11v-11h-11v11zM54 65h11v-11h-11v11zM64 54h11v-11h-11v11zM0 107h11v-11h-11v11z"
         id="glyph86" />
      <glyph
         glyph-name="T"
         unicode="T"
         horiz-adv-x="75"
         d="M0 107h11v-11h-11v11zM11 107h11v-11h-11v11zM21 107h11v-11h-11v11zM32 107h11v-11h-11v11zM43 107h11v-11h-11v11zM54 107h11v-11h-11v11zM54 97h11v-11h-11v11zM43 97h11v-11h-11v11zM32 97h11v-11h-11v11zM21 97h11v-11h-11v11zM11 97h11v-11h-11v11zM0 97h11v-11 h-11v11zM21 86h11v-11h-11v11zM21 75h11v-11h-11v11zM21 65h11v-11h-11v11zM21 54h11v-11h-11v11zM21 43h11v-11h-11v11zM21 32h11v-11h-11v11zM32 43h11v-11h-11v11zM32 54h11v-11h-11v11zM32 65h11v-11h-11v11zM32 75h11v-11h-11v11zM32 86h11v-11h-11v11zM32 32h11v-11 h-11v11zM32 22h11v-11h-11v11zM32 11h11v-11h-11v11zM21 11h11v-11h-11v11zM21 22h11v-11h-11v11z"
         id="glyph87" />
      <glyph
         glyph-name="Tcaron"
         unicode="Ť"
         horiz-adv-x="75"
         d="M0 107h11v-11h-11v11zM11 107h10v-11h-10v11zM21 107h11v-11h-11v11zM32 107h11v-11h-11v11zM43 107h11v-11h-11v11zM54 107h10v-11h-10v11zM54 96h10v-10h-10v10zM43 96h11v-10h-11v10zM32 96h11v-10h-11v10zM21 96h11v-10h-11v10zM11 96h10v-10h-10v10zM0 96h11v-10 h-11v10zM21 86h11v-11h-11v11zM21 75h11v-11h-11v11zM21 64h11v-10h-11v10zM21 54h11v-11h-11v11zM21 43h11v-11h-11v11zM21 32h11v-11h-11v11zM32 43h11v-11h-11v11zM32 54h11v-11h-11v11zM32 64h11v-10h-11v10zM32 75h11v-11h-11v11zM32 86h11v-11h-11v11zM32 32h11v-11 h-11v11zM32 21h11v-10h-11v10zM32 11h11v-11h-11v11zM21 11h11v-11h-11v11zM21 21h11v-10h-11v10zM21 139v11h11v-11h-11zM43 139v11h11v-11h-11zM11 139v11h10v-11h-10zM32 129v10h11v-10h-11zM21 129v10h11v-10h-11zM54 150h10v-11h-10v11zM43 139h11v-10h-11v10zM32 129 h11v-11h-11v11z"
         id="glyph88" />
      <glyph
         glyph-name="uni021A"
         unicode="Ț"
         horiz-adv-x="75"
         d="M0 107h11v-11h-11v11zM11 107h11v-11h-11v11zM21 107h11v-11h-11v11zM32 107h11v-11h-11v11zM43 107h11v-11h-11v11zM54 107h11v-11h-11v11zM54 97h11v-11h-11v11zM43 97h11v-11h-11v11zM32 97h11v-11h-11v11zM21 97h11v-11h-11v11zM11 97h11v-11h-11v11zM0 97h11v-11 h-11v11zM21 86h11v-11h-11v11zM21 75h11v-11h-11v11zM21 65h11v-11h-11v11zM21 54h11v-11h-11v11zM21 43h11v-11h-11v11zM21 32h11v-11h-11v11zM32 43h11v-11h-11v11zM32 54h11v-11h-11v11zM32 65h11v-11h-11v11zM32 75h11v-11h-11v11zM32 86h11v-11h-11v11zM32 32h11v-11 h-11v11zM32 22h11v-11h-11v11zM32 11h11v-11h-11v11zM21 11h11v-11h-11v11zM21 22h11v-11h-11v11zM21 -10h11v-11h-11v11zM32 -10h11v-11h-11v11zM32 -21h11v-11h-11v11zM21 -21h11v-11h-11v11zM32 -32h11v-11h-11v11zM21 -43h11v-11h-11v11z"
         id="glyph89" />
      <glyph
         glyph-name="U"
         unicode="U"
         d="M11 97h11v-11h-11v11zM54 97h11v-11h-11v11zM54 86h11v-11h-11v11zM64 97h11v-11h-11v11zM64 86h11v-11h-11v11zM64 75h11v-11h-11v11zM64 65h11v-11h-11v11zM64 54h11v-11h-11v11zM64 43h11v-11h-11v11zM64 32h11v-11h-11v11zM64 22h11v-11h-11v11zM54 22h11v-11h-11v11 zM54 32h11v-11h-11v11zM54 43h11v-11h-11v11zM54 54h11v-11h-11v11zM54 65h11v-11h-11v11zM54 75h11v-11h-11v11zM43 32h11v-11h-11v11zM43 22h11v-11h-11v11zM54 11h11v-11h-11v11zM43 11h11v-11h-11v11zM32 11h11v-11h-11v11zM32 22h11v-11h-11v11zM21 11h11v-11h-11v11z M11 11h11v-11h-11v11zM11 22h11v-11h-11v11zM21 22h11v-11h-11v11zM21 32h11v-11h-11v11zM11 32h11v-11h-11v11zM0 22h11v-11h-11v11zM0 32h11v-11h-11v11zM0 43h11v-11h-11v11zM0 54h11v-11h-11v11zM0 65h11v-11h-11v11zM0 75h11v-11h-11v11zM0 86h11v-11h-11v11zM11 86h11 v-11h-11v11zM0 97h11v-11h-11v11zM11 75h11v-11h-11v11zM11 65h11v-11h-11v11zM11 54h11v-11h-11v11zM11 43h11v-11h-11v11zM0 107h11v-11h-11v11zM11 107h11v-11h-11v11zM54 107h11v-11h-11v11zM64 107h11v-11h-11v11z"
         id="glyph90" />
      <glyph
         glyph-name="Uacute"
         unicode="Ú"
         d="M11 96h10v-10h-10v10zM54 96h10v-10h-10v10zM54 86h10v-11h-10v11zM64 96h11v-10h-11v10zM64 86h11v-11h-11v11zM64 75h11v-11h-11v11zM64 64h11v-10h-11v10zM64 54h11v-11h-11v11zM64 43h11v-11h-11v11zM64 32h11v-11h-11v11zM64 21h11v-10h-11v10zM54 21h10v-10h-10v10 zM54 32h10v-11h-10v11zM54 43h10v-11h-10v11zM54 54h10v-11h-10v11zM54 64h10v-10h-10v10zM54 75h10v-11h-10v11zM43 32h11v-11h-11v11zM43 21h11v-10h-11v10zM54 11h10v-11h-10v11zM43 11h11v-11h-11v11zM32 11h11v-11h-11v11zM32 21h11v-10h-11v10zM21 11h11v-11h-11v11z M11 11h10v-11h-10v11zM11 21h10v-10h-10v10zM21 21h11v-10h-11v10zM21 32h11v-11h-11v11zM11 32h10v-11h-10v11zM0 21h11v-10h-11v10zM0 32h11v-11h-11v11zM0 43h11v-11h-11v11zM0 54h11v-11h-11v11zM0 64h11v-10h-11v10zM0 75h11v-11h-11v11zM0 86h11v-11h-11v11zM11 86h10 v-11h-10v11zM0 96h11v-10h-11v10zM11 75h10v-11h-10v11zM11 64h10v-10h-10v10zM11 54h10v-11h-10v11zM11 43h10v-11h-10v11zM0 107h11v-11h-11v11zM11 107h10v-11h-10v11zM54 107h10v-11h-10v11zM64 107h11v-11h-11v11zM43 139v-10h-11v10h11zM43 129v-11h-11v11h11zM54 139 v-10h-11v10h11zM54 150v-11h-11v11h11z"
         id="glyph91" />
      <glyph
         glyph-name="Ubreve"
         unicode="Ŭ"
         d="M11 96h10v-10h-10v10zM54 96h10v-10h-10v10zM54 86h10v-11h-10v11zM64 96h11v-10h-11v10zM64 86h11v-11h-11v11zM64 75h11v-11h-11v11zM64 64h11v-10h-11v10zM64 54h11v-11h-11v11zM64 43h11v-11h-11v11zM64 32h11v-11h-11v11zM64 21h11v-10h-11v10zM54 21h10v-10h-10v10 zM54 32h10v-11h-10v11zM54 43h10v-11h-10v11zM54 54h10v-11h-10v11zM54 64h10v-10h-10v10zM54 75h10v-11h-10v11zM43 32h11v-11h-11v11zM43 21h11v-10h-11v10zM54 11h10v-11h-10v11zM43 11h11v-11h-11v11zM32 11h11v-11h-11v11zM32 21h11v-10h-11v10zM21 11h11v-11h-11v11z M11 11h10v-11h-10v11zM11 21h10v-10h-10v10zM21 21h11v-10h-11v10zM21 32h11v-11h-11v11zM11 32h10v-11h-10v11zM0 21h11v-10h-11v10zM0 32h11v-11h-11v11zM0 43h11v-11h-11v11zM0 54h11v-11h-11v11zM0 64h11v-10h-11v10zM0 75h11v-11h-11v11zM0 86h11v-11h-11v11zM11 86h10 v-11h-10v11zM0 96h11v-10h-11v10zM11 75h10v-11h-10v11zM11 64h10v-10h-10v10zM11 54h10v-11h-10v11zM11 43h10v-11h-10v11zM0 107h11v-11h-11v11zM11 107h10v-11h-10v11zM54 107h10v-11h-10v11zM64 107h11v-11h-11v11zM21 129v10h11v-10h-11zM11 139v11h10v-11h-10zM43 129 v10h11v-10h-11zM11 129v10h10v-10h-10zM32 118v11h11v-11h-11zM21 118v11h11v-11h-11zM54 150h10v-11h-10v11zM54 139h10v-10h-10v10zM43 129h11v-11h-11v11zM32 139h11v-10h-11v10z"
         id="glyph92" />
      <glyph
         glyph-name="Ucircumflex"
         unicode="Û"
         d="M11 97h11v-11h-11v11zM54 97h11v-11h-11v11zM54 86h11v-11h-11v11zM64 97h11v-11h-11v11zM64 86h11v-11h-11v11zM64 75h11v-11h-11v11zM64 65h11v-11h-11v11zM64 54h11v-11h-11v11zM64 43h11v-11h-11v11zM64 32h11v-11h-11v11zM64 22h11v-11h-11v11zM54 22h11v-11h-11v11 zM54 32h11v-11h-11v11zM54 43h11v-11h-11v11zM54 54h11v-11h-11v11zM54 65h11v-11h-11v11zM54 75h11v-11h-11v11zM43 32h11v-11h-11v11zM43 22h11v-11h-11v11zM54 11h11v-11h-11v11zM43 11h11v-11h-11v11zM32 11h11v-11h-11v11zM32 22h11v-11h-11v11zM21 11h11v-11h-11v11z M11 11h11v-11h-11v11zM11 22h11v-11h-11v11zM21 22h11v-11h-11v11zM21 32h11v-11h-11v11zM11 32h11v-11h-11v11zM0 22h11v-11h-11v11zM0 32h11v-11h-11v11zM0 43h11v-11h-11v11zM0 54h11v-11h-11v11zM0 65h11v-11h-11v11zM0 75h11v-11h-11v11zM0 86h11v-11h-11v11zM11 86h11 v-11h-11v11zM0 97h11v-11h-11v11zM11 75h11v-11h-11v11zM11 65h11v-11h-11v11zM11 54h11v-11h-11v11zM11 43h11v-11h-11v11zM0 107h11v-11h-11v11zM11 107h11v-11h-11v11zM54 107h11v-11h-11v11zM64 107h11v-11h-11v11zM21 129h11v-11h-11v11zM43 129h11v-11h-11v11zM11 129 h11v-11h-11v11zM32 140h11v-11h-11v11zM21 140h11v-11h-11v11zM54 129h11v-11h-11v11zM43 140h11v-11h-11v11zM32 150h11v-11h-11v11z"
         id="glyph93" />
      <glyph
         glyph-name="Udieresis"
         unicode="Ü"
         d="M11 97h11v-11h-11v11zM54 97h11v-11h-11v11zM54 86h11v-11h-11v11zM64 97h11v-11h-11v11zM64 86h11v-11h-11v11zM64 75h11v-11h-11v11zM64 65h11v-11h-11v11zM64 54h11v-11h-11v11zM64 43h11v-11h-11v11zM64 32h11v-11h-11v11zM64 22h11v-11h-11v11zM54 22h11v-11h-11v11 zM54 32h11v-11h-11v11zM54 43h11v-11h-11v11zM54 54h11v-11h-11v11zM54 65h11v-11h-11v11zM54 75h11v-11h-11v11zM43 32h11v-11h-11v11zM43 22h11v-11h-11v11zM54 11h11v-11h-11v11zM43 11h11v-11h-11v11zM32 11h11v-11h-11v11zM32 22h11v-11h-11v11zM21 11h11v-11h-11v11z M11 11h11v-11h-11v11zM11 22h11v-11h-11v11zM21 22h11v-11h-11v11zM21 32h11v-11h-11v11zM11 32h11v-11h-11v11zM0 22h11v-11h-11v11zM0 32h11v-11h-11v11zM0 43h11v-11h-11v11zM0 54h11v-11h-11v11zM0 65h11v-11h-11v11zM0 75h11v-11h-11v11zM0 86h11v-11h-11v11zM11 86h11 v-11h-11v11zM0 97h11v-11h-11v11zM11 75h11v-11h-11v11zM11 65h11v-11h-11v11zM11 54h11v-11h-11v11zM11 43h11v-11h-11v11zM0 107h11v-11h-11v11zM11 107h11v-11h-11v11zM54 107h11v-11h-11v11zM64 107h11v-11h-11v11zM43 140h11v-11h-11v11zM54 140h11v-11h-11v11zM54 129 h11v-11h-11v11zM43 129h11v-11h-11v11zM11 129h11v-11h-11v11zM21 129h11v-11h-11v11zM21 140h11v-11h-11v11zM11 140h11v-11h-11v11z"
         id="glyph94" />
      <glyph
         glyph-name="Ugrave"
         unicode="Ù"
         d="M11 97h11v-11h-11v11zM54 97h11v-11h-11v11zM54 86h11v-11h-11v11zM64 97h11v-11h-11v11zM64 86h11v-11h-11v11zM64 75h11v-11h-11v11zM64 65h11v-11h-11v11zM64 54h11v-11h-11v11zM64 43h11v-11h-11v11zM64 32h11v-11h-11v11zM64 22h11v-11h-11v11zM54 22h11v-11h-11v11 zM54 32h11v-11h-11v11zM54 43h11v-11h-11v11zM54 54h11v-11h-11v11zM54 65h11v-11h-11v11zM54 75h11v-11h-11v11zM43 32h11v-11h-11v11zM43 22h11v-11h-11v11zM54 11h11v-11h-11v11zM43 11h11v-11h-11v11zM32 11h11v-11h-11v11zM32 22h11v-11h-11v11zM21 11h11v-11h-11v11z M11 11h11v-11h-11v11zM11 22h11v-11h-11v11zM21 22h11v-11h-11v11zM21 32h11v-11h-11v11zM11 32h11v-11h-11v11zM0 22h11v-11h-11v11zM0 32h11v-11h-11v11zM0 43h11v-11h-11v11zM0 54h11v-11h-11v11zM0 65h11v-11h-11v11zM0 75h11v-11h-11v11zM0 86h11v-11h-11v11zM11 86h11 v-11h-11v11zM0 97h11v-11h-11v11zM11 75h11v-11h-11v11zM11 65h11v-11h-11v11zM11 54h11v-11h-11v11zM11 43h11v-11h-11v11zM0 107h11v-11h-11v11zM11 107h11v-11h-11v11zM54 107h11v-11h-11v11zM64 107h11v-11h-11v11zM32 140h11v-11h-11v11zM32 129h11v-11h-11v11zM21 140 h11v-11h-11v11zM43 129h11v-11h-11v11zM21 150h11v-11h-11v11z"
         id="glyph95" />
      <glyph
         glyph-name="Uhungarumlaut"
         unicode="Ű"
         d="M11 96h10v-10h-10v10zM54 96h10v-10h-10v10zM54 86h10v-11h-10v11zM64 96h11v-10h-11v10zM64 86h11v-11h-11v11zM64 75h11v-11h-11v11zM64 64h11v-10h-11v10zM64 54h11v-11h-11v11zM64 43h11v-11h-11v11zM64 32h11v-11h-11v11zM64 21h11v-10h-11v10zM54 21h10v-10h-10v10 zM54 32h10v-11h-10v11zM54 43h10v-11h-10v11zM54 54h10v-11h-10v11zM54 64h10v-10h-10v10zM54 75h10v-11h-10v11zM43 32h11v-11h-11v11zM43 21h11v-10h-11v10zM54 11h10v-11h-10v11zM43 11h11v-11h-11v11zM32 11h11v-11h-11v11zM32 21h11v-10h-11v10zM21 11h11v-11h-11v11z M11 11h10v-11h-10v11zM11 21h10v-10h-10v10zM21 21h11v-10h-11v10zM21 32h11v-11h-11v11zM11 32h10v-11h-10v11zM0 21h11v-10h-11v10zM0 32h11v-11h-11v11zM0 43h11v-11h-11v11zM0 54h11v-11h-11v11zM0 64h11v-10h-11v10zM0 75h11v-11h-11v11zM0 86h11v-11h-11v11zM11 86h10 v-11h-10v11zM0 96h11v-10h-11v10zM11 75h10v-11h-10v11zM11 64h10v-10h-10v10zM11 54h10v-11h-10v11zM11 43h10v-11h-10v11zM0 107h11v-11h-11v11zM11 107h10v-11h-10v11zM54 107h10v-11h-10v11zM64 107h11v-11h-11v11zM21 139v-10h-10v10h10zM21 129v-11h-10v11h10zM32 139 v-10h-11v10h11zM11 129v-11h-11v11h11zM32 150v-11h-11v11h11zM54 139v-10h-11v10h11zM54 129v-11h-11v11h11zM64 139v-10h-10v10h10zM43 129v-11h-11v11h11zM64 150v-11h-10v11h10z"
         id="glyph96" />
      <glyph
         glyph-name="Umacron"
         unicode="Ū"
         d="M11 97h11v-11h-11v11zM54 97h11v-11h-11v11zM54 86h11v-11h-11v11zM64 97h11v-11h-11v11zM64 86h11v-11h-11v11zM64 75h11v-11h-11v11zM64 65h11v-11h-11v11zM64 54h11v-11h-11v11zM64 43h11v-11h-11v11zM64 32h11v-11h-11v11zM64 22h11v-11h-11v11zM54 22h11v-11h-11v11 zM54 32h11v-11h-11v11zM54 43h11v-11h-11v11zM54 54h11v-11h-11v11zM54 65h11v-11h-11v11zM54 75h11v-11h-11v11zM43 32h11v-11h-11v11zM43 22h11v-11h-11v11zM54 11h11v-11h-11v11zM43 11h11v-11h-11v11zM32 11h11v-11h-11v11zM32 22h11v-11h-11v11zM21 11h11v-11h-11v11z M11 11h11v-11h-11v11zM11 22h11v-11h-11v11zM21 22h11v-11h-11v11zM21 32h11v-11h-11v11zM11 32h11v-11h-11v11zM0 22h11v-11h-11v11zM0 32h11v-11h-11v11zM0 43h11v-11h-11v11zM0 54h11v-11h-11v11zM0 65h11v-11h-11v11zM0 75h11v-11h-11v11zM0 86h11v-11h-11v11zM11 86h11 v-11h-11v11zM0 97h11v-11h-11v11zM11 75h11v-11h-11v11zM11 65h11v-11h-11v11zM11 54h11v-11h-11v11zM11 43h11v-11h-11v11zM0 107h11v-11h-11v11zM11 107h11v-11h-11v11zM54 107h11v-11h-11v11zM64 107h11v-11h-11v11zM21 140h11v-11h-11v11zM32 140h11v-11h-11v11zM32 129 h11v-11h-11v11zM21 129h11v-11h-11v11zM11 140h11v-11h-11v11zM11 129h11v-11h-11v11zM43 140h11v-11h-11v11zM43 129h11v-11h-11v11zM54 140h11v-11h-11v11zM54 129h11v-11h-11v11z"
         id="glyph97" />
      <glyph
         glyph-name="Uogonek"
         unicode="Ų"
         d="M11 96h10v-10h-10v10zM54 96h10v-10h-10v10zM54 86h10v-11h-10v11zM64 96h11v-10h-11v10zM64 86h11v-11h-11v11zM64 75h11v-11h-11v11zM64 64h11v-10h-11v10zM64 54h11v-11h-11v11zM64 43h11v-11h-11v11zM64 32h11v-11h-11v11zM64 21h11v-10h-11v10zM54 21h10v-10h-10v10 zM54 32h10v-11h-10v11zM54 43h10v-11h-10v11zM54 54h10v-11h-10v11zM54 64h10v-10h-10v10zM54 75h10v-11h-10v11zM43 32h11v-11h-11v11zM43 21h11v-10h-11v10zM54 11h10v-11h-10v11zM43 11h11v-11h-11v11zM32 11h11v-11h-11v11zM32 21h11v-10h-11v10zM21 11h11v-11h-11v11z M11 11h10v-11h-10v11zM11 21h10v-10h-10v10zM21 21h11v-10h-11v10zM21 32h11v-11h-11v11zM11 32h10v-11h-10v11zM0 21h11v-10h-11v10zM0 32h11v-11h-11v11zM0 43h11v-11h-11v11zM0 54h11v-11h-11v11zM0 64h11v-10h-11v10zM0 75h11v-11h-11v11zM0 86h11v-11h-11v11zM11 86h10 v-11h-10v11zM0 96h11v-10h-11v10zM11 75h10v-11h-10v11zM11 64h10v-10h-10v10zM11 54h10v-11h-10v11zM11 43h10v-11h-10v11zM0 107h11v-11h-11v11zM11 107h10v-11h-10v11zM54 107h10v-11h-10v11zM64 107h11v-11h-11v11zM54 0v-11h-11v11h11zM43 -11v-10h-11v10h11zM43 -21 v-11h-11v11h11zM54 -21v-11h-11v11h11zM32 -32h11v-11h-11v11zM43 -32h11v-11h-11v11z"
         id="glyph98" />
      <glyph
         glyph-name="Uring"
         unicode="Ů"
         d="M11 97h11v-11h-11v11zM54 97h11v-11h-11v11zM54 86h11v-11h-11v11zM64 97h11v-11h-11v11zM64 86h11v-11h-11v11zM64 75h11v-11h-11v11zM64 65h11v-11h-11v11zM64 54h11v-11h-11v11zM64 43h11v-11h-11v11zM64 32h11v-11h-11v11zM64 22h11v-11h-11v11zM54 22h11v-11h-11v11 zM54 32h11v-11h-11v11zM54 43h11v-11h-11v11zM54 54h11v-11h-11v11zM54 65h11v-11h-11v11zM54 75h11v-11h-11v11zM43 32h11v-11h-11v11zM43 22h11v-11h-11v11zM54 11h11v-11h-11v11zM43 11h11v-11h-11v11zM32 11h11v-11h-11v11zM32 22h11v-11h-11v11zM21 11h11v-11h-11v11z M11 11h11v-11h-11v11zM11 22h11v-11h-11v11zM21 22h11v-11h-11v11zM21 32h11v-11h-11v11zM11 32h11v-11h-11v11zM0 22h11v-11h-11v11zM0 32h11v-11h-11v11zM0 43h11v-11h-11v11zM0 54h11v-11h-11v11zM0 65h11v-11h-11v11zM0 75h11v-11h-11v11zM0 86h11v-11h-11v11zM11 86h11 v-11h-11v11zM0 97h11v-11h-11v11zM11 75h11v-11h-11v11zM11 65h11v-11h-11v11zM11 54h11v-11h-11v11zM11 43h11v-11h-11v11zM0 107h11v-11h-11v11zM11 107h11v-11h-11v11zM54 107h11v-11h-11v11zM64 107h11v-11h-11v11zM21 129h11v-11h-11v11zM32 129h11v-11h-11v11zM32 150 h11v-11h-11v11zM21 150h11v-11h-11v11zM43 150h11v-11h-11v11zM43 140h11v-11h-11v11zM43 129h11v-11h-11v11zM21 140h11v-11h-11v11z"
         id="glyph99" />
      <glyph
         glyph-name="V"
         unicode="V"
         d="M32 11h11v-11h-11v11zM32 22h11v-11h-11v11zM32 32h11v-11h-11v11zM21 22h11v-11h-11v11zM21 32h11v-11h-11v11zM21 43h11v-11h-11v11zM11 32h11v-11h-11v11zM11 43h11v-11h-11v11zM43 32h11v-11h-11v11zM43 22h11v-11h-11v11zM43 43h11v-11h-11v11zM54 43h11v-11h-11v11 zM54 32h11v-11h-11v11zM64 43h11v-11h-11v11zM0 43h11v-11h-11v11zM54 107h11v-11h-11v11zM64 107h11v-11h-11v11zM64 97h11v-11h-11v11zM64 86h11v-11h-11v11zM64 75h11v-11h-11v11zM64 65h11v-11h-11v11zM54 65h11v-11h-11v11zM54 54h11v-11h-11v11zM54 75h11v-11h-11v11z M54 86h11v-11h-11v11zM54 97h11v-11h-11v11zM64 54h11v-11h-11v11zM11 54h11v-11h-11v11zM0 54h11v-11h-11v11zM0 65h11v-11h-11v11zM11 65h11v-11h-11v11zM11 75h11v-11h-11v11zM0 75h11v-11h-11v11zM0 86h11v-11h-11v11zM11 86h11v-11h-11v11zM0 107h11v-11h-11v11z M11 107h11v-11h-11v11zM11 97h11v-11h-11v11zM0 97h11v-11h-11v11z"
         id="glyph100" />
      <glyph
         glyph-name="W"
         unicode="W"
         horiz-adv-x="117"
         d="M21 11h11v-11h-11v11zM21 22h11v-11h-11v11zM21 32h11v-11h-11v11zM11 22h11v-11h-11v11zM11 32h11v-11h-11v11zM0 32h11v-11h-11v11zM11 43h11v-11h-11v11zM32 32h11v-11h-11v11zM32 22h11v-11h-11v11zM43 32h11v-11h-11v11zM0 43h11v-11h-11v11zM11 54h11v-11h-11v11z M0 54h11v-11h-11v11zM0 65h11v-11h-11v11zM11 65h11v-11h-11v11zM11 75h11v-11h-11v11zM0 75h11v-11h-11v11zM0 86h11v-11h-11v11zM11 86h11v-11h-11v11zM0 107h11v-11h-11v11zM11 107h11v-11h-11v11zM11 97h11v-11h-11v11zM0 97h11v-11h-11v11zM75 11h11v-11h-11v11zM75 22 h11v-11h-11v11zM75 32h11v-11h-11v11zM64 22h11v-11h-11v11zM64 32h11v-11h-11v11zM54 32h11v-11h-11v11zM54 43h11v-11h-11v11zM86 32h11v-11h-11v11zM86 22h11v-11h-11v11zM86 43h11v-11h-11v11zM96 32h11v-11h-11v11zM96 43h11v-11h-11v11zM43 43h11v-11h-11v11zM86 107 h11v-11h-11v11zM96 107h11v-11h-11v11zM96 97h11v-11h-11v11zM96 86h11v-11h-11v11zM96 75h11v-11h-11v11zM96 65h11v-11h-11v11zM86 65h11v-11h-11v11zM86 54h11v-11h-11v11zM86 75h11v-11h-11v11zM86 86h11v-11h-11v11zM86 97h11v-11h-11v11zM96 54h11v-11h-11v11zM54 54 h11v-11h-11v11zM43 54h11v-11h-11v11zM43 65h11v-11h-11v11zM54 65h11v-11h-11v11zM54 75h11v-11h-11v11zM43 75h11v-11h-11v11zM43 86h11v-11h-11v11zM54 86h11v-11h-11v11zM43 107h11v-11h-11v11zM54 107h11v-11h-11v11zM54 97h11v-11h-11v11zM43 97h11v-11h-11v11z"
         id="glyph101" />
      <glyph
         glyph-name="Wacute"
         unicode="Ẃ"
         horiz-adv-x="117"
         d="M21 11h11v-11h-11v11zM21 21h11v-10h-11v10zM21 32h11v-11h-11v11zM11 21h10v-10h-10v10zM11 32h10v-11h-10v11zM0 32h11v-11h-11v11zM11 43h10v-11h-10v11zM32 32h11v-11h-11v11zM32 21h11v-10h-11v10zM43 32h11v-11h-11v11zM0 43h11v-11h-11v11zM11 54h10v-11h-10v11z M0 54h11v-11h-11v11zM0 64h11v-10h-11v10zM11 64h10v-10h-10v10zM11 75h10v-11h-10v11zM0 75h11v-11h-11v11zM0 86h11v-11h-11v11zM11 86h10v-11h-10v11zM0 107h11v-11h-11v11zM11 107h10v-11h-10v11zM11 96h10v-10h-10v10zM0 96h11v-10h-11v10zM75 11h11v-11h-11v11zM75 21 h11v-10h-11v10zM75 32h11v-11h-11v11zM64 21h11v-10h-11v10zM64 32h11v-11h-11v11zM54 32h10v-11h-10v11zM54 43h10v-11h-10v11zM86 32h10v-11h-10v11zM86 21h10v-10h-10v10zM86 43h10v-11h-10v11zM96 32h11v-11h-11v11zM96 43h11v-11h-11v11zM43 43h11v-11h-11v11zM86 107 h10v-11h-10v11zM96 107h11v-11h-11v11zM96 96h11v-10h-11v10zM96 86h11v-11h-11v11zM96 75h11v-11h-11v11zM96 64h11v-10h-11v10zM86 64h10v-10h-10v10zM86 54h10v-11h-10v11zM86 75h10v-11h-10v11zM86 86h10v-11h-10v11zM86 96h10v-10h-10v10zM96 54h11v-11h-11v11zM54 54 h10v-11h-10v11zM43 54h11v-11h-11v11zM43 64h11v-10h-11v10zM54 64h10v-10h-10v10zM54 75h10v-11h-10v11zM43 75h11v-11h-11v11zM43 86h11v-11h-11v11zM54 86h10v-11h-10v11zM43 107h11v-11h-11v11zM54 107h10v-11h-10v11zM54 96h10v-10h-10v10zM43 96h11v-10h-11v10z M64 139v-10h-10v10h10zM64 129v-11h-10v11h10zM75 139v-10h-11v10h11zM75 150v-11h-11v11h11z"
         id="glyph102" />
      <glyph
         glyph-name="Wcircumflex"
         unicode="Ŵ"
         horiz-adv-x="117"
         d="M32 139h11v11h21v-11h11v-21h-11v11h-21v-11h-11v21zM0 107h21v-75h22v75h21v-75h22v75h21v-86h-11v-10h-10v-11h-11v11h-11v10h-21v-10h-11v-11h-11v11h-10v10h-11v86z"
         id="glyph103" />
      <glyph
         glyph-name="Wdieresis"
         unicode="Ẅ"
         horiz-adv-x="117"
         d="M21 139h22v-21h-22v21zM64 139h22v-21h-22v21zM0 107h21v-75h22v75h21v-75h22v75h21v-86h-11v-10h-10v-11h-11v11h-11v10h-21v-10h-11v-11h-11v11h-10v10h-11v86z"
         id="glyph104" />
      <glyph
         glyph-name="Wgrave"
         unicode="Ẁ"
         horiz-adv-x="117"
         d="M21 11h11v-11h-11v11zM21 22h11v-11h-11v11zM21 32h11v-11h-11v11zM11 22h11v-11h-11v11zM11 32h11v-11h-11v11zM0 32h11v-11h-11v11zM11 43h11v-11h-11v11zM32 32h11v-11h-11v11zM32 22h11v-11h-11v11zM43 32h11v-11h-11v11zM0 43h11v-11h-11v11zM11 54h11v-11h-11v11z M0 54h11v-11h-11v11zM0 65h11v-11h-11v11zM11 65h11v-11h-11v11zM11 75h11v-11h-11v11zM0 75h11v-11h-11v11zM0 86h11v-11h-11v11zM11 86h11v-11h-11v11zM0 107h11v-11h-11v11zM11 107h11v-11h-11v11zM11 97h11v-11h-11v11zM0 97h11v-11h-11v11zM75 11h11v-11h-11v11zM75 22 h11v-11h-11v11zM75 32h11v-11h-11v11zM64 22h11v-11h-11v11zM64 32h11v-11h-11v11zM54 32h11v-11h-11v11zM54 43h11v-11h-11v11zM86 32h11v-11h-11v11zM86 22h11v-11h-11v11zM86 43h11v-11h-11v11zM96 32h11v-11h-11v11zM96 43h11v-11h-11v11zM43 43h11v-11h-11v11zM86 107 h11v-11h-11v11zM96 107h11v-11h-11v11zM96 97h11v-11h-11v11zM96 86h11v-11h-11v11zM96 75h11v-11h-11v11zM96 65h11v-11h-11v11zM86 65h11v-11h-11v11zM86 54h11v-11h-11v11zM86 75h11v-11h-11v11zM86 86h11v-11h-11v11zM86 97h11v-11h-11v11zM96 54h11v-11h-11v11zM54 54 h11v-11h-11v11zM43 54h11v-11h-11v11zM43 65h11v-11h-11v11zM54 65h11v-11h-11v11zM54 75h11v-11h-11v11zM43 75h11v-11h-11v11zM43 86h11v-11h-11v11zM54 86h11v-11h-11v11zM43 107h11v-11h-11v11zM54 107h11v-11h-11v11zM54 97h11v-11h-11v11zM43 97h11v-11h-11v11z M54 140h11v-11h-11v11zM54 129h11v-11h-11v11zM43 140h11v-11h-11v11zM64 129h11v-11h-11v11zM43 150h11v-11h-11v11z"
         id="glyph105" />
      <glyph
         glyph-name="X"
         unicode="X"
         d="M11 107h11v-11h-11v11zM11 97h11v-11h-11v11zM11 86h11v-11h-11v11zM21 86h11v-11h-11v11zM21 75h11v-11h-11v11zM32 75h11v-11h-11v11zM43 75h11v-11h-11v11zM43 86h11v-11h-11v11zM54 86h11v-11h-11v11zM64 86h11v-11h-11v11zM64 97h11v-11h-11v11zM64 107h11v-11h-11 v11zM54 107h11v-11h-11v11zM54 97h11v-11h-11v11zM54 75h11v-11h-11v11zM11 75h11v-11h-11v11zM0 86h11v-11h-11v11zM0 97h11v-11h-11v11zM0 107h11v-11h-11v11zM21 65h11v-11h-11v11zM32 65h11v-11h-11v11zM43 65h11v-11h-11v11zM43 54h11v-11h-11v11zM54 54h11v-11h-11v11 zM54 43h11v-11h-11v11zM43 43h11v-11h-11v11zM64 11h11v-11h-11v11zM64 22h11v-11h-11v11zM64 32h11v-11h-11v11zM64 43h11v-11h-11v11zM54 32h11v-11h-11v11zM54 22h11v-11h-11v11zM54 11h11v-11h-11v11zM0 11h11v-11h-11v11zM11 11h11v-11h-11v11zM11 22h11v-11h-11v11z M11 32h11v-11h-11v11zM0 32h11v-11h-11v11zM0 43h11v-11h-11v11zM0 22h11v-11h-11v11zM11 43h11v-11h-11v11zM21 43h11v-11h-11v11zM21 54h11v-11h-11v11zM11 54h11v-11h-11v11zM32 54h11v-11h-11v11z"
         id="glyph106" />
      <glyph
         glyph-name="Y"
         unicode="Y"
         horiz-adv-x="96"
         d="M0 107h11v-11h-11v11zM11 107h11v-11h-11v11zM11 97h11v-11h-11v11zM11 86h11v-11h-11v11zM0 86h11v-11h-11v11zM0 97h11v-11h-11v11zM0 75h11v-11h-11v11zM0 65h11v-11h-11v11zM11 65h11v-11h-11v11zM11 75h11v-11h-11v11zM11 54h11v-11h-11v11zM21 54h11v-11h-11v11z M21 65h11v-11h-11v11zM21 43h11v-11h-11v11zM32 43h11v-11h-11v11zM32 54h11v-11h-11v11zM43 54h11v-11h-11v11zM43 43h11v-11h-11v11zM54 43h11v-11h-11v11zM54 54h11v-11h-11v11zM54 65h11v-11h-11v11zM64 65h11v-11h-11v11zM64 54h11v-11h-11v11zM64 75h11v-11h-11v11z M64 86h11v-11h-11v11zM64 97h11v-11h-11v11zM64 107h11v-11h-11v11zM75 107h11v-11h-11v11zM75 97h11v-11h-11v11zM75 86h11v-11h-11v11zM75 75h11v-11h-11v11zM75 65h11v-11h-11v11zM32 32h11v-11h-11v11zM32 22h11v-11h-11v11zM32 11h11v-11h-11v11zM43 11h11v-11h-11v11z M43 22h11v-11h-11v11zM43 32h11v-11h-11v11z"
         id="glyph107" />
      <glyph
         glyph-name="Yacute"
         unicode="Ý"
         horiz-adv-x="96"
         d="M0 107h11v-11h-11v11zM11 107h10v-11h-10v11zM11 96h10v-10h-10v10zM11 86h10v-11h-10v11zM0 86h11v-11h-11v11zM0 96h11v-10h-11v10zM0 75h11v-11h-11v11zM0 64h11v-10h-11v10zM11 64h10v-10h-10v10zM11 75h10v-11h-10v11zM11 54h10v-11h-10v11zM21 54h11v-11h-11v11z M21 64h11v-10h-11v10zM21 43h11v-11h-11v11zM32 43h11v-11h-11v11zM32 54h11v-11h-11v11zM43 54h11v-11h-11v11zM43 43h11v-11h-11v11zM54 43h10v-11h-10v11zM54 54h10v-11h-10v11zM54 64h10v-10h-10v10zM64 64h11v-10h-11v10zM64 54h11v-11h-11v11zM64 75h11v-11h-11v11z M64 86h11v-11h-11v11zM64 96h11v-10h-11v10zM64 107h11v-11h-11v11zM75 107h11v-11h-11v11zM75 96h11v-10h-11v10zM75 86h11v-11h-11v11zM75 75h11v-11h-11v11zM75 64h11v-10h-11v10zM32 32h11v-11h-11v11zM32 21h11v-10h-11v10zM32 11h11v-11h-11v11zM43 11h11v-11h-11v11z M43 21h11v-10h-11v10zM43 32h11v-11h-11v11zM54 139v-10h-11v10h11zM54 129v-11h-11v11h11zM64 139v-10h-10v10h10zM64 150v-11h-10v11h10z"
         id="glyph108" />
      <glyph
         glyph-name="Ycircumflex"
         unicode="Ŷ"
         horiz-adv-x="96"
         d="M21 139h11v11h22v-11h10v-21h-10v11h-22v-11h-11v21zM32 32h-11v11h-10v11h-11v53h21v-43h11v-10h22v10h10v43h22v-53h-11v-11h-11v-11h-10v-32h-22v32z"
         id="glyph109" />
      <glyph
         glyph-name="Ydieresis"
         unicode="Ÿ"
         horiz-adv-x="96"
         d="M11 139h21v-21h-21v21zM54 139h21v-21h-21v21zM32 32h-11v11h-10v11h-11v53h21v-43h11v-10h22v10h10v43h22v-53h-11v-11h-11v-11h-10v-32h-22v32z"
         id="glyph110" />
      <glyph
         glyph-name="Ygrave"
         unicode="Ỳ"
         horiz-adv-x="96"
         d="M0 107h11v-11h-11v11zM11 107h11v-11h-11v11zM11 97h11v-11h-11v11zM11 86h11v-11h-11v11zM0 86h11v-11h-11v11zM0 97h11v-11h-11v11zM0 75h11v-11h-11v11zM0 65h11v-11h-11v11zM11 65h11v-11h-11v11zM11 75h11v-11h-11v11zM11 54h11v-11h-11v11zM21 54h11v-11h-11v11z M21 65h11v-11h-11v11zM21 43h11v-11h-11v11zM32 43h11v-11h-11v11zM32 54h11v-11h-11v11zM43 54h11v-11h-11v11zM43 43h11v-11h-11v11zM54 43h11v-11h-11v11zM54 54h11v-11h-11v11zM54 65h11v-11h-11v11zM64 65h11v-11h-11v11zM64 54h11v-11h-11v11zM64 75h11v-11h-11v11z M64 86h11v-11h-11v11zM64 97h11v-11h-11v11zM64 107h11v-11h-11v11zM75 107h11v-11h-11v11zM75 97h11v-11h-11v11zM75 86h11v-11h-11v11zM75 75h11v-11h-11v11zM75 65h11v-11h-11v11zM32 32h11v-11h-11v11zM32 22h11v-11h-11v11zM32 11h11v-11h-11v11zM43 11h11v-11h-11v11z M43 22h11v-11h-11v11zM43 32h11v-11h-11v11zM43 140h11v-11h-11v11zM43 129h11v-11h-11v11zM32 140h11v-11h-11v11zM54 129h11v-11h-11v11zM32 150h11v-11h-11v11z"
         id="glyph111" />
      <glyph
         glyph-name="Z"
         unicode="Z"
         horiz-adv-x="96"
         d="M0 107h11v-11h-11v11zM11 107h11v-11h-11v11zM21 107h11v-11h-11v11zM32 107h11v-11h-11v11zM43 107h11v-11h-11v11zM54 107h11v-11h-11v11zM64 107h11v-11h-11v11zM75 107h11v-11h-11v11zM75 97h11v-11h-11v11zM64 97h11v-11h-11v11zM54 97h11v-11h-11v11zM43 97h11v-11 h-11v11zM0 97h11v-11h-11v11zM11 97h11v-11h-11v11zM21 97h11v-11h-11v11zM32 97h11v-11h-11v11zM64 86h11v-11h-11v11zM54 86h11v-11h-11v11zM75 86h11v-11h-11v11zM54 75h11v-11h-11v11zM64 75h11v-11h-11v11zM54 65h11v-11h-11v11zM43 65h11v-11h-11v11zM43 54h11v-11 h-11v11zM32 65h11v-11h-11v11zM43 75h11v-11h-11v11zM32 54h11v-11h-11v11zM21 54h11v-11h-11v11zM21 43h11v-11h-11v11zM32 43h11v-11h-11v11zM11 43h11v-11h-11v11zM11 32h11v-11h-11v11zM0 32h11v-11h-11v11zM21 32h11v-11h-11v11zM21 22h11v-11h-11v11zM11 22h11v-11 h-11v11zM11 11h11v-11h-11v11zM0 11h11v-11h-11v11zM0 22h11v-11h-11v11zM21 11h11v-11h-11v11zM32 11h11v-11h-11v11zM43 11h11v-11h-11v11zM54 11h11v-11h-11v11zM64 11h11v-11h-11v11zM64 22h11v-11h-11v11zM75 11h11v-11h-11v11zM75 22h11v-11h-11v11zM54 22h11v-11h-11 v11zM32 22h11v-11h-11v11zM43 22h11v-11h-11v11z"
         id="glyph112" />
      <glyph
         glyph-name="Zacute"
         unicode="Ź"
         horiz-adv-x="96"
         d="M0 107h11v-11h-11v11zM11 107h10v-11h-10v11zM21 107h11v-11h-11v11zM32 107h11v-11h-11v11zM43 107h11v-11h-11v11zM54 107h10v-11h-10v11zM64 107h11v-11h-11v11zM75 107h11v-11h-11v11zM75 96h11v-10h-11v10zM64 96h11v-10h-11v10zM54 96h10v-10h-10v10zM43 96h11v-10 h-11v10zM0 96h11v-10h-11v10zM11 96h10v-10h-10v10zM21 96h11v-10h-11v10zM32 96h11v-10h-11v10zM64 86h11v-11h-11v11zM54 86h10v-11h-10v11zM75 86h11v-11h-11v11zM54 75h10v-11h-10v11zM64 75h11v-11h-11v11zM54 64h10v-10h-10v10zM43 64h11v-10h-11v10zM43 54h11v-11 h-11v11zM32 64h11v-10h-11v10zM43 75h11v-11h-11v11zM32 54h11v-11h-11v11zM21 54h11v-11h-11v11zM21 43h11v-11h-11v11zM32 43h11v-11h-11v11zM11 43h10v-11h-10v11zM11 32h10v-11h-10v11zM0 32h11v-11h-11v11zM21 32h11v-11h-11v11zM21 21h11v-10h-11v10zM11 21h10v-10 h-10v10zM11 11h10v-11h-10v11zM0 11h11v-11h-11v11zM0 21h11v-10h-11v10zM21 11h11v-11h-11v11zM32 11h11v-11h-11v11zM43 11h11v-11h-11v11zM54 11h10v-11h-10v11zM64 11h11v-11h-11v11zM64 21h11v-10h-11v10zM75 11h11v-11h-11v11zM75 21h11v-10h-11v10zM54 21h10v-10h-10 v10zM32 21h11v-10h-11v10zM43 21h11v-10h-11v10zM54 139v-10h-11v10h11zM54 129v-11h-11v11h11zM64 139v-10h-10v10h10zM64 150v-11h-10v11h10z"
         id="glyph113" />
      <glyph
         glyph-name="Zcaron"
         unicode="Ž"
         horiz-adv-x="96"
         d="M0 107h11v-11h-11v11zM11 107h10v-11h-10v11zM21 107h11v-11h-11v11zM32 107h11v-11h-11v11zM43 107h11v-11h-11v11zM54 107h10v-11h-10v11zM64 107h11v-11h-11v11zM75 107h11v-11h-11v11zM75 96h11v-10h-11v10zM64 96h11v-10h-11v10zM54 96h10v-10h-10v10zM43 96h11v-10 h-11v10zM0 96h11v-10h-11v10zM11 96h10v-10h-10v10zM21 96h11v-10h-11v10zM32 96h11v-10h-11v10zM64 86h11v-11h-11v11zM54 86h10v-11h-10v11zM75 86h11v-11h-11v11zM54 75h10v-11h-10v11zM64 75h11v-11h-11v11zM54 64h10v-10h-10v10zM43 64h11v-10h-11v10zM43 54h11v-11 h-11v11zM32 64h11v-10h-11v10zM43 75h11v-11h-11v11zM32 54h11v-11h-11v11zM21 54h11v-11h-11v11zM21 43h11v-11h-11v11zM32 43h11v-11h-11v11zM11 43h10v-11h-10v11zM11 32h10v-11h-10v11zM0 32h11v-11h-11v11zM21 32h11v-11h-11v11zM21 21h11v-10h-11v10zM11 21h10v-10 h-10v10zM11 11h10v-11h-10v11zM0 11h11v-11h-11v11zM0 21h11v-10h-11v10zM21 11h11v-11h-11v11zM32 11h11v-11h-11v11zM43 11h11v-11h-11v11zM54 11h10v-11h-10v11zM64 11h11v-11h-11v11zM64 21h11v-10h-11v10zM75 11h11v-11h-11v11zM75 21h11v-10h-11v10zM54 21h10v-10h-10 v10zM32 21h11v-10h-11v10zM43 21h11v-10h-11v10zM32 139v11h11v-11h-11zM54 139v11h10v-11h-10zM21 139v11h11v-11h-11zM43 129v10h11v-10h-11zM32 129v10h11v-10h-11zM64 150h11v-11h-11v11zM54 139h10v-10h-10v10zM43 129h11v-11h-11v11z"
         id="glyph114" />
      <glyph
         glyph-name="Zdotaccent"
         unicode="Ż"
         horiz-adv-x="96"
         d="M0 107h11v-11h-11v11zM11 107h11v-11h-11v11zM21 107h11v-11h-11v11zM32 107h11v-11h-11v11zM43 107h11v-11h-11v11zM54 107h11v-11h-11v11zM64 107h11v-11h-11v11zM75 107h11v-11h-11v11zM75 97h11v-11h-11v11zM64 97h11v-11h-11v11zM54 97h11v-11h-11v11zM43 97h11v-11 h-11v11zM0 97h11v-11h-11v11zM11 97h11v-11h-11v11zM21 97h11v-11h-11v11zM32 97h11v-11h-11v11zM64 86h11v-11h-11v11zM54 86h11v-11h-11v11zM75 86h11v-11h-11v11zM54 75h11v-11h-11v11zM64 75h11v-11h-11v11zM54 65h11v-11h-11v11zM43 65h11v-11h-11v11zM43 54h11v-11 h-11v11zM32 65h11v-11h-11v11zM43 75h11v-11h-11v11zM32 54h11v-11h-11v11zM21 54h11v-11h-11v11zM21 43h11v-11h-11v11zM32 43h11v-11h-11v11zM11 43h11v-11h-11v11zM11 32h11v-11h-11v11zM0 32h11v-11h-11v11zM21 32h11v-11h-11v11zM21 22h11v-11h-11v11zM11 22h11v-11 h-11v11zM11 11h11v-11h-11v11zM0 11h11v-11h-11v11zM0 22h11v-11h-11v11zM21 11h11v-11h-11v11zM32 11h11v-11h-11v11zM43 11h11v-11h-11v11zM54 11h11v-11h-11v11zM64 11h11v-11h-11v11zM64 22h11v-11h-11v11zM75 11h11v-11h-11v11zM75 22h11v-11h-11v11zM54 22h11v-11h-11 v11zM32 22h11v-11h-11v11zM43 22h11v-11h-11v11zM32 140h11v-11h-11v11zM43 140h11v-11h-11v11zM43 129h11v-11h-11v11zM32 129h11v-11h-11v11z"
         id="glyph115" />
      <glyph
         glyph-name="a"
         unicode="a"
         d="M64 0h-10v11h10v-11zM64 11h-10v10h10v-10zM54 11h-11v10h11v-10zM43 0h-11v11h11v-11zM32 0h-11v11h11v-11zM21 0h-10v11h10v-11zM21 11h-10v10h10v-10zM32 11h-11v10h11v-10zM11 11h-11v10h11v-10zM11 21h-11v11h11v-11zM11 64h-11v11h11v-11zM21 64h-10v11h10v-11z M21 21h-10v11h10v-11zM32 64h-11v11h11v-11zM21 75h-10v11h10v-11zM32 75h-11v11h11v-11zM43 75h-11v11h11v-11zM54 75h-11v11h11v-11zM64 75h-10v11h10v-11zM64 64h-10v11h10v-11zM54 64h-11v11h11v-11zM64 54h-10v10h10v-10zM75 64h-11v11h11v-11zM75 54h-11v10h11v-10z M75 43h-11v11h11v-11zM75 32h-11v11h11v-11zM75 21h-11v11h11v-11zM75 11h-11v10h11v-10zM64 21h-10v11h10v-11zM64 32h-10v11h10v-11zM64 43h-10v11h10v-11zM43 64h-11v11h11v-11zM43 11h-11v10h11v-10zM64 11h11v-11h-11v11zM43 54h11v-11h-11v11zM32 54h11v-11h-11v11z M21 54h11v-11h-11v11zM11 54h10v-11h-10v11zM0 43h11v-11h-11v11zM11 43h10v-11h-10v11zM43 43h11v-11h-11v11zM32 43h11v-11h-11v11zM21 43h11v-11h-11v11z"
         id="glyph116" />
      <glyph
         glyph-name="aacute"
         unicode="á"
         d="M64 0h-10v11h10v-11zM64 11h-10v10h10v-10zM54 11h-11v10h11v-10zM43 0h-11v11h11v-11zM32 0h-11v11h11v-11zM21 0h-10v11h10v-11zM21 11h-10v10h10v-10zM32 11h-11v10h11v-10zM11 11h-11v10h11v-10zM11 21h-11v11h11v-11zM11 64h-11v11h11v-11zM21 64h-10v11h10v-11z M21 21h-10v11h10v-11zM32 64h-11v11h11v-11zM21 75h-10v11h10v-11zM32 75h-11v11h11v-11zM43 75h-11v11h11v-11zM54 75h-11v11h11v-11zM64 75h-10v11h10v-11zM64 64h-10v11h10v-11zM54 64h-11v11h11v-11zM64 54h-10v10h10v-10zM75 64h-11v11h11v-11zM75 54h-11v10h11v-10z M75 43h-11v11h11v-11zM75 32h-11v11h11v-11zM75 21h-11v11h11v-11zM75 11h-11v10h11v-10zM64 21h-10v11h10v-11zM64 32h-10v11h10v-11zM64 43h-10v11h10v-11zM43 64h-11v11h11v-11zM43 11h-11v10h11v-10zM64 11h11v-11h-11v11zM43 54h11v-11h-11v11zM32 54h11v-11h-11v11z M21 54h11v-11h-11v11zM11 54h10v-11h-10v11zM0 43h11v-11h-11v11zM11 43h10v-11h-10v11zM43 43h11v-11h-11v11zM32 43h11v-11h-11v11zM21 43h11v-11h-11v11zM43 118v-11h-11v11h11zM54 129v-11h-11v11h11zM43 107v-11h-11v11h11zM54 118v-11h-11v11h11zM21 107h11v-11h-11 v11z"
         id="glyph117" />
      <glyph
         glyph-name="abreve"
         unicode="ă"
         d="M64 0h-10v11h10v-11zM64 11h-10v10h10v-10zM54 11h-11v10h11v-10zM43 0h-11v11h11v-11zM32 0h-11v11h11v-11zM21 0h-10v11h10v-11zM21 11h-10v10h10v-10zM32 11h-11v10h11v-10zM11 11h-11v10h11v-10zM11 21h-11v11h11v-11zM11 64h-11v11h11v-11zM21 64h-10v11h10v-11z M21 21h-10v11h10v-11zM32 64h-11v11h11v-11zM21 75h-10v11h10v-11zM32 75h-11v11h11v-11zM43 75h-11v11h11v-11zM54 75h-11v11h11v-11zM64 75h-10v11h10v-11zM64 64h-10v11h10v-11zM54 64h-11v11h11v-11zM64 54h-10v10h10v-10zM75 64h-11v11h11v-11zM75 54h-11v10h11v-10z M75 43h-11v11h11v-11zM75 32h-11v11h11v-11zM75 21h-11v11h11v-11zM75 11h-11v10h11v-10zM64 21h-10v11h10v-11zM64 32h-10v11h10v-11zM64 43h-10v11h10v-11zM43 64h-11v11h11v-11zM43 11h-11v10h11v-10zM64 11h11v-11h-11v11zM43 54h11v-11h-11v11zM32 54h11v-11h-11v11z M21 54h11v-11h-11v11zM11 54h10v-11h-10v11zM0 43h11v-11h-11v11zM11 43h10v-11h-10v11zM43 43h11v-11h-11v11zM32 43h11v-11h-11v11zM21 43h11v-11h-11v11zM21 107v11h11v-11h-11zM11 118v11h10v-11h-10zM11 107v11h10v-11h-10zM32 96v11h11v-11h-11zM21 96v11h11v-11h-11z M43 107h11v-11h-11v11zM54 118h10v-11h-10v11zM54 129h10v-11h-10v11zM43 118h11v-11h-11v11zM32 118h11v-11h-11v11z"
         id="glyph118" />
      <glyph
         glyph-name="acircumflex"
         unicode="â"
         d="M64 0h-10v11h10v-11zM64 11h-10v10h10v-10zM54 11h-11v10h11v-10zM43 0h-11v11h11v-11zM32 0h-11v11h11v-11zM21 0h-10v11h10v-11zM21 11h-10v10h10v-10zM32 11h-11v10h11v-10zM11 11h-11v10h11v-10zM11 21h-11v11h11v-11zM11 64h-11v11h11v-11zM21 64h-10v11h10v-11z M21 21h-10v11h10v-11zM32 64h-11v11h11v-11zM21 75h-10v11h10v-11zM32 75h-11v11h11v-11zM43 75h-11v11h11v-11zM54 75h-11v11h11v-11zM64 75h-10v11h10v-11zM64 64h-10v11h10v-11zM54 64h-11v11h11v-11zM64 54h-10v10h10v-10zM75 64h-11v11h11v-11zM75 54h-11v10h11v-10z M75 43h-11v11h11v-11zM75 32h-11v11h11v-11zM75 21h-11v11h11v-11zM75 11h-11v10h11v-10zM64 21h-10v11h10v-11zM64 32h-10v11h10v-11zM64 43h-10v11h10v-11zM43 64h-11v11h11v-11zM43 11h-11v10h11v-10zM64 11h11v-11h-11v11zM43 54h11v-11h-11v11zM32 54h11v-11h-11v11z M21 54h11v-11h-11v11zM11 54h10v-11h-10v11zM0 43h11v-11h-11v11zM11 43h10v-11h-10v11zM43 43h11v-11h-11v11zM32 43h11v-11h-11v11zM21 43h11v-11h-11v11zM21 107h11v-11h-11v11zM43 107h11v-11h-11v11zM32 118h11v-11h-11v11zM21 118h11v-11h-11v11zM43 118h11v-11h-11 v11zM11 107h10v-11h-10v11zM54 107h10v-11h-10v11zM32 129h11v-11h-11v11z"
         id="glyph119" />
      <glyph
         glyph-name="adieresis"
         unicode="ä"
         d="M64 0h-10v11h10v-11zM64 11h-10v10h10v-10zM54 11h-11v10h11v-10zM43 0h-11v11h11v-11zM32 0h-11v11h11v-11zM21 0h-10v11h10v-11zM21 11h-10v10h10v-10zM32 11h-11v10h11v-10zM11 11h-11v10h11v-10zM11 21h-11v11h11v-11zM11 64h-11v11h11v-11zM21 64h-10v11h10v-11z M21 21h-10v11h10v-11zM32 64h-11v11h11v-11zM21 75h-10v11h10v-11zM32 75h-11v11h11v-11zM43 75h-11v11h11v-11zM54 75h-11v11h11v-11zM64 75h-10v11h10v-11zM64 64h-10v11h10v-11zM54 64h-11v11h11v-11zM64 54h-10v10h10v-10zM75 64h-11v11h11v-11zM75 54h-11v10h11v-10z M75 43h-11v11h11v-11zM75 32h-11v11h11v-11zM75 21h-11v11h11v-11zM75 11h-11v10h11v-10zM64 21h-10v11h10v-11zM64 32h-10v11h10v-11zM64 43h-10v11h10v-11zM43 64h-11v11h11v-11zM43 11h-11v10h11v-10zM64 11h11v-11h-11v11zM43 54h11v-11h-11v11zM32 54h11v-11h-11v11z M21 54h11v-11h-11v11zM11 54h10v-11h-10v11zM0 43h11v-11h-11v11zM11 43h10v-11h-10v11zM43 43h11v-11h-11v11zM32 43h11v-11h-11v11zM21 43h11v-11h-11v11zM43 118h11v-11h-11v11zM54 118h10v-11h-10v11zM54 107h10v-11h-10v11zM43 107h11v-11h-11v11zM11 107h10v-11h-10 v11zM21 107h11v-11h-11v11zM21 118h11v-11h-11v11zM11 118h10v-11h-10v11z"
         id="glyph120" />
      <glyph
         glyph-name="agrave"
         unicode="à"
         d="M64 0h-10v11h10v-11zM64 11h-10v10h10v-10zM54 11h-11v10h11v-10zM43 0h-11v11h11v-11zM32 0h-11v11h11v-11zM21 0h-10v11h10v-11zM21 11h-10v10h10v-10zM32 11h-11v10h11v-10zM11 11h-11v10h11v-10zM11 21h-11v11h11v-11zM11 64h-11v11h11v-11zM21 64h-10v11h10v-11z M21 21h-10v11h10v-11zM32 64h-11v11h11v-11zM21 75h-10v11h10v-11zM32 75h-11v11h11v-11zM43 75h-11v11h11v-11zM54 75h-11v11h11v-11zM64 75h-10v11h10v-11zM64 64h-10v11h10v-11zM54 64h-11v11h11v-11zM64 54h-10v10h10v-10zM75 64h-11v11h11v-11zM75 54h-11v10h11v-10z M75 43h-11v11h11v-11zM75 32h-11v11h11v-11zM75 21h-11v11h11v-11zM75 11h-11v10h11v-10zM64 21h-10v11h10v-11zM64 32h-10v11h10v-11zM64 43h-10v11h10v-11zM43 64h-11v11h11v-11zM43 11h-11v10h11v-10zM64 11h11v-11h-11v11zM43 54h11v-11h-11v11zM32 54h11v-11h-11v11z M21 54h11v-11h-11v11zM11 54h10v-11h-10v11zM0 43h11v-11h-11v11zM11 43h10v-11h-10v11zM43 43h11v-11h-11v11zM32 43h11v-11h-11v11zM21 43h11v-11h-11v11zM32 118h11v-11h-11v11zM21 129h11v-11h-11v11zM32 107h11v-11h-11v11zM21 118h11v-11h-11v11zM43 107h11v-11h-11 v11z"
         id="glyph121" />
      <glyph
         glyph-name="amacron"
         unicode="ā"
         d="M64 0h-10v11h10v-11zM64 11h-10v10h10v-10zM54 11h-11v10h11v-10zM43 0h-11v11h11v-11zM32 0h-11v11h11v-11zM21 0h-10v11h10v-11zM21 11h-10v10h10v-10zM32 11h-11v10h11v-10zM11 11h-11v10h11v-10zM11 21h-11v11h11v-11zM11 64h-11v11h11v-11zM21 64h-10v11h10v-11z M21 21h-10v11h10v-11zM32 64h-11v11h11v-11zM21 75h-10v11h10v-11zM32 75h-11v11h11v-11zM43 75h-11v11h11v-11zM54 75h-11v11h11v-11zM64 75h-10v11h10v-11zM64 64h-10v11h10v-11zM54 64h-11v11h11v-11zM64 54h-10v10h10v-10zM75 64h-11v11h11v-11zM75 54h-11v10h11v-10z M75 43h-11v11h11v-11zM75 32h-11v11h11v-11zM75 21h-11v11h11v-11zM75 11h-11v10h11v-10zM64 21h-10v11h10v-11zM64 32h-10v11h10v-11zM64 43h-10v11h10v-11zM43 64h-11v11h11v-11zM43 11h-11v10h11v-10zM64 11h11v-11h-11v11zM43 54h11v-11h-11v11zM32 54h11v-11h-11v11z M21 54h11v-11h-11v11zM11 54h10v-11h-10v11zM0 43h11v-11h-11v11zM11 43h10v-11h-10v11zM43 43h11v-11h-11v11zM32 43h11v-11h-11v11zM21 43h11v-11h-11v11zM21 129h11v-11h-11v11zM32 129h11v-11h-11v11zM32 118h11v-11h-11v11zM21 118h11v-11h-11v11zM11 129h10v-11h-10 v11zM11 118h10v-11h-10v11zM43 129h11v-11h-11v11zM43 118h11v-11h-11v11zM54 129h10v-11h-10v11zM54 118h10v-11h-10v11z"
         id="glyph122" />
      <glyph
         glyph-name="aogonek"
         unicode="ą"
         d="M64 0h-10v11h10v-11zM64 11h-10v10h10v-10zM54 11h-11v10h11v-10zM43 0h-11v11h11v-11zM32 0h-11v11h11v-11zM21 0h-10v11h10v-11zM21 11h-10v10h10v-10zM32 11h-11v10h11v-10zM11 11h-11v10h11v-10zM11 21h-11v11h11v-11zM11 64h-11v11h11v-11zM21 64h-10v11h10v-11z M21 21h-10v11h10v-11zM32 64h-11v11h11v-11zM21 75h-10v11h10v-11zM32 75h-11v11h11v-11zM43 75h-11v11h11v-11zM54 75h-11v11h11v-11zM64 75h-10v11h10v-11zM64 64h-10v11h10v-11zM54 64h-11v11h11v-11zM64 54h-10v10h10v-10zM75 64h-11v11h11v-11zM75 54h-11v10h11v-10z M75 43h-11v11h11v-11zM75 32h-11v11h11v-11zM75 21h-11v11h11v-11zM75 11h-11v10h11v-10zM64 21h-10v11h10v-11zM64 32h-10v11h10v-11zM64 43h-10v11h10v-11zM43 64h-11v11h11v-11zM43 11h-11v10h11v-10zM64 11h11v-11h-11v11zM43 54h11v-11h-11v11zM32 54h11v-11h-11v11z M21 54h11v-11h-11v11zM11 54h10v-11h-10v11zM0 43h11v-11h-11v11zM11 43h10v-11h-10v11zM43 43h11v-11h-11v11zM32 43h11v-11h-11v11zM21 43h11v-11h-11v11zM75 0v-11h-11v11h11zM64 -11v-10h-10v10h10zM64 -21v-11h-10v11h10zM75 -21v-11h-11v11h11zM54 -32h10v-11h-10v11z M64 -32h11v-11h-11v11z"
         id="glyph123" />
      <glyph
         glyph-name="aring"
         unicode="å"
         d="M64 0h-10v11h10v-11zM64 11h-10v10h10v-10zM54 11h-11v10h11v-10zM43 0h-11v11h11v-11zM32 0h-11v11h11v-11zM21 0h-10v11h10v-11zM21 11h-10v10h10v-10zM32 11h-11v10h11v-10zM11 11h-11v10h11v-10zM11 21h-11v11h11v-11zM11 64h-11v11h11v-11zM21 64h-10v11h10v-11z M21 21h-10v11h10v-11zM32 64h-11v11h11v-11zM21 75h-10v11h10v-11zM32 75h-11v11h11v-11zM43 75h-11v11h11v-11zM54 75h-11v11h11v-11zM64 75h-10v11h10v-11zM64 64h-10v11h10v-11zM54 64h-11v11h11v-11zM64 54h-10v10h10v-10zM75 64h-11v11h11v-11zM75 54h-11v10h11v-10z M75 43h-11v11h11v-11zM75 32h-11v11h11v-11zM75 21h-11v11h11v-11zM75 11h-11v10h11v-10zM64 21h-10v11h10v-11zM64 32h-10v11h10v-11zM64 43h-10v11h10v-11zM43 64h-11v11h11v-11zM43 11h-11v10h11v-10zM64 11h11v-11h-11v11zM43 54h11v-11h-11v11zM32 54h11v-11h-11v11z M21 54h11v-11h-11v11zM11 54h10v-11h-10v11zM0 43h11v-11h-11v11zM11 43h10v-11h-10v11zM43 43h11v-11h-11v11zM32 43h11v-11h-11v11zM21 43h11v-11h-11v11zM32 107h11v-11h-11v11zM43 107h11v-11h-11v11zM21 129h11v-11h-11v11zM21 118h11v-11h-11v11zM21 107h11v-11h-11 v11zM32 129h11v-11h-11v11zM43 129h11v-11h-11v11zM43 118h11v-11h-11v11z"
         id="glyph124" />
      <glyph
         glyph-name="atilde"
         unicode="ã"
         d="M64 0h-10v11h10v-11zM64 11h-10v10h10v-10zM54 11h-11v10h11v-10zM43 0h-11v11h11v-11zM32 0h-11v11h11v-11zM21 0h-10v11h10v-11zM21 11h-10v10h10v-10zM32 11h-11v10h11v-10zM11 11h-11v10h11v-10zM11 21h-11v11h11v-11zM11 64h-11v11h11v-11zM21 64h-10v11h10v-11z M21 21h-10v11h10v-11zM32 64h-11v11h11v-11zM21 75h-10v11h10v-11zM32 75h-11v11h11v-11zM43 75h-11v11h11v-11zM54 75h-11v11h11v-11zM64 75h-10v11h10v-11zM64 64h-10v11h10v-11zM54 64h-11v11h11v-11zM64 54h-10v10h10v-10zM75 64h-11v11h11v-11zM75 54h-11v10h11v-10z M75 43h-11v11h11v-11zM75 32h-11v11h11v-11zM75 21h-11v11h11v-11zM75 11h-11v10h11v-10zM64 21h-10v11h10v-11zM64 32h-10v11h10v-11zM64 43h-10v11h10v-11zM43 64h-11v11h11v-11zM43 11h-11v10h11v-10zM64 11h11v-11h-11v11zM43 54h11v-11h-11v11zM32 54h11v-11h-11v11z M21 54h11v-11h-11v11zM11 54h10v-11h-10v11zM0 43h11v-11h-11v11zM11 43h10v-11h-10v11zM43 43h11v-11h-11v11zM32 43h11v-11h-11v11zM21 43h11v-11h-11v11zM32 118h11v-11h-11v11zM11 129h10v-11h-10v11zM21 129h11v-11h-11v11zM43 118h11v-11h-11v11zM54 118h10v-11h-10 v11zM54 129h10v-11h-10v11zM43 107h11v-11h-11v11zM32 129h11v-11h-11v11zM21 139h11v-10h-11v10zM11 118h10v-11h-10v11z"
         id="glyph125" />
      <glyph
         glyph-name="ae"
         unicode="æ"
         horiz-adv-x="128"
         d="M64 0h-10v11h10v-11zM54 11h-11v10h11v-10zM43 0h-11v11h11v-11zM32 0h-11v11h11v-11zM21 0h-10v11h10v-11zM21 11h-10v10h10v-10zM32 11h-11v10h11v-10zM11 11h-11v10h11v-10zM11 21h-11v11h11v-11zM11 64h-11v11h11v-11zM21 64h-10v11h10v-11zM21 21h-10v11h10v-11z M32 64h-11v11h11v-11zM21 75h-10v11h10v-11zM32 75h-11v11h11v-11zM43 75h-11v11h11v-11zM54 75h-11v11h11v-11zM54 64h-11v11h11v-11zM43 64h-11v11h11v-11zM43 11h-11v10h11v-10zM43 54h11v-11h-11v11zM32 54h11v-11h-11v11zM21 54h11v-11h-11v11zM11 54h10v-11h-10v11z M0 43h11v-11h-11v11zM11 43h10v-11h-10v11zM43 43h11v-11h-11v11zM32 43h11v-11h-11v11zM21 43h11v-11h-11v11zM64 75h11v-11h-11v11zM75 86h11v-11h-11v11zM86 86h10v-11h-10v11zM96 86h11v-11h-11v11zM96 75h11v-11h-11v11zM86 75h10v-11h-10v11zM107 75h11v-11h-11v11z M107 64h11v-10h-11v10zM107 21h11v-10h-11v10zM96 21h11v-10h-11v10zM86 21h10v-10h-10v10zM96 11h11v-11h-11v11zM86 11h10v-11h-10v11zM75 11h11v-11h-11v11zM64 21h11v-10h-11v10zM64 32h11v-11h-11v11zM54 21h10v-10h-10v10zM54 32h10v-11h-10v11zM54 43h10v-11h-10v11z M54 64h10v-10h-10v10zM64 64h11v-10h-11v10zM75 21h11v-10h-11v10zM75 75h11v-11h-11v11zM96 54h11v-11h-11v11zM107 54h11v-11h-11v11zM64 43h11v-11h-11v11zM75 43h11v-11h-11v11zM86 43h10v-11h-10v11zM96 43h11v-11h-11v11zM107 43h11v-11h-11v11zM86 54h10v-11h-10v11z M75 54h11v-11h-11v11zM64 54h11v-11h-11v11zM54 75h10v-11h-10v11zM54 54h10v-11h-10v11zM64 11h11v-11h-11v11zM54 86h10v-11h-10v11zM96 64h11v-10h-11v10zM43 32h11v-11h-11v11z"
         id="glyph126" />
      <glyph
         glyph-name="b"
         unicode="b"
         d="M0 75h11v-11h-11v11zM0 86h11v-11h-11v11zM11 86h11v-11h-11v11zM11 75h11v-11h-11v11zM11 65h11v-11h-11v11zM11 54h11v-11h-11v11zM11 43h11v-11h-11v11zM0 43h11v-11h-11v11zM0 54h11v-11h-11v11zM0 65h11v-11h-11v11zM0 32h11v-11h-11v11zM11 32h11v-11h-11v11z M11 22h11v-11h-11v11zM11 11h11v-11h-11v11zM0 11h11v-11h-11v11zM0 22h11v-11h-11v11zM54 11h11v-11h-11v11zM64 22h11v-11h-11v11zM64 32h11v-11h-11v11zM64 43h11v-11h-11v11zM64 54h11v-11h-11v11zM64 65h11v-11h-11v11zM64 75h11v-11h-11v11zM54 54h11v-11h-11v11z M54 43h11v-11h-11v11zM54 32h11v-11h-11v11zM54 22h11v-11h-11v11zM54 65h11v-11h-11v11zM21 75h11v-11h-11v11zM32 75h11v-11h-11v11zM43 75h11v-11h-11v11zM43 86h11v-11h-11v11zM54 86h11v-11h-11v11zM54 75h11v-11h-11v11zM32 86h11v-11h-11v11zM0 107h11v-11h-11v11z M11 107h11v-11h-11v11zM11 97h11v-11h-11v11zM0 97h11v-11h-11v11zM21 11h11v-11h-11v11zM32 11h11v-11h-11v11zM43 11h11v-11h-11v11zM43 22h11v-11h-11v11zM32 22h11v-11h-11v11zM21 22h11v-11h-11v11z"
         id="glyph127" />
      <glyph
         glyph-name="c"
         unicode="c"
         d="M21 86h11v-11h-11v11zM11 86h11v-11h-11v11zM11 75h11v-11h-11v11zM21 75h11v-11h-11v11zM32 86h11v-11h-11v11zM43 86h11v-11h-11v11zM54 86h11v-11h-11v11zM54 75h11v-11h-11v11zM43 75h11v-11h-11v11zM64 75h11v-11h-11v11zM64 65h11v-11h-11v11zM64 32h11v-11h-11v11 zM64 22h11v-11h-11v11zM54 22h11v-11h-11v11zM54 32h11v-11h-11v11zM54 65h11v-11h-11v11zM43 22h11v-11h-11v11zM54 11h11v-11h-11v11zM43 11h11v-11h-11v11zM32 11h11v-11h-11v11zM21 11h11v-11h-11v11zM11 11h11v-11h-11v11zM11 22h11v-11h-11v11zM21 22h11v-11h-11v11z M11 32h11v-11h-11v11zM0 22h11v-11h-11v11zM0 32h11v-11h-11v11zM0 43h11v-11h-11v11zM0 54h11v-11h-11v11zM0 65h11v-11h-11v11zM0 75h11v-11h-11v11zM11 65h11v-11h-11v11zM11 54h11v-11h-11v11zM11 43h11v-11h-11v11zM32 22h11v-11h-11v11zM32 75h11v-11h-11v11z"
         id="glyph128" />
      <glyph
         glyph-name="cacute"
         unicode="ć"
         d="M21 86h11v-11h-11v11zM11 86h10v-11h-10v11zM11 75h10v-11h-10v11zM21 75h11v-11h-11v11zM32 86h11v-11h-11v11zM43 86h11v-11h-11v11zM54 86h10v-11h-10v11zM54 75h10v-11h-10v11zM43 75h11v-11h-11v11zM64 75h11v-11h-11v11zM64 64h11v-10h-11v10zM64 32h11v-11h-11v11 zM64 21h11v-10h-11v10zM54 21h10v-10h-10v10zM54 32h10v-11h-10v11zM54 64h10v-10h-10v10zM43 21h11v-10h-11v10zM54 11h10v-11h-10v11zM43 11h11v-11h-11v11zM32 11h11v-11h-11v11zM21 11h11v-11h-11v11zM11 11h10v-11h-10v11zM11 21h10v-10h-10v10zM21 21h11v-10h-11v10z M11 32h10v-11h-10v11zM0 21h11v-10h-11v10zM0 32h11v-11h-11v11zM0 43h11v-11h-11v11zM0 54h11v-11h-11v11zM0 64h11v-10h-11v10zM0 75h11v-11h-11v11zM11 64h10v-10h-10v10zM11 54h10v-11h-10v11zM11 43h10v-11h-10v11zM32 21h11v-10h-11v10zM32 75h11v-11h-11v11zM43 118 v-11h-11v11h11zM54 129v-11h-11v11h11zM43 107v-11h-11v11h11zM54 118v-11h-11v11h11zM21 107h11v-11h-11v11z"
         id="glyph129" />
      <glyph
         glyph-name="ccaron"
         unicode="č"
         d="M21 86h11v-11h-11v11zM11 86h10v-11h-10v11zM11 75h10v-11h-10v11zM21 75h11v-11h-11v11zM32 86h11v-11h-11v11zM43 86h11v-11h-11v11zM54 86h10v-11h-10v11zM54 75h10v-11h-10v11zM43 75h11v-11h-11v11zM64 75h11v-11h-11v11zM64 64h11v-10h-11v10zM64 32h11v-11h-11v11 zM64 21h11v-10h-11v10zM54 21h10v-10h-10v10zM54 32h10v-11h-10v11zM54 64h10v-10h-10v10zM43 21h11v-10h-11v10zM54 11h10v-11h-10v11zM43 11h11v-11h-11v11zM32 11h11v-11h-11v11zM21 11h11v-11h-11v11zM11 11h10v-11h-10v11zM11 21h10v-10h-10v10zM21 21h11v-10h-11v10z M11 32h10v-11h-10v11zM0 21h11v-10h-11v10zM0 32h11v-11h-11v11zM0 43h11v-11h-11v11zM0 54h11v-11h-11v11zM0 64h11v-10h-11v10zM0 75h11v-11h-11v11zM11 64h10v-10h-10v10zM11 54h10v-11h-10v11zM11 43h10v-11h-10v11zM32 21h11v-10h-11v10zM32 75h11v-11h-11v11zM21 118 v11h11v-11h-11zM11 118v11h10v-11h-10zM32 107v11h11v-11h-11zM21 107v11h11v-11h-11zM43 118h11v-11h-11v11zM54 129h10v-11h-10v11zM43 129h11v-11h-11v11zM32 107h11v-11h-11v11z"
         id="glyph130" />
      <glyph
         glyph-name="ccedilla"
         unicode="ç"
         d="M21 86h11v-11h-11v11zM11 86h11v-11h-11v11zM11 75h11v-11h-11v11zM21 75h11v-11h-11v11zM32 86h11v-11h-11v11zM43 86h11v-11h-11v11zM54 86h11v-11h-11v11zM54 75h11v-11h-11v11zM43 75h11v-11h-11v11zM64 75h11v-11h-11v11zM64 65h11v-11h-11v11zM64 32h11v-11h-11v11 zM64 22h11v-11h-11v11zM54 22h11v-11h-11v11zM54 32h11v-11h-11v11zM54 65h11v-11h-11v11zM43 22h11v-11h-11v11zM54 11h11v-11h-11v11zM43 11h11v-11h-11v11zM32 11h11v-11h-11v11zM21 11h11v-11h-11v11zM11 11h11v-11h-11v11zM11 22h11v-11h-11v11zM21 22h11v-11h-11v11z M11 32h11v-11h-11v11zM0 22h11v-11h-11v11zM0 32h11v-11h-11v11zM0 43h11v-11h-11v11zM0 54h11v-11h-11v11zM0 65h11v-11h-11v11zM0 75h11v-11h-11v11zM11 65h11v-11h-11v11zM11 54h11v-11h-11v11zM11 43h11v-11h-11v11zM32 22h11v-11h-11v11zM32 75h11v-11h-11v11zM32 0h11 v-11h-11v11zM43 -10h11v-11h-11v11zM43 -21h11v-11h-11v11zM32 -21h11v-11h-11v11zM32 -32h11v-11h-11v11zM43 -32h11v-11h-11v11z"
         id="glyph131" />
      <glyph
         glyph-name="cdotaccent"
         unicode="ċ"
         d="M21 86h11v-11h-11v11zM11 86h11v-11h-11v11zM11 75h11v-11h-11v11zM21 75h11v-11h-11v11zM32 86h11v-11h-11v11zM43 86h11v-11h-11v11zM54 86h11v-11h-11v11zM54 75h11v-11h-11v11zM43 75h11v-11h-11v11zM64 75h11v-11h-11v11zM64 65h11v-11h-11v11zM64 32h11v-11h-11v11 zM64 22h11v-11h-11v11zM54 22h11v-11h-11v11zM54 32h11v-11h-11v11zM54 65h11v-11h-11v11zM43 22h11v-11h-11v11zM54 11h11v-11h-11v11zM43 11h11v-11h-11v11zM32 11h11v-11h-11v11zM21 11h11v-11h-11v11zM11 11h11v-11h-11v11zM11 22h11v-11h-11v11zM21 22h11v-11h-11v11z M11 32h11v-11h-11v11zM0 22h11v-11h-11v11zM0 32h11v-11h-11v11zM0 43h11v-11h-11v11zM0 54h11v-11h-11v11zM0 65h11v-11h-11v11zM0 75h11v-11h-11v11zM11 65h11v-11h-11v11zM11 54h11v-11h-11v11zM11 43h11v-11h-11v11zM32 22h11v-11h-11v11zM32 75h11v-11h-11v11zM21 118 h11v-11h-11v11zM32 118h11v-11h-11v11zM32 107h11v-11h-11v11zM21 107h11v-11h-11v11z"
         id="glyph132" />
      <glyph
         glyph-name="d"
         unicode="d"
         d="M75 75v-11h-11v11h11zM75 86v-11h-11v11h11zM64 86v-11h-10v11h10zM64 75v-11h-10v11h10zM64 64v-10h-10v10h10zM64 54v-11h-10v11h10zM64 43v-11h-10v11h10zM75 43v-11h-11v11h11zM75 54v-11h-11v11h11zM75 64v-10h-11v10h11zM75 32v-11h-11v11h11zM64 32v-11h-10v11h10 zM64 21v-10h-10v10h10zM64 11v-11h-10v11h10zM75 11v-11h-11v11h11zM75 21v-10h-11v10h11zM21 11v-11h-10v11h10zM11 21v-10h-11v10h11zM11 32v-11h-11v11h11zM11 43v-11h-11v11h11zM11 54v-11h-11v11h11zM11 64v-10h-11v10h11zM11 75v-11h-11v11h11zM21 54v-11h-10v11h10z M21 43v-11h-10v11h10zM21 32v-11h-10v11h10zM21 21v-10h-10v10h10zM21 64v-10h-10v10h10zM32 75v-11h-11v11h11zM32 86v-11h-11v11h11zM21 86v-11h-10v11h10zM21 75v-11h-10v11h10zM43 86v-11h-11v11h11zM75 107v-11h-11v11h11zM64 107v-11h-10v11h10zM64 96v-10h-10v10h10z M75 96v-10h-11v10h11zM43 11v-11h-11v11h11zM32 11v-11h-11v11h11zM32 21v-10h-11v10h11zM43 21v-10h-11v10h11zM54 21v-10h-11v10h11zM54 86v-11h-11v11h11zM54 75v-11h-11v11h11zM43 75v-11h-11v11h11z"
         id="glyph133" />
      <glyph
         glyph-name="eth"
         unicode="ð"
         d="M64 75v-11h-10v11h10zM64 64v-10h-10v10h10zM64 54v-11h-10v11h10zM64 43v-11h-10v11h10zM75 43v-11h-11v11h11zM75 54v-11h-11v11h11zM75 32v-11h-11v11h11zM64 32v-11h-10v11h10zM64 21v-10h-10v10h10zM21 11v-11h-10v11h10zM11 21v-10h-11v10h11zM11 32v-11h-11v11h11 zM11 43v-11h-11v11h11zM11 54v-11h-11v11h11zM21 54v-11h-10v11h10zM21 43v-11h-10v11h10zM21 32v-11h-10v11h10zM21 21v-10h-10v10h10zM21 64v-10h-10v10h10zM43 11v-11h-11v11h11zM32 11v-11h-11v11h11zM32 21v-10h-11v10h11zM43 21v-10h-11v10h11zM54 21v-10h-11v10h11z M43 64h11v-10h-11v10zM32 64h11v-10h-11v10zM21 64h11v-10h-11v10zM43 11h11v-11h-11v11zM43 86h11v-11h-11v11zM32 96h11v-10h-11v10zM43 75h11v-11h-11v11zM32 86h11v-11h-11v11zM21 96h11v-10h-11v10zM64 21h11v-10h-11v10zM54 11h10v-11h-10v11zM64 64h11v-10h-11v10z M32 107h11v-11h-11v11zM43 96h11v-10h-11v10zM54 86h10v-11h-10v11zM64 75h11v-11h-11v11zM54 107h10v-11h-10v11zM21 54h11v-11h-11v11zM32 54h11v-11h-11v11zM43 54h11v-11h-11v11z"
         id="glyph134" />
      <glyph
         glyph-name="dcaron"
         unicode="ď"
         horiz-adv-x="107"
         d="M75 75v-11h-11v11h11zM75 86v-11h-11v11h11zM64 86v-11h-10v11h10zM64 75v-11h-10v11h10zM64 64v-10h-10v10h10zM64 54v-11h-10v11h10zM64 43v-11h-10v11h10zM75 43v-11h-11v11h11zM75 54v-11h-11v11h11zM75 64v-10h-11v10h11zM75 32v-11h-11v11h11zM64 32v-11h-10v11h10 zM64 21v-10h-10v10h10zM64 11v-11h-10v11h10zM75 11v-11h-11v11h11zM75 21v-10h-11v10h11zM21 11v-11h-10v11h10zM11 21v-10h-11v10h11zM11 32v-11h-11v11h11zM11 43v-11h-11v11h11zM11 54v-11h-11v11h11zM11 64v-10h-11v10h11zM11 75v-11h-11v11h11zM21 54v-11h-10v11h10z M21 43v-11h-10v11h10zM21 32v-11h-10v11h10zM21 21v-10h-10v10h10zM21 64v-10h-10v10h10zM32 75v-11h-11v11h11zM32 86v-11h-11v11h11zM21 86v-11h-10v11h10zM21 75v-11h-10v11h10zM43 86v-11h-11v11h11zM75 107v-11h-11v11h11zM64 107v-11h-10v11h10zM64 96v-10h-10v10h10z M75 96v-10h-11v10h11zM43 11v-11h-11v11h11zM32 11v-11h-11v11h11zM32 21v-10h-11v10h11zM43 21v-10h-11v10h11zM54 21v-10h-11v10h11zM54 86v-11h-11v11h11zM54 75v-11h-11v11h11zM43 75v-11h-11v11h11zM86 107h10v-11h-10v11zM75 118h11v-11h-11v11zM86 118h10v-11h-10v11 zM86 129h10v-11h-10v11zM75 129h11v-11h-11v11z"
         id="glyph135" />
      <glyph
         glyph-name="dcroat"
         unicode="đ"
         horiz-adv-x="96"
         d="M75 75v-11h-11v11h11zM75 86v-11h-11v11h11zM64 86v-11h-10v11h10zM64 75v-11h-10v11h10zM64 64v-10h-10v10h10zM64 54v-11h-10v11h10zM64 43v-11h-10v11h10zM75 43v-11h-11v11h11zM75 54v-11h-11v11h11zM75 64v-10h-11v10h11zM75 32v-11h-11v11h11zM64 32v-11h-10v11h10 zM64 21v-10h-10v10h10zM64 11v-11h-10v11h10zM75 11v-11h-11v11h11zM75 21v-10h-11v10h11zM21 11v-11h-10v11h10zM11 21v-10h-11v10h11zM11 32v-11h-11v11h11zM11 43v-11h-11v11h11zM11 54v-11h-11v11h11zM11 64v-10h-11v10h11zM21 54v-11h-10v11h10zM21 43v-11h-10v11h10z M21 32v-11h-10v11h10zM21 21v-10h-10v10h10zM21 64v-10h-10v10h10zM32 75v-11h-11v11h11zM21 75v-11h-10v11h10zM75 107v-11h-11v11h11zM64 107v-11h-10v11h10zM64 96v-10h-10v10h10zM75 96v-10h-11v10h11zM43 11v-11h-11v11h11zM32 11v-11h-11v11h11zM32 21v-10h-11v10h11z M43 21v-10h-11v10h11zM54 21v-10h-11v10h11zM54 75v-11h-11v11h11zM43 75v-11h-11v11h11zM21 64h11v-10h-11v10zM32 64h11v-10h-11v10zM43 64h11v-10h-11v10zM75 96h11v-10h-11v10zM43 96h11v-10h-11v10zM32 96h11v-10h-11v10z"
         id="glyph136" />
      <glyph
         glyph-name="e"
         unicode="e"
         d="M21 86h11v-11h-11v11zM11 86h11v-11h-11v11zM11 75h11v-11h-11v11zM21 75h11v-11h-11v11zM32 86h11v-11h-11v11zM43 86h11v-11h-11v11zM54 86h11v-11h-11v11zM54 75h11v-11h-11v11zM43 75h11v-11h-11v11zM64 75h11v-11h-11v11zM64 65h11v-11h-11v11zM64 22h11v-11h-11v11 zM54 22h11v-11h-11v11zM54 65h11v-11h-11v11zM43 22h11v-11h-11v11zM54 11h11v-11h-11v11zM43 11h11v-11h-11v11zM32 11h11v-11h-11v11zM21 11h11v-11h-11v11zM11 11h11v-11h-11v11zM11 22h11v-11h-11v11zM21 22h11v-11h-11v11zM11 32h11v-11h-11v11zM0 22h11v-11h-11v11z M0 32h11v-11h-11v11zM0 43h11v-11h-11v11zM0 54h11v-11h-11v11zM0 65h11v-11h-11v11zM0 75h11v-11h-11v11zM11 65h11v-11h-11v11zM11 54h11v-11h-11v11zM11 43h11v-11h-11v11zM32 22h11v-11h-11v11zM32 75h11v-11h-11v11zM54 54h11v-11h-11v11zM64 54h11v-11h-11v11zM21 43 h11v-11h-11v11zM32 43h11v-11h-11v11zM43 43h11v-11h-11v11zM54 43h11v-11h-11v11zM64 43h11v-11h-11v11zM43 54h11v-11h-11v11zM32 54h11v-11h-11v11zM21 54h11v-11h-11v11z"
         id="glyph137" />
      <glyph
         glyph-name="eacute"
         unicode="é"
         d="M21 86h11v-11h-11v11zM11 86h10v-11h-10v11zM11 75h10v-11h-10v11zM21 75h11v-11h-11v11zM32 86h11v-11h-11v11zM43 86h11v-11h-11v11zM54 86h10v-11h-10v11zM54 75h10v-11h-10v11zM43 75h11v-11h-11v11zM64 75h11v-11h-11v11zM64 64h11v-10h-11v10zM64 21h11v-10h-11v10 zM54 21h10v-10h-10v10zM54 64h10v-10h-10v10zM43 21h11v-10h-11v10zM54 11h10v-11h-10v11zM43 11h11v-11h-11v11zM32 11h11v-11h-11v11zM21 11h11v-11h-11v11zM11 11h10v-11h-10v11zM11 21h10v-10h-10v10zM21 21h11v-10h-11v10zM11 32h10v-11h-10v11zM0 21h11v-10h-11v10z M0 32h11v-11h-11v11zM0 43h11v-11h-11v11zM0 54h11v-11h-11v11zM0 64h11v-10h-11v10zM0 75h11v-11h-11v11zM11 64h10v-10h-10v10zM11 54h10v-11h-10v11zM11 43h10v-11h-10v11zM32 21h11v-10h-11v10zM32 75h11v-11h-11v11zM54 54h10v-11h-10v11zM64 54h11v-11h-11v11zM21 43 h11v-11h-11v11zM32 43h11v-11h-11v11zM43 43h11v-11h-11v11zM54 43h10v-11h-10v11zM64 43h11v-11h-11v11zM43 54h11v-11h-11v11zM32 54h11v-11h-11v11zM21 54h11v-11h-11v11zM43 118v-11h-11v11h11zM54 129v-11h-11v11h11zM43 107v-11h-11v11h11zM54 118v-11h-11v11h11z M21 107h11v-11h-11v11z"
         id="glyph138" />
      <glyph
         glyph-name="ecaron"
         unicode="ě"
         d="M21 86h11v-11h-11v11zM11 86h10v-11h-10v11zM11 75h10v-11h-10v11zM21 75h11v-11h-11v11zM32 86h11v-11h-11v11zM43 86h11v-11h-11v11zM54 86h10v-11h-10v11zM54 75h10v-11h-10v11zM43 75h11v-11h-11v11zM64 75h11v-11h-11v11zM64 64h11v-10h-11v10zM64 21h11v-10h-11v10 zM54 21h10v-10h-10v10zM54 64h10v-10h-10v10zM43 21h11v-10h-11v10zM54 11h10v-11h-10v11zM43 11h11v-11h-11v11zM32 11h11v-11h-11v11zM21 11h11v-11h-11v11zM11 11h10v-11h-10v11zM11 21h10v-10h-10v10zM21 21h11v-10h-11v10zM11 32h10v-11h-10v11zM0 21h11v-10h-11v10z M0 32h11v-11h-11v11zM0 43h11v-11h-11v11zM0 54h11v-11h-11v11zM0 64h11v-10h-11v10zM0 75h11v-11h-11v11zM11 64h10v-10h-10v10zM11 54h10v-11h-10v11zM11 43h10v-11h-10v11zM32 21h11v-10h-11v10zM32 75h11v-11h-11v11zM54 54h10v-11h-10v11zM64 54h11v-11h-11v11zM21 43 h11v-11h-11v11zM32 43h11v-11h-11v11zM43 43h11v-11h-11v11zM54 43h10v-11h-10v11zM64 43h11v-11h-11v11zM43 54h11v-11h-11v11zM32 54h11v-11h-11v11zM21 54h11v-11h-11v11zM21 118v11h11v-11h-11zM11 118v11h10v-11h-10zM32 107v11h11v-11h-11zM21 107v11h11v-11h-11z M43 118h11v-11h-11v11zM54 129h10v-11h-10v11zM43 129h11v-11h-11v11zM32 107h11v-11h-11v11z"
         id="glyph139" />
      <glyph
         glyph-name="ecircumflex"
         unicode="ê"
         d="M21 86h11v-11h-11v11zM11 86h11v-11h-11v11zM11 75h11v-11h-11v11zM21 75h11v-11h-11v11zM32 86h11v-11h-11v11zM43 86h11v-11h-11v11zM54 86h11v-11h-11v11zM54 75h11v-11h-11v11zM43 75h11v-11h-11v11zM64 75h11v-11h-11v11zM64 65h11v-11h-11v11zM64 22h11v-11h-11v11 zM54 22h11v-11h-11v11zM54 65h11v-11h-11v11zM43 22h11v-11h-11v11zM54 11h11v-11h-11v11zM43 11h11v-11h-11v11zM32 11h11v-11h-11v11zM21 11h11v-11h-11v11zM11 11h11v-11h-11v11zM11 22h11v-11h-11v11zM21 22h11v-11h-11v11zM11 32h11v-11h-11v11zM0 22h11v-11h-11v11z M0 32h11v-11h-11v11zM0 43h11v-11h-11v11zM0 54h11v-11h-11v11zM0 65h11v-11h-11v11zM0 75h11v-11h-11v11zM11 65h11v-11h-11v11zM11 54h11v-11h-11v11zM11 43h11v-11h-11v11zM32 22h11v-11h-11v11zM32 75h11v-11h-11v11zM54 54h11v-11h-11v11zM64 54h11v-11h-11v11zM21 43 h11v-11h-11v11zM32 43h11v-11h-11v11zM43 43h11v-11h-11v11zM54 43h11v-11h-11v11zM64 43h11v-11h-11v11zM43 54h11v-11h-11v11zM32 54h11v-11h-11v11zM21 54h11v-11h-11v11zM21 107h11v-11h-11v11zM43 107h11v-11h-11v11zM32 118h11v-11h-11v11zM21 118h11v-11h-11v11z M43 118h11v-11h-11v11zM11 107h11v-11h-11v11zM54 107h11v-11h-11v11zM32 129h11v-11h-11v11z"
         id="glyph140" />
      <glyph
         glyph-name="edieresis"
         unicode="ë"
         d="M21 86h11v-11h-11v11zM11 86h11v-11h-11v11zM11 75h11v-11h-11v11zM21 75h11v-11h-11v11zM32 86h11v-11h-11v11zM43 86h11v-11h-11v11zM54 86h11v-11h-11v11zM54 75h11v-11h-11v11zM43 75h11v-11h-11v11zM64 75h11v-11h-11v11zM64 65h11v-11h-11v11zM64 22h11v-11h-11v11 zM54 22h11v-11h-11v11zM54 65h11v-11h-11v11zM43 22h11v-11h-11v11zM54 11h11v-11h-11v11zM43 11h11v-11h-11v11zM32 11h11v-11h-11v11zM21 11h11v-11h-11v11zM11 11h11v-11h-11v11zM11 22h11v-11h-11v11zM21 22h11v-11h-11v11zM11 32h11v-11h-11v11zM0 22h11v-11h-11v11z M0 32h11v-11h-11v11zM0 43h11v-11h-11v11zM0 54h11v-11h-11v11zM0 65h11v-11h-11v11zM0 75h11v-11h-11v11zM11 65h11v-11h-11v11zM11 54h11v-11h-11v11zM11 43h11v-11h-11v11zM32 22h11v-11h-11v11zM32 75h11v-11h-11v11zM54 54h11v-11h-11v11zM64 54h11v-11h-11v11zM21 43 h11v-11h-11v11zM32 43h11v-11h-11v11zM43 43h11v-11h-11v11zM54 43h11v-11h-11v11zM64 43h11v-11h-11v11zM43 54h11v-11h-11v11zM32 54h11v-11h-11v11zM21 54h11v-11h-11v11zM43 118h11v-11h-11v11zM54 118h11v-11h-11v11zM54 107h11v-11h-11v11zM43 107h11v-11h-11v11z M11 107h11v-11h-11v11zM21 107h11v-11h-11v11zM21 118h11v-11h-11v11zM11 118h11v-11h-11v11z"
         id="glyph141" />
      <glyph
         glyph-name="edotaccent"
         unicode="ė"
         d="M21 86h11v-11h-11v11zM11 86h11v-11h-11v11zM11 75h11v-11h-11v11zM21 75h11v-11h-11v11zM32 86h11v-11h-11v11zM43 86h11v-11h-11v11zM54 86h11v-11h-11v11zM54 75h11v-11h-11v11zM43 75h11v-11h-11v11zM64 75h11v-11h-11v11zM64 65h11v-11h-11v11zM64 22h11v-11h-11v11 zM54 22h11v-11h-11v11zM54 65h11v-11h-11v11zM43 22h11v-11h-11v11zM54 11h11v-11h-11v11zM43 11h11v-11h-11v11zM32 11h11v-11h-11v11zM21 11h11v-11h-11v11zM11 11h11v-11h-11v11zM11 22h11v-11h-11v11zM21 22h11v-11h-11v11zM11 32h11v-11h-11v11zM0 22h11v-11h-11v11z M0 32h11v-11h-11v11zM0 43h11v-11h-11v11zM0 54h11v-11h-11v11zM0 65h11v-11h-11v11zM0 75h11v-11h-11v11zM11 65h11v-11h-11v11zM11 54h11v-11h-11v11zM11 43h11v-11h-11v11zM32 22h11v-11h-11v11zM32 75h11v-11h-11v11zM54 54h11v-11h-11v11zM64 54h11v-11h-11v11zM21 43 h11v-11h-11v11zM32 43h11v-11h-11v11zM43 43h11v-11h-11v11zM54 43h11v-11h-11v11zM64 43h11v-11h-11v11zM43 54h11v-11h-11v11zM32 54h11v-11h-11v11zM21 54h11v-11h-11v11zM21 118h11v-11h-11v11zM32 118h11v-11h-11v11zM32 107h11v-11h-11v11zM21 107h11v-11h-11v11z"
         id="glyph142" />
      <glyph
         glyph-name="egrave"
         unicode="è"
         d="M21 86h11v-11h-11v11zM11 86h11v-11h-11v11zM11 75h11v-11h-11v11zM21 75h11v-11h-11v11zM32 86h11v-11h-11v11zM43 86h11v-11h-11v11zM54 86h11v-11h-11v11zM54 75h11v-11h-11v11zM43 75h11v-11h-11v11zM64 75h11v-11h-11v11zM64 65h11v-11h-11v11zM64 22h11v-11h-11v11 zM54 22h11v-11h-11v11zM54 65h11v-11h-11v11zM43 22h11v-11h-11v11zM54 11h11v-11h-11v11zM43 11h11v-11h-11v11zM32 11h11v-11h-11v11zM21 11h11v-11h-11v11zM11 11h11v-11h-11v11zM11 22h11v-11h-11v11zM21 22h11v-11h-11v11zM11 32h11v-11h-11v11zM0 22h11v-11h-11v11z M0 32h11v-11h-11v11zM0 43h11v-11h-11v11zM0 54h11v-11h-11v11zM0 65h11v-11h-11v11zM0 75h11v-11h-11v11zM11 65h11v-11h-11v11zM11 54h11v-11h-11v11zM11 43h11v-11h-11v11zM32 22h11v-11h-11v11zM32 75h11v-11h-11v11zM54 54h11v-11h-11v11zM64 54h11v-11h-11v11zM21 43 h11v-11h-11v11zM32 43h11v-11h-11v11zM43 43h11v-11h-11v11zM54 43h11v-11h-11v11zM64 43h11v-11h-11v11zM43 54h11v-11h-11v11zM32 54h11v-11h-11v11zM21 54h11v-11h-11v11zM32 118h11v-11h-11v11zM21 129h11v-11h-11v11zM32 107h11v-11h-11v11zM21 118h11v-11h-11v11z M43 107h11v-11h-11v11z"
         id="glyph143" />
      <glyph
         glyph-name="emacron"
         unicode="ē"
         d="M21 86h11v-11h-11v11zM11 86h11v-11h-11v11zM11 75h11v-11h-11v11zM21 75h11v-11h-11v11zM32 86h11v-11h-11v11zM43 86h11v-11h-11v11zM54 86h11v-11h-11v11zM54 75h11v-11h-11v11zM43 75h11v-11h-11v11zM64 75h11v-11h-11v11zM64 65h11v-11h-11v11zM64 22h11v-11h-11v11 zM54 22h11v-11h-11v11zM54 65h11v-11h-11v11zM43 22h11v-11h-11v11zM54 11h11v-11h-11v11zM43 11h11v-11h-11v11zM32 11h11v-11h-11v11zM21 11h11v-11h-11v11zM11 11h11v-11h-11v11zM11 22h11v-11h-11v11zM21 22h11v-11h-11v11zM11 32h11v-11h-11v11zM0 22h11v-11h-11v11z M0 32h11v-11h-11v11zM0 43h11v-11h-11v11zM0 54h11v-11h-11v11zM0 65h11v-11h-11v11zM0 75h11v-11h-11v11zM11 65h11v-11h-11v11zM11 54h11v-11h-11v11zM11 43h11v-11h-11v11zM32 22h11v-11h-11v11zM32 75h11v-11h-11v11zM54 54h11v-11h-11v11zM64 54h11v-11h-11v11zM21 43 h11v-11h-11v11zM32 43h11v-11h-11v11zM43 43h11v-11h-11v11zM54 43h11v-11h-11v11zM64 43h11v-11h-11v11zM43 54h11v-11h-11v11zM32 54h11v-11h-11v11zM21 54h11v-11h-11v11zM21 129h11v-11h-11v11zM32 129h11v-11h-11v11zM32 118h11v-11h-11v11zM21 118h11v-11h-11v11z M11 129h11v-11h-11v11zM11 118h11v-11h-11v11zM43 129h11v-11h-11v11zM43 118h11v-11h-11v11zM54 129h11v-11h-11v11zM54 118h11v-11h-11v11z"
         id="glyph144" />
      <glyph
         glyph-name="eogonek"
         unicode="ę"
         d="M21 86h11v-11h-11v11zM11 86h10v-11h-10v11zM11 75h10v-11h-10v11zM21 75h11v-11h-11v11zM32 86h11v-11h-11v11zM43 86h11v-11h-11v11zM54 86h10v-11h-10v11zM54 75h10v-11h-10v11zM43 75h11v-11h-11v11zM64 75h11v-11h-11v11zM64 64h11v-10h-11v10zM64 21h11v-10h-11v10 zM54 21h10v-10h-10v10zM54 64h10v-10h-10v10zM43 21h11v-10h-11v10zM54 11h10v-11h-10v11zM43 11h11v-11h-11v11zM32 11h11v-11h-11v11zM21 11h11v-11h-11v11zM11 11h10v-11h-10v11zM11 21h10v-10h-10v10zM21 21h11v-10h-11v10zM11 32h10v-11h-10v11zM0 21h11v-10h-11v10z M0 32h11v-11h-11v11zM0 43h11v-11h-11v11zM0 54h11v-11h-11v11zM0 64h11v-10h-11v10zM0 75h11v-11h-11v11zM11 64h10v-10h-10v10zM11 54h10v-11h-10v11zM11 43h10v-11h-10v11zM32 21h11v-10h-11v10zM32 75h11v-11h-11v11zM54 54h10v-11h-10v11zM64 54h11v-11h-11v11zM21 43 h11v-11h-11v11zM32 43h11v-11h-11v11zM43 43h11v-11h-11v11zM54 43h10v-11h-10v11zM64 43h11v-11h-11v11zM43 54h11v-11h-11v11zM32 54h11v-11h-11v11zM21 54h11v-11h-11v11zM54 0v-11h-11v11h11zM43 -11v-10h-11v10h11zM43 -21v-11h-11v11h11zM54 -21v-11h-11v11h11z M32 -32h11v-11h-11v11zM43 -32h11v-11h-11v11z"
         id="glyph145" />
      <glyph
         glyph-name="f"
         unicode="f"
         horiz-adv-x="64"
         d="M43 107h11v-11h-11v11zM43 97h11v-11h-11v11zM32 97h11v-11h-11v11zM32 107h11v-11h-11v11zM21 107h11v-11h-11v11zM21 97h11v-11h-11v11zM21 86h11v-11h-11v11zM11 97h11v-11h-11v11zM11 86h11v-11h-11v11zM11 75h11v-11h-11v11zM11 65h11v-11h-11v11zM21 65h11v-11h-11 v11zM21 75h11v-11h-11v11zM11 11h11v-11h-11v11zM11 22h11v-11h-11v11zM11 32h11v-11h-11v11zM11 43h11v-11h-11v11zM11 54h11v-11h-11v11zM21 54h11v-11h-11v11zM21 43h11v-11h-11v11zM21 32h11v-11h-11v11zM21 22h11v-11h-11v11zM21 11h11v-11h-11v11zM0 75h11v-11h-11v11 zM32 75h11v-11h-11v11zM43 75h11v-11h-11v11zM0 65h11v-11h-11v11zM32 65h11v-11h-11v11zM43 65h11v-11h-11v11z"
         id="glyph146" />
      <glyph
         glyph-name="g"
         unicode="g"
         d="M64 86h11v-11h-11v11zM54 86h11v-11h-11v11zM43 86h11v-11h-11v11zM32 86h11v-11h-11v11zM21 86h11v-11h-11v11zM21 75h11v-11h-11v11zM32 75h11v-11h-11v11zM43 75h11v-11h-11v11zM54 75h11v-11h-11v11zM64 75h11v-11h-11v11zM11 86h11v-11h-11v11zM11 75h11v-11h-11v11 zM11 65h11v-11h-11v11zM0 65h11v-11h-11v11zM0 75h11v-11h-11v11zM0 54h11v-11h-11v11zM0 43h11v-11h-11v11zM11 32h11v-11h-11v11zM11 43h11v-11h-11v11zM11 54h11v-11h-11v11zM0 32h11v-11h-11v11zM11 22h11v-11h-11v11zM21 22h11v-11h-11v11zM32 22h11v-11h-11v11zM54 22 h11v-11h-11v11zM64 22h11v-11h-11v11zM64 32h11v-11h-11v11zM54 32h11v-11h-11v11zM43 32h11v-11h-11v11zM32 32h11v-11h-11v11zM21 32h11v-11h-11v11zM54 43h11v-11h-11v11zM54 54h11v-11h-11v11zM54 65h11v-11h-11v11zM64 65h11v-11h-11v11zM64 54h11v-11h-11v11zM64 43 h11v-11h-11v11zM54 11h11v-11h-11v11zM54 0h11v-11h-11v11zM64 0h11v-11h-11v11zM64 11h11v-11h-11v11zM0 0h11v-11h-11v11zM11 0h11v-11h-11v11zM11 -10h11v-11h-11v11zM21 -10h11v-11h-11v11zM21 0h11v-11h-11v11zM32 0h11v-11h-11v11zM43 0h11v-11h-11v11zM54 -10h11v-11 h-11v11zM43 -10h11v-11h-11v11zM32 -10h11v-11h-11v11z"
         id="glyph147" />
      <glyph
         glyph-name="gbreve"
         unicode="ğ"
         d="M64 86h11v-11h-11v11zM54 86h10v-11h-10v11zM43 86h11v-11h-11v11zM32 86h11v-11h-11v11zM21 86h11v-11h-11v11zM21 75h11v-11h-11v11zM32 75h11v-11h-11v11zM43 75h11v-11h-11v11zM54 75h10v-11h-10v11zM64 75h11v-11h-11v11zM11 86h10v-11h-10v11zM11 75h10v-11h-10v11 zM11 64h10v-10h-10v10zM0 64h11v-10h-11v10zM0 75h11v-11h-11v11zM0 54h11v-11h-11v11zM0 43h11v-11h-11v11zM11 32h10v-11h-10v11zM11 43h10v-11h-10v11zM11 54h10v-11h-10v11zM0 32h11v-11h-11v11zM11 21h10v-10h-10v10zM21 21h11v-10h-11v10zM32 21h11v-10h-11v10zM54 21 h10v-10h-10v10zM64 21h11v-10h-11v10zM64 32h11v-11h-11v11zM54 32h10v-11h-10v11zM43 32h11v-11h-11v11zM32 32h11v-11h-11v11zM21 32h11v-11h-11v11zM54 43h10v-11h-10v11zM54 54h10v-11h-10v11zM54 64h10v-10h-10v10zM64 64h11v-10h-11v10zM64 54h11v-11h-11v11zM64 43 h11v-11h-11v11zM54 11h10v-11h-10v11zM54 0h10v-11h-10v11zM64 0h11v-11h-11v11zM64 11h11v-11h-11v11zM0 0h11v-11h-11v11zM11 0h10v-11h-10v11zM11 -11h10v-10h-10v10zM21 -11h11v-10h-11v10zM21 0h11v-11h-11v11zM32 0h11v-11h-11v11zM43 0h11v-11h-11v11zM54 -11h10v-10 h-10v10zM43 -11h11v-10h-11v10zM32 -11h11v-10h-11v10zM32 107v11h11v-11h-11zM21 118v11h11v-11h-11zM21 107v11h11v-11h-11zM43 96v11h11v-11h-11zM32 96v11h11v-11h-11zM54 107h10v-11h-10v11zM64 118h11v-11h-11v11zM64 129h11v-11h-11v11zM54 118h10v-11h-10v11z M43 118h11v-11h-11v11z"
         id="glyph148" />
      <glyph
         glyph-name="uni0123"
         unicode="ģ"
         d="M64 86h11v-11h-11v11zM54 86h10v-11h-10v11zM43 86h11v-11h-11v11zM32 86h11v-11h-11v11zM21 86h11v-11h-11v11zM21 75h11v-11h-11v11zM32 75h11v-11h-11v11zM43 75h11v-11h-11v11zM54 75h10v-11h-10v11zM64 75h11v-11h-11v11zM11 86h10v-11h-10v11zM11 75h10v-11h-10v11 zM11 64h10v-10h-10v10zM0 64h11v-10h-11v10zM0 75h11v-11h-11v11zM0 54h11v-11h-11v11zM0 43h11v-11h-11v11zM11 32h10v-11h-10v11zM11 43h10v-11h-10v11zM11 54h10v-11h-10v11zM0 32h11v-11h-11v11zM11 21h10v-10h-10v10zM21 21h11v-10h-11v10zM32 21h11v-10h-11v10zM54 21 h10v-10h-10v10zM64 21h11v-10h-11v10zM64 32h11v-11h-11v11zM54 32h10v-11h-10v11zM43 32h11v-11h-11v11zM32 32h11v-11h-11v11zM21 32h11v-11h-11v11zM54 43h10v-11h-10v11zM54 54h10v-11h-10v11zM54 64h10v-10h-10v10zM64 64h11v-10h-11v10zM64 54h11v-11h-11v11zM64 43 h11v-11h-11v11zM54 11h10v-11h-10v11zM54 0h10v-11h-10v11zM64 0h11v-11h-11v11zM64 11h11v-11h-11v11zM0 0h11v-11h-11v11zM11 0h10v-11h-10v11zM11 -11h10v-10h-10v10zM21 -11h11v-10h-11v10zM21 0h11v-11h-11v11zM32 0h11v-11h-11v11zM43 0h11v-11h-11v11zM54 -11h10v-10 h-10v10zM43 -11h11v-10h-11v10zM32 -11h11v-10h-11v10zM54 96h-11v11h11v-11zM43 96h-11v11h11v-11zM43 107h-11v11h11v-11zM54 107h-11v11h11v-11zM43 118h-11v11h11v-11zM54 129h-11v10h11v-10z"
         id="glyph149" />
      <glyph
         glyph-name="gdotaccent"
         unicode="ġ"
         d="M64 86h11v-11h-11v11zM54 86h11v-11h-11v11zM43 86h11v-11h-11v11zM32 86h11v-11h-11v11zM21 86h11v-11h-11v11zM21 75h11v-11h-11v11zM32 75h11v-11h-11v11zM43 75h11v-11h-11v11zM54 75h11v-11h-11v11zM64 75h11v-11h-11v11zM11 86h11v-11h-11v11zM11 75h11v-11h-11v11 zM11 65h11v-11h-11v11zM0 65h11v-11h-11v11zM0 75h11v-11h-11v11zM0 54h11v-11h-11v11zM0 43h11v-11h-11v11zM11 32h11v-11h-11v11zM11 43h11v-11h-11v11zM11 54h11v-11h-11v11zM0 32h11v-11h-11v11zM11 22h11v-11h-11v11zM21 22h11v-11h-11v11zM32 22h11v-11h-11v11zM54 22 h11v-11h-11v11zM64 22h11v-11h-11v11zM64 32h11v-11h-11v11zM54 32h11v-11h-11v11zM43 32h11v-11h-11v11zM32 32h11v-11h-11v11zM21 32h11v-11h-11v11zM54 43h11v-11h-11v11zM54 54h11v-11h-11v11zM54 65h11v-11h-11v11zM64 65h11v-11h-11v11zM64 54h11v-11h-11v11zM64 43 h11v-11h-11v11zM54 11h11v-11h-11v11zM54 0h11v-11h-11v11zM64 0h11v-11h-11v11zM64 11h11v-11h-11v11zM0 0h11v-11h-11v11zM11 0h11v-11h-11v11zM11 -10h11v-11h-11v11zM21 -10h11v-11h-11v11zM21 0h11v-11h-11v11zM32 0h11v-11h-11v11zM43 0h11v-11h-11v11zM54 -10h11v-11 h-11v11zM43 -10h11v-11h-11v11zM32 -10h11v-11h-11v11zM32 118h11v-11h-11v11zM43 118h11v-11h-11v11zM43 107h11v-11h-11v11zM32 107h11v-11h-11v11z"
         id="glyph150" />
      <glyph
         glyph-name="h"
         unicode="h"
         d="M0 75h11v-11h-11v11zM0 86h11v-11h-11v11zM11 86h11v-11h-11v11zM11 75h11v-11h-11v11zM11 65h11v-11h-11v11zM11 54h11v-11h-11v11zM11 43h11v-11h-11v11zM0 43h11v-11h-11v11zM0 54h11v-11h-11v11zM0 65h11v-11h-11v11zM0 32h11v-11h-11v11zM11 32h11v-11h-11v11z M11 22h11v-11h-11v11zM11 11h11v-11h-11v11zM0 11h11v-11h-11v11zM0 22h11v-11h-11v11zM54 11h11v-11h-11v11zM64 11h11v-11h-11v11zM64 22h11v-11h-11v11zM64 32h11v-11h-11v11zM64 43h11v-11h-11v11zM64 54h11v-11h-11v11zM64 65h11v-11h-11v11zM64 75h11v-11h-11v11z M54 54h11v-11h-11v11zM54 43h11v-11h-11v11zM54 32h11v-11h-11v11zM54 22h11v-11h-11v11zM54 65h11v-11h-11v11zM21 75h11v-11h-11v11zM32 75h11v-11h-11v11zM43 75h11v-11h-11v11zM43 86h11v-11h-11v11zM54 86h11v-11h-11v11zM54 75h11v-11h-11v11zM32 86h11v-11h-11v11z M0 107h11v-11h-11v11zM11 107h11v-11h-11v11zM11 97h11v-11h-11v11zM0 97h11v-11h-11v11z"
         id="glyph151" />
      <glyph
         glyph-name="hbar"
         unicode="ħ"
         horiz-adv-x="96"
         d="M11 75h11v-11h-11v11zM11 86h11v-11h-11v11zM21 86h11v-11h-11v11zM21 75h11v-11h-11v11zM21 65h11v-11h-11v11zM21 54h11v-11h-11v11zM21 43h11v-11h-11v11zM11 43h11v-11h-11v11zM11 54h11v-11h-11v11zM11 65h11v-11h-11v11zM11 32h11v-11h-11v11zM21 32h11v-11h-11v11 zM21 22h11v-11h-11v11zM21 11h11v-11h-11v11zM11 11h11v-11h-11v11zM11 22h11v-11h-11v11zM64 11h11v-11h-11v11zM75 11h11v-11h-11v11zM75 22h11v-11h-11v11zM75 32h11v-11h-11v11zM75 43h11v-11h-11v11zM75 54h11v-11h-11v11zM75 65h11v-11h-11v11zM64 54h11v-11h-11v11z M64 43h11v-11h-11v11zM64 32h11v-11h-11v11zM64 22h11v-11h-11v11zM64 65h11v-11h-11v11zM43 75h11v-11h-11v11zM54 75h11v-11h-11v11zM64 75h11v-11h-11v11zM11 107h11v-11h-11v11zM21 107h11v-11h-11v11zM21 97h11v-11h-11v11zM11 97h11v-11h-11v11zM32 65h11v-11h-11v11z M43 65h11v-11h-11v11zM54 65h11v-11h-11v11zM32 97h11v-11h-11v11zM43 97h11v-11h-11v11zM0 97h11v-11h-11v11z"
         id="glyph152" />
      <glyph
         glyph-name="i"
         unicode="i"
         horiz-adv-x="32"
         d="M0 107h21v-21h-21v21zM0 75h21v-75h-21v75z"
         id="glyph153" />
      <glyph
         glyph-name="dotlessi"
         unicode="ı"
         horiz-adv-x="32"
         d="M0 11h11v-11h-11v11zM11 11h11v-11h-11v11zM11 22h11v-11h-11v11zM11 32h11v-11h-11v11zM11 43h11v-11h-11v11zM11 54h11v-11h-11v11zM0 54h11v-11h-11v11zM0 65h11v-11h-11v11zM0 75h11v-11h-11v11zM11 75h11v-11h-11v11zM11 65h11v-11h-11v11zM0 32h11v-11h-11v11z M0 22h11v-11h-11v11zM0 43h11v-11h-11v11z"
         id="glyph154" />
      <glyph
         glyph-name="iacute"
         unicode="í"
         horiz-adv-x="32"
         d="M0 11h11v-11h-11v11zM11 11h10v-11h-10v11zM11 21h10v-10h-10v10zM11 32h10v-11h-10v11zM11 43h10v-11h-10v11zM11 54h10v-11h-10v11zM0 54h11v-11h-11v11zM0 64h11v-10h-11v10zM0 75h11v-11h-11v11zM11 75h10v-11h-10v11zM11 64h10v-10h-10v10zM0 32h11v-11h-11v11z M0 21h11v-10h-11v10zM0 43h11v-11h-11v11zM21 118v-11h-10v11h10zM32 129v-11h-11v11h11zM21 107v-11h-10v11h10zM32 118v-11h-11v11h11zM0 107h11v-11h-11v11z"
         id="glyph155" />
      <glyph
         glyph-name="icircumflex"
         unicode="î"
         horiz-adv-x="42"
         d="M0 118h11v11h21v-11h11v-22h-11v11h-21v-11h-11v22zM11 75h21v-75h-21v75z"
         id="glyph156" />
      <glyph
         glyph-name="idieresis"
         unicode="ï"
         horiz-adv-x="42"
         d="M32 118h22v-22h-22v22zM-11 118h22v-22h-22v22zM11 75h21v-75h-21v75z"
         id="glyph157" />
      <glyph
         glyph-name="i.loclTRK"
         horiz-adv-x="32"
         d="M0 11h11v-11h-11v11zM11 11h11v-11h-11v11zM11 22h11v-11h-11v11zM11 32h11v-11h-11v11zM11 43h11v-11h-11v11zM11 54h11v-11h-11v11zM0 54h11v-11h-11v11zM0 65h11v-11h-11v11zM0 75h11v-11h-11v11zM11 75h11v-11h-11v11zM11 65h11v-11h-11v11zM0 32h11v-11h-11v11z M0 22h11v-11h-11v11zM0 43h11v-11h-11v11zM0 118h11v-11h-11v11zM11 118h11v-11h-11v11zM11 107h11v-11h-11v11zM0 107h11v-11h-11v11z"
         id="glyph158" />
      <glyph
         glyph-name="igrave"
         unicode="ì"
         horiz-adv-x="32"
         d="M0 11h11v-11h-11v11zM11 11h11v-11h-11v11zM11 22h11v-11h-11v11zM11 32h11v-11h-11v11zM11 43h11v-11h-11v11zM11 54h11v-11h-11v11zM0 54h11v-11h-11v11zM0 65h11v-11h-11v11zM0 75h11v-11h-11v11zM11 75h11v-11h-11v11zM11 65h11v-11h-11v11zM0 32h11v-11h-11v11z M0 22h11v-11h-11v11zM0 43h11v-11h-11v11zM11 118h11v-11h-11v11zM0 129h11v-11h-11v11zM11 107h11v-11h-11v11zM0 118h11v-11h-11v11zM21 107h11v-11h-11v11z"
         id="glyph159" />
      <glyph
         glyph-name="ij"
         unicode="ĳ"
         horiz-adv-x="75"
         d="M0 107h21v-21h-21v21zM0 75h21v-75h-21v75zM43.1426 107h21v-21h-21v21zM32.1426 0h11v75h21v-86h-11v-10h-21v21z"
         id="glyph160" />
      <glyph
         glyph-name="imacron"
         unicode="ī"
         horiz-adv-x="42"
         d="M0 129h43v-22h-43v22zM11 75h21v-75h-21v75z"
         id="glyph161" />
      <glyph
         glyph-name="iogonek"
         unicode="į"
         horiz-adv-x="32"
         d="M0 11h11v-11h-11v11zM11 11h10v-11h-10v11zM11 21h10v-10h-10v10zM11 32h10v-11h-10v11zM11 43h10v-11h-10v11zM11 54h10v-11h-10v11zM0 54h11v-11h-11v11zM0 64h11v-10h-11v10zM0 75h11v-11h-11v11zM11 75h10v-11h-10v11zM11 64h10v-10h-10v10zM0 32h11v-11h-11v11z M0 21h11v-10h-11v10zM0 43h11v-11h-11v11zM21 0v-11h-10v11h10zM11 -11v-10h-11v10h11zM11 -21v-11h-11v11h11zM21 -21v-11h-10v11h10zM0 -32h11v-11h-11v11zM11 -32h10v-11h-10v11zM0 96h11v-10h-11v10zM11 96h10v-10h-10v10zM11 107h10v-11h-10v11zM0 107h11v-11h-11v11z "
         id="glyph162" />
      <glyph
         glyph-name="j"
         unicode="j"
         horiz-adv-x="42"
         d="M11 107h21v-21h-21v21zM0 0h11v75h21v-86h-11v-10h-21v21z"
         id="glyph163" />
      <glyph
         glyph-name="uni0237"
         unicode="ȷ"
         horiz-adv-x="42"
         d="M11 11h11v-11h-11v11zM21 22h11v-11h-11v11zM21 32h11v-11h-11v11zM21 43h11v-11h-11v11zM21 54h11v-11h-11v11zM11 54h11v-11h-11v11zM11 65h11v-11h-11v11zM11 75h11v-11h-11v11zM21 75h11v-11h-11v11zM21 65h11v-11h-11v11zM11 32h11v-11h-11v11zM11 22h11v-11h-11v11 zM11 43h11v-11h-11v11zM0 0h11v-11h-11v11zM11 0h11v-11h-11v11zM21 11h11v-11h-11v11zM21 0h11v-11h-11v11zM11 -10h11v-11h-11v11zM0 -10h11v-11h-11v11z"
         id="glyph164" />
      <glyph
         glyph-name="uni006A0301"
         horiz-adv-x="42"
         d="M11 11h10v-11h-10v11zM21 21h11v-10h-11v10zM21 32h11v-11h-11v11zM21 43h11v-11h-11v11zM21 54h11v-11h-11v11zM11 54h10v-11h-10v11zM11 64h10v-10h-10v10zM11 75h10v-11h-10v11zM21 75h11v-11h-11v11zM21 64h11v-10h-11v10zM11 32h10v-11h-10v11zM11 21h10v-10h-10v10 zM11 43h10v-11h-10v11zM0 0h11v-11h-11v11zM11 0h10v-11h-10v11zM21 11h11v-11h-11v11zM21 0h11v-11h-11v11zM11 -11h10v-10h-10v10zM0 -11h11v-10h-11v10zM32 118v-11h-11v11h11zM43 129v-11h-11v11h11zM32 107v-11h-11v11h11zM43 118v-11h-11v11h11zM11 107h10v-11h-10v11 z"
         id="glyph165" />
      <glyph
         glyph-name="k"
         unicode="k"
         horiz-adv-x="75"
         d="M0 107h11v-11h-11v11zM11 107h11v-11h-11v11zM11 97h11v-11h-11v11zM11 86h11v-11h-11v11zM11 75h11v-11h-11v11zM0 75h11v-11h-11v11zM0 86h11v-11h-11v11zM0 97h11v-11h-11v11zM0 65h11v-11h-11v11zM0 54h11v-11h-11v11zM0 43h11v-11h-11v11zM0 32h11v-11h-11v11zM0 22 h11v-11h-11v11zM0 11h11v-11h-11v11zM11 11h11v-11h-11v11zM11 22h11v-11h-11v11zM11 32h11v-11h-11v11zM11 43h11v-11h-11v11zM11 54h11v-11h-11v11zM11 65h11v-11h-11v11zM21 54h11v-11h-11v11zM32 54h11v-11h-11v11zM32 65h11v-11h-11v11zM43 65h11v-11h-11v11zM43 75h11 v-11h-11v11zM43 86h11v-11h-11v11zM54 86h11v-11h-11v11zM54 75h11v-11h-11v11zM32 43h11v-11h-11v11zM43 43h11v-11h-11v11zM54 32h11v-11h-11v11zM43 32h11v-11h-11v11zM43 22h11v-11h-11v11zM54 22h11v-11h-11v11zM54 11h11v-11h-11v11zM43 11h11v-11h-11v11z"
         id="glyph166" />
      <glyph
         glyph-name="uni0137"
         unicode="ķ"
         horiz-adv-x="75"
         d="M0 107h11v-11h-11v11zM11 107h11v-11h-11v11zM11 97h11v-11h-11v11zM11 86h11v-11h-11v11zM11 75h11v-11h-11v11zM0 75h11v-11h-11v11zM0 86h11v-11h-11v11zM0 97h11v-11h-11v11zM0 65h11v-11h-11v11zM0 54h11v-11h-11v11zM0 43h11v-11h-11v11zM0 32h11v-11h-11v11zM0 22 h11v-11h-11v11zM0 11h11v-11h-11v11zM11 11h11v-11h-11v11zM11 22h11v-11h-11v11zM11 32h11v-11h-11v11zM11 43h11v-11h-11v11zM11 54h11v-11h-11v11zM11 65h11v-11h-11v11zM21 54h11v-11h-11v11zM32 54h11v-11h-11v11zM32 65h11v-11h-11v11zM43 65h11v-11h-11v11zM43 75h11 v-11h-11v11zM43 86h11v-11h-11v11zM54 86h11v-11h-11v11zM54 75h11v-11h-11v11zM32 43h11v-11h-11v11zM43 43h11v-11h-11v11zM54 32h11v-11h-11v11zM43 32h11v-11h-11v11zM43 22h11v-11h-11v11zM54 22h11v-11h-11v11zM54 11h11v-11h-11v11zM43 11h11v-11h-11v11zM21 -10h11 v-11h-11v11zM32 -10h11v-11h-11v11zM32 -21h11v-11h-11v11zM21 -21h11v-11h-11v11zM32 -32h11v-11h-11v11zM21 -43h11v-11h-11v11z"
         id="glyph167" />
      <glyph
         glyph-name="l"
         unicode="l"
         horiz-adv-x="32"
         d="M0 107h11v-11h-11v11zM11 107h11v-11h-11v11zM11 97h11v-11h-11v11zM11 86h11v-11h-11v11zM11 75h11v-11h-11v11zM11 65h11v-11h-11v11zM11 54h11v-11h-11v11zM0 54h11v-11h-11v11zM0 43h11v-11h-11v11zM0 32h11v-11h-11v11zM0 22h11v-11h-11v11zM0 11h11v-11h-11v11z M11 11h11v-11h-11v11zM11 22h11v-11h-11v11zM11 32h11v-11h-11v11zM11 43h11v-11h-11v11zM0 65h11v-11h-11v11zM0 75h11v-11h-11v11zM0 86h11v-11h-11v11zM0 97h11v-11h-11v11z"
         id="glyph168" />
      <glyph
         glyph-name="lacute"
         unicode="ĺ"
         horiz-adv-x="32"
         d="M0 107h11v-11h-11v11zM11 107h10v-11h-10v11zM11 96h10v-10h-10v10zM11 86h10v-11h-10v11zM11 75h10v-11h-10v11zM11 64h10v-10h-10v10zM11 54h10v-11h-10v11zM0 54h11v-11h-11v11zM0 43h11v-11h-11v11zM0 32h11v-11h-11v11zM0 21h11v-10h-11v10zM0 11h11v-11h-11v11z M11 11h10v-11h-10v11zM11 21h10v-10h-10v10zM11 32h10v-11h-10v11zM11 43h10v-11h-10v11zM0 64h11v-10h-11v10zM0 75h11v-11h-11v11zM0 86h11v-11h-11v11zM0 96h11v-10h-11v10zM11 139v-10h-11v10h11zM11 129v-11h-11v11h11zM21 139v-10h-10v10h10zM21 150v-11h-10v11h10z M-11 129h11v-11h-11v11z"
         id="glyph169" />
      <glyph
         glyph-name="lcaron"
         unicode="ľ"
         horiz-adv-x="53"
         d="M0 107h11v-11h-11v11zM11 107h11v-11h-11v11zM11 97h11v-11h-11v11zM11 86h11v-11h-11v11zM11 75h11v-11h-11v11zM11 65h11v-11h-11v11zM11 54h11v-11h-11v11zM0 54h11v-11h-11v11zM0 43h11v-11h-11v11zM0 32h11v-11h-11v11zM0 22h11v-11h-11v11zM0 11h11v-11h-11v11z M11 11h11v-11h-11v11zM11 22h11v-11h-11v11zM11 32h11v-11h-11v11zM11 43h11v-11h-11v11zM0 65h11v-11h-11v11zM0 75h11v-11h-11v11zM0 86h11v-11h-11v11zM0 97h11v-11h-11v11zM32 118h11v-11h-11v11zM32 107h11v-11h-11v11zM21 129h11v-11h-11v11zM21 118h11v-11h-11v11z M32 129h11v-11h-11v11z"
         id="glyph170" />
      <glyph
         glyph-name="uni013C"
         unicode="ļ"
         horiz-adv-x="32"
         d="M0 107h11v-11h-11v11zM11 107h11v-11h-11v11zM11 97h11v-11h-11v11zM11 86h11v-11h-11v11zM11 75h11v-11h-11v11zM11 65h11v-11h-11v11zM11 54h11v-11h-11v11zM0 54h11v-11h-11v11zM0 43h11v-11h-11v11zM0 32h11v-11h-11v11zM0 22h11v-11h-11v11zM0 11h11v-11h-11v11z M11 11h11v-11h-11v11zM11 22h11v-11h-11v11zM11 32h11v-11h-11v11zM11 43h11v-11h-11v11zM0 65h11v-11h-11v11zM0 75h11v-11h-11v11zM0 86h11v-11h-11v11zM0 97h11v-11h-11v11zM0 -10h11v-11h-11v11zM11 -10h11v-11h-11v11zM11 -21h11v-11h-11v11zM0 -21h11v-11h-11v11z M11 -32h11v-11h-11v11zM0 -43h11v-11h-11v11z"
         id="glyph171" />
      <glyph
         glyph-name="lslash"
         unicode="ł"
         horiz-adv-x="75"
         d="M21 107h11v-11h-11v11zM32 107h11v-11h-11v11zM32 97h11v-11h-11v11zM32 86h11v-11h-11v11zM32 75h11v-11h-11v11zM32 65h11v-11h-11v11zM32 54h11v-11h-11v11zM21 54h11v-11h-11v11zM21 43h11v-11h-11v11zM21 32h11v-11h-11v11zM21 22h11v-11h-11v11zM21 11h11v-11h-11 v11zM32 11h11v-11h-11v11zM32 22h11v-11h-11v11zM32 32h11v-11h-11v11zM32 43h11v-11h-11v11zM21 65h11v-11h-11v11zM21 75h11v-11h-11v11zM21 86h11v-11h-11v11zM21 97h11v-11h-11v11zM11 54h11v-11h-11v11zM11 43h11v-11h-11v11zM43 75h11v-11h-11v11zM43 65h11v-11h-11 v11zM54 75h11v-11h-11v11zM0 43h11v-11h-11v11z"
         id="glyph172" />
      <glyph
         glyph-name="m"
         unicode="m"
         horiz-adv-x="117"
         d="M0 75h11v-11h-11v11zM0 86h11v-11h-11v11zM11 86h11v-11h-11v11zM11 75h11v-11h-11v11zM11 65h11v-11h-11v11zM11 54h11v-11h-11v11zM11 43h11v-11h-11v11zM0 43h11v-11h-11v11zM0 54h11v-11h-11v11zM0 65h11v-11h-11v11zM0 32h11v-11h-11v11zM11 32h11v-11h-11v11z M11 22h11v-11h-11v11zM11 11h11v-11h-11v11zM0 11h11v-11h-11v11zM0 22h11v-11h-11v11zM43 11h11v-11h-11v11zM54 11h11v-11h-11v11zM54 22h11v-11h-11v11zM54 32h11v-11h-11v11zM54 43h11v-11h-11v11zM54 54h11v-11h-11v11zM54 65h11v-11h-11v11zM54 75h11v-11h-11v11z M43 54h11v-11h-11v11zM43 43h11v-11h-11v11zM43 32h11v-11h-11v11zM43 22h11v-11h-11v11zM43 65h11v-11h-11v11zM21 75h11v-11h-11v11zM32 75h11v-11h-11v11zM43 86h11v-11h-11v11zM43 75h11v-11h-11v11zM32 86h11v-11h-11v11zM86 11h11v-11h-11v11zM96 11h11v-11h-11v11z M96 22h11v-11h-11v11zM96 32h11v-11h-11v11zM96 43h11v-11h-11v11zM96 54h11v-11h-11v11zM96 65h11v-11h-11v11zM96 75h11v-11h-11v11zM86 54h11v-11h-11v11zM86 43h11v-11h-11v11zM86 32h11v-11h-11v11zM86 22h11v-11h-11v11zM86 65h11v-11h-11v11zM64 75h11v-11h-11v11z M75 75h11v-11h-11v11zM86 86h11v-11h-11v11zM86 75h11v-11h-11v11zM75 86h11v-11h-11v11z"
         id="glyph173" />
      <glyph
         glyph-name="n"
         unicode="n"
         d="M0 75h11v-11h-11v11zM0 86h11v-11h-11v11zM11 86h11v-11h-11v11zM11 75h11v-11h-11v11zM11 65h11v-11h-11v11zM11 54h11v-11h-11v11zM11 43h11v-11h-11v11zM0 43h11v-11h-11v11zM0 54h11v-11h-11v11zM0 65h11v-11h-11v11zM0 32h11v-11h-11v11zM11 32h11v-11h-11v11z M11 22h11v-11h-11v11zM11 11h11v-11h-11v11zM0 11h11v-11h-11v11zM0 22h11v-11h-11v11zM54 11h11v-11h-11v11zM64 11h11v-11h-11v11zM64 22h11v-11h-11v11zM64 32h11v-11h-11v11zM64 43h11v-11h-11v11zM64 54h11v-11h-11v11zM64 65h11v-11h-11v11zM64 75h11v-11h-11v11z M54 54h11v-11h-11v11zM54 43h11v-11h-11v11zM54 32h11v-11h-11v11zM54 22h11v-11h-11v11zM54 65h11v-11h-11v11zM21 75h11v-11h-11v11zM32 75h11v-11h-11v11zM43 75h11v-11h-11v11zM43 86h11v-11h-11v11zM54 86h11v-11h-11v11zM54 75h11v-11h-11v11zM32 86h11v-11h-11v11z "
         id="glyph174" />
      <glyph
         glyph-name="nacute"
         unicode="ń"
         d="M0 75h11v-11h-11v11zM0 86h11v-11h-11v11zM11 86h10v-11h-10v11zM11 75h10v-11h-10v11zM11 64h10v-10h-10v10zM11 54h10v-11h-10v11zM11 43h10v-11h-10v11zM0 43h11v-11h-11v11zM0 54h11v-11h-11v11zM0 64h11v-10h-11v10zM0 32h11v-11h-11v11zM11 32h10v-11h-10v11z M11 21h10v-10h-10v10zM11 11h10v-11h-10v11zM0 11h11v-11h-11v11zM0 21h11v-10h-11v10zM54 11h10v-11h-10v11zM64 11h11v-11h-11v11zM64 21h11v-10h-11v10zM64 32h11v-11h-11v11zM64 43h11v-11h-11v11zM64 54h11v-11h-11v11zM64 64h11v-10h-11v10zM64 75h11v-11h-11v11z M54 54h10v-11h-10v11zM54 43h10v-11h-10v11zM54 32h10v-11h-10v11zM54 21h10v-10h-10v10zM54 64h10v-10h-10v10zM21 75h11v-11h-11v11zM32 75h11v-11h-11v11zM43 75h11v-11h-11v11zM43 86h11v-11h-11v11zM54 86h10v-11h-10v11zM54 75h10v-11h-10v11zM32 86h11v-11h-11v11z M43 118v-11h-11v11h11zM54 129v-11h-11v11h11zM43 107v-11h-11v11h11zM54 118v-11h-11v11h11zM21 107h11v-11h-11v11z"
         id="glyph175" />
      <glyph
         glyph-name="ncaron"
         unicode="ň"
         d="M0 75h11v-11h-11v11zM0 86h11v-11h-11v11zM11 86h10v-11h-10v11zM11 75h10v-11h-10v11zM11 64h10v-10h-10v10zM11 54h10v-11h-10v11zM11 43h10v-11h-10v11zM0 43h11v-11h-11v11zM0 54h11v-11h-11v11zM0 64h11v-10h-11v10zM0 32h11v-11h-11v11zM11 32h10v-11h-10v11z M11 21h10v-10h-10v10zM11 11h10v-11h-10v11zM0 11h11v-11h-11v11zM0 21h11v-10h-11v10zM54 11h10v-11h-10v11zM64 11h11v-11h-11v11zM64 21h11v-10h-11v10zM64 32h11v-11h-11v11zM64 43h11v-11h-11v11zM64 54h11v-11h-11v11zM64 64h11v-10h-11v10zM64 75h11v-11h-11v11z M54 54h10v-11h-10v11zM54 43h10v-11h-10v11zM54 32h10v-11h-10v11zM54 21h10v-10h-10v10zM54 64h10v-10h-10v10zM21 75h11v-11h-11v11zM32 75h11v-11h-11v11zM43 75h11v-11h-11v11zM43 86h11v-11h-11v11zM54 86h10v-11h-10v11zM54 75h10v-11h-10v11zM32 86h11v-11h-11v11z M21 118v11h11v-11h-11zM11 118v11h10v-11h-10zM32 107v11h11v-11h-11zM21 107v11h11v-11h-11zM43 118h11v-11h-11v11zM54 129h10v-11h-10v11zM43 129h11v-11h-11v11zM32 107h11v-11h-11v11z"
         id="glyph176" />
      <glyph
         glyph-name="uni0146"
         unicode="ņ"
         d="M0 75h11v-11h-11v11zM0 86h11v-11h-11v11zM11 86h11v-11h-11v11zM11 75h11v-11h-11v11zM11 65h11v-11h-11v11zM11 54h11v-11h-11v11zM11 43h11v-11h-11v11zM0 43h11v-11h-11v11zM0 54h11v-11h-11v11zM0 65h11v-11h-11v11zM0 32h11v-11h-11v11zM11 32h11v-11h-11v11z M11 22h11v-11h-11v11zM11 11h11v-11h-11v11zM0 11h11v-11h-11v11zM0 22h11v-11h-11v11zM54 11h11v-11h-11v11zM64 11h11v-11h-11v11zM64 22h11v-11h-11v11zM64 32h11v-11h-11v11zM64 43h11v-11h-11v11zM64 54h11v-11h-11v11zM64 65h11v-11h-11v11zM64 75h11v-11h-11v11z M54 54h11v-11h-11v11zM54 43h11v-11h-11v11zM54 32h11v-11h-11v11zM54 22h11v-11h-11v11zM54 65h11v-11h-11v11zM21 75h11v-11h-11v11zM32 75h11v-11h-11v11zM43 75h11v-11h-11v11zM43 86h11v-11h-11v11zM54 86h11v-11h-11v11zM54 75h11v-11h-11v11zM32 86h11v-11h-11v11z M32 -10h11v-11h-11v11zM43 -10h11v-11h-11v11zM43 -21h11v-11h-11v11zM32 -21h11v-11h-11v11zM43 -32h11v-11h-11v11zM32 -43h11v-11h-11v11z"
         id="glyph177" />
      <glyph
         glyph-name="ntilde"
         unicode="ñ"
         d="M0 75h11v-11h-11v11zM0 86h11v-11h-11v11zM11 86h11v-11h-11v11zM11 75h11v-11h-11v11zM11 65h11v-11h-11v11zM11 54h11v-11h-11v11zM11 43h11v-11h-11v11zM0 43h11v-11h-11v11zM0 54h11v-11h-11v11zM0 65h11v-11h-11v11zM0 32h11v-11h-11v11zM11 32h11v-11h-11v11z M11 22h11v-11h-11v11zM11 11h11v-11h-11v11zM0 11h11v-11h-11v11zM0 22h11v-11h-11v11zM54 11h11v-11h-11v11zM64 11h11v-11h-11v11zM64 22h11v-11h-11v11zM64 32h11v-11h-11v11zM64 43h11v-11h-11v11zM64 54h11v-11h-11v11zM64 65h11v-11h-11v11zM64 75h11v-11h-11v11z M54 54h11v-11h-11v11zM54 43h11v-11h-11v11zM54 32h11v-11h-11v11zM54 22h11v-11h-11v11zM54 65h11v-11h-11v11zM21 75h11v-11h-11v11zM32 75h11v-11h-11v11zM43 75h11v-11h-11v11zM43 86h11v-11h-11v11zM54 86h11v-11h-11v11zM54 75h11v-11h-11v11zM32 86h11v-11h-11v11z M32 118h11v-11h-11v11zM11 129h11v-11h-11v11zM21 129h11v-11h-11v11zM43 118h11v-11h-11v11zM54 118h11v-11h-11v11zM54 129h11v-11h-11v11zM43 107h11v-11h-11v11zM32 129h11v-11h-11v11zM21 140h11v-11h-11v11zM11 118h11v-11h-11v11z"
         id="glyph178" />
      <glyph
         glyph-name="eng"
         unicode="ŋ"
         d="M0 75h11v-11h-11v11zM0 86h11v-11h-11v11zM11 86h11v-11h-11v11zM11 75h11v-11h-11v11zM11 65h11v-11h-11v11zM11 54h11v-11h-11v11zM11 43h11v-11h-11v11zM0 43h11v-11h-11v11zM0 54h11v-11h-11v11zM0 65h11v-11h-11v11zM0 32h11v-11h-11v11zM11 32h11v-11h-11v11z M11 22h11v-11h-11v11zM11 11h11v-11h-11v11zM0 11h11v-11h-11v11zM0 22h11v-11h-11v11zM54 11h11v-11h-11v11zM64 11h11v-11h-11v11zM64 22h11v-11h-11v11zM64 32h11v-11h-11v11zM64 43h11v-11h-11v11zM64 54h11v-11h-11v11zM64 65h11v-11h-11v11zM64 75h11v-11h-11v11z M54 54h11v-11h-11v11zM54 43h11v-11h-11v11zM54 32h11v-11h-11v11zM54 22h11v-11h-11v11zM54 65h11v-11h-11v11zM21 75h11v-11h-11v11zM32 75h11v-11h-11v11zM43 75h11v-11h-11v11zM43 86h11v-11h-11v11zM54 86h11v-11h-11v11zM54 75h11v-11h-11v11zM32 86h11v-11h-11v11z M54 0h11v-11h-11v11zM64 0h11v-11h-11v11zM54 -10h11v-11h-11v11zM43 -10h11v-11h-11v11z"
         id="glyph179" />
      <glyph
         glyph-name="o"
         unicode="o"
         d="M21 86h11v-11h-11v11zM11 86h11v-11h-11v11zM11 75h11v-11h-11v11zM21 75h11v-11h-11v11zM32 86h11v-11h-11v11zM43 86h11v-11h-11v11zM54 86h11v-11h-11v11zM54 75h11v-11h-11v11zM43 75h11v-11h-11v11zM54 54h11v-11h-11v11zM64 75h11v-11h-11v11zM64 65h11v-11h-11v11 zM64 54h11v-11h-11v11zM64 43h11v-11h-11v11zM64 32h11v-11h-11v11zM64 22h11v-11h-11v11zM54 22h11v-11h-11v11zM54 32h11v-11h-11v11zM54 43h11v-11h-11v11zM54 65h11v-11h-11v11zM43 22h11v-11h-11v11zM54 11h11v-11h-11v11zM43 11h11v-11h-11v11zM32 11h11v-11h-11v11z M21 11h11v-11h-11v11zM11 11h11v-11h-11v11zM11 22h11v-11h-11v11zM21 22h11v-11h-11v11zM11 32h11v-11h-11v11zM0 22h11v-11h-11v11zM0 32h11v-11h-11v11zM0 43h11v-11h-11v11zM0 54h11v-11h-11v11zM0 65h11v-11h-11v11zM0 75h11v-11h-11v11zM11 65h11v-11h-11v11zM11 54 h11v-11h-11v11zM11 43h11v-11h-11v11zM32 22h11v-11h-11v11zM32 75h11v-11h-11v11z"
         id="glyph180" />
      <glyph
         glyph-name="oacute"
         unicode="ó"
         d="M21 86h11v-11h-11v11zM11 86h10v-11h-10v11zM11 75h10v-11h-10v11zM21 75h11v-11h-11v11zM32 86h11v-11h-11v11zM43 86h11v-11h-11v11zM54 86h10v-11h-10v11zM54 75h10v-11h-10v11zM43 75h11v-11h-11v11zM54 54h10v-11h-10v11zM64 75h11v-11h-11v11zM64 64h11v-10h-11v10 zM64 54h11v-11h-11v11zM64 43h11v-11h-11v11zM64 32h11v-11h-11v11zM64 21h11v-10h-11v10zM54 21h10v-10h-10v10zM54 32h10v-11h-10v11zM54 43h10v-11h-10v11zM54 64h10v-10h-10v10zM43 21h11v-10h-11v10zM54 11h10v-11h-10v11zM43 11h11v-11h-11v11zM32 11h11v-11h-11v11z M21 11h11v-11h-11v11zM11 11h10v-11h-10v11zM11 21h10v-10h-10v10zM21 21h11v-10h-11v10zM11 32h10v-11h-10v11zM0 21h11v-10h-11v10zM0 32h11v-11h-11v11zM0 43h11v-11h-11v11zM0 54h11v-11h-11v11zM0 64h11v-10h-11v10zM0 75h11v-11h-11v11zM11 64h10v-10h-10v10zM11 54 h10v-11h-10v11zM11 43h10v-11h-10v11zM32 21h11v-10h-11v10zM32 75h11v-11h-11v11zM43 118v-11h-11v11h11zM54 129v-11h-11v11h11zM43 107v-11h-11v11h11zM54 118v-11h-11v11h11zM21 107h11v-11h-11v11z"
         id="glyph181" />
      <glyph
         glyph-name="ocircumflex"
         unicode="ô"
         d="M21 86h11v-11h-11v11zM11 86h11v-11h-11v11zM11 75h11v-11h-11v11zM21 75h11v-11h-11v11zM32 86h11v-11h-11v11zM43 86h11v-11h-11v11zM54 86h11v-11h-11v11zM54 75h11v-11h-11v11zM43 75h11v-11h-11v11zM54 54h11v-11h-11v11zM64 75h11v-11h-11v11zM64 65h11v-11h-11v11 zM64 54h11v-11h-11v11zM64 43h11v-11h-11v11zM64 32h11v-11h-11v11zM64 22h11v-11h-11v11zM54 22h11v-11h-11v11zM54 32h11v-11h-11v11zM54 43h11v-11h-11v11zM54 65h11v-11h-11v11zM43 22h11v-11h-11v11zM54 11h11v-11h-11v11zM43 11h11v-11h-11v11zM32 11h11v-11h-11v11z M21 11h11v-11h-11v11zM11 11h11v-11h-11v11zM11 22h11v-11h-11v11zM21 22h11v-11h-11v11zM11 32h11v-11h-11v11zM0 22h11v-11h-11v11zM0 32h11v-11h-11v11zM0 43h11v-11h-11v11zM0 54h11v-11h-11v11zM0 65h11v-11h-11v11zM0 75h11v-11h-11v11zM11 65h11v-11h-11v11zM11 54 h11v-11h-11v11zM11 43h11v-11h-11v11zM32 22h11v-11h-11v11zM32 75h11v-11h-11v11zM21 107h11v-11h-11v11zM43 107h11v-11h-11v11zM32 118h11v-11h-11v11zM21 118h11v-11h-11v11zM43 118h11v-11h-11v11zM11 107h11v-11h-11v11zM54 107h11v-11h-11v11zM32 129h11v-11h-11v11z "
         id="glyph182" />
      <glyph
         glyph-name="odieresis"
         unicode="ö"
         d="M21 86h11v-11h-11v11zM11 86h11v-11h-11v11zM11 75h11v-11h-11v11zM21 75h11v-11h-11v11zM32 86h11v-11h-11v11zM43 86h11v-11h-11v11zM54 86h11v-11h-11v11zM54 75h11v-11h-11v11zM43 75h11v-11h-11v11zM54 54h11v-11h-11v11zM64 75h11v-11h-11v11zM64 65h11v-11h-11v11 zM64 54h11v-11h-11v11zM64 43h11v-11h-11v11zM64 32h11v-11h-11v11zM64 22h11v-11h-11v11zM54 22h11v-11h-11v11zM54 32h11v-11h-11v11zM54 43h11v-11h-11v11zM54 65h11v-11h-11v11zM43 22h11v-11h-11v11zM54 11h11v-11h-11v11zM43 11h11v-11h-11v11zM32 11h11v-11h-11v11z M21 11h11v-11h-11v11zM11 11h11v-11h-11v11zM11 22h11v-11h-11v11zM21 22h11v-11h-11v11zM11 32h11v-11h-11v11zM0 22h11v-11h-11v11zM0 32h11v-11h-11v11zM0 43h11v-11h-11v11zM0 54h11v-11h-11v11zM0 65h11v-11h-11v11zM0 75h11v-11h-11v11zM11 65h11v-11h-11v11zM11 54 h11v-11h-11v11zM11 43h11v-11h-11v11zM32 22h11v-11h-11v11zM32 75h11v-11h-11v11zM43 118h11v-11h-11v11zM54 118h11v-11h-11v11zM54 107h11v-11h-11v11zM43 107h11v-11h-11v11zM11 107h11v-11h-11v11zM21 107h11v-11h-11v11zM21 118h11v-11h-11v11zM11 118h11v-11h-11v11z "
         id="glyph183" />
      <glyph
         glyph-name="ograve"
         unicode="ò"
         d="M21 86h11v-11h-11v11zM11 86h11v-11h-11v11zM11 75h11v-11h-11v11zM21 75h11v-11h-11v11zM32 86h11v-11h-11v11zM43 86h11v-11h-11v11zM54 86h11v-11h-11v11zM54 75h11v-11h-11v11zM43 75h11v-11h-11v11zM54 54h11v-11h-11v11zM64 75h11v-11h-11v11zM64 65h11v-11h-11v11 zM64 54h11v-11h-11v11zM64 43h11v-11h-11v11zM64 32h11v-11h-11v11zM64 22h11v-11h-11v11zM54 22h11v-11h-11v11zM54 32h11v-11h-11v11zM54 43h11v-11h-11v11zM54 65h11v-11h-11v11zM43 22h11v-11h-11v11zM54 11h11v-11h-11v11zM43 11h11v-11h-11v11zM32 11h11v-11h-11v11z M21 11h11v-11h-11v11zM11 11h11v-11h-11v11zM11 22h11v-11h-11v11zM21 22h11v-11h-11v11zM11 32h11v-11h-11v11zM0 22h11v-11h-11v11zM0 32h11v-11h-11v11zM0 43h11v-11h-11v11zM0 54h11v-11h-11v11zM0 65h11v-11h-11v11zM0 75h11v-11h-11v11zM11 65h11v-11h-11v11zM11 54 h11v-11h-11v11zM11 43h11v-11h-11v11zM32 22h11v-11h-11v11zM32 75h11v-11h-11v11zM32 118h11v-11h-11v11zM21 129h11v-11h-11v11zM32 107h11v-11h-11v11zM21 118h11v-11h-11v11zM43 107h11v-11h-11v11z"
         id="glyph184" />
      <glyph
         glyph-name="ohungarumlaut"
         unicode="ő"
         d="M21 86h11v-11h-11v11zM11 86h10v-11h-10v11zM11 75h10v-11h-10v11zM21 75h11v-11h-11v11zM32 86h11v-11h-11v11zM43 86h11v-11h-11v11zM54 86h10v-11h-10v11zM54 75h10v-11h-10v11zM43 75h11v-11h-11v11zM54 54h10v-11h-10v11zM64 75h11v-11h-11v11zM64 64h11v-10h-11v10 zM64 54h11v-11h-11v11zM64 43h11v-11h-11v11zM64 32h11v-11h-11v11zM64 21h11v-10h-11v10zM54 21h10v-10h-10v10zM54 32h10v-11h-10v11zM54 43h10v-11h-10v11zM54 64h10v-10h-10v10zM43 21h11v-10h-11v10zM54 11h10v-11h-10v11zM43 11h11v-11h-11v11zM32 11h11v-11h-11v11z M21 11h11v-11h-11v11zM11 11h10v-11h-10v11zM11 21h10v-10h-10v10zM21 21h11v-10h-11v10zM11 32h10v-11h-10v11zM0 21h11v-10h-11v10zM0 32h11v-11h-11v11zM0 43h11v-11h-11v11zM0 54h11v-11h-11v11zM0 64h11v-10h-11v10zM0 75h11v-11h-11v11zM11 64h10v-10h-10v10zM11 54 h10v-11h-10v11zM11 43h10v-11h-10v11zM32 21h11v-10h-11v10zM32 75h11v-11h-11v11zM32 118v-11h-11v11h11zM43 129v-11h-11v11h11zM32 107v-11h-11v11h11zM43 118v-11h-11v11h11zM11 107h10v-11h-10v11zM64 118v-11h-10v11h10zM75 129v-11h-11v11h11zM64 107v-11h-10v11h10z M75 118v-11h-11v11h11zM43 107h11v-11h-11v11z"
         id="glyph185" />
      <glyph
         glyph-name="omacron"
         unicode="ō"
         d="M21 86h11v-11h-11v11zM11 86h11v-11h-11v11zM11 75h11v-11h-11v11zM21 75h11v-11h-11v11zM32 86h11v-11h-11v11zM43 86h11v-11h-11v11zM54 86h11v-11h-11v11zM54 75h11v-11h-11v11zM43 75h11v-11h-11v11zM54 54h11v-11h-11v11zM64 75h11v-11h-11v11zM64 65h11v-11h-11v11 zM64 54h11v-11h-11v11zM64 43h11v-11h-11v11zM64 32h11v-11h-11v11zM64 22h11v-11h-11v11zM54 22h11v-11h-11v11zM54 32h11v-11h-11v11zM54 43h11v-11h-11v11zM54 65h11v-11h-11v11zM43 22h11v-11h-11v11zM54 11h11v-11h-11v11zM43 11h11v-11h-11v11zM32 11h11v-11h-11v11z M21 11h11v-11h-11v11zM11 11h11v-11h-11v11zM11 22h11v-11h-11v11zM21 22h11v-11h-11v11zM11 32h11v-11h-11v11zM0 22h11v-11h-11v11zM0 32h11v-11h-11v11zM0 43h11v-11h-11v11zM0 54h11v-11h-11v11zM0 65h11v-11h-11v11zM0 75h11v-11h-11v11zM11 65h11v-11h-11v11zM11 54 h11v-11h-11v11zM11 43h11v-11h-11v11zM32 22h11v-11h-11v11zM32 75h11v-11h-11v11zM21 129h11v-11h-11v11zM32 129h11v-11h-11v11zM32 118h11v-11h-11v11zM21 118h11v-11h-11v11zM11 129h11v-11h-11v11zM11 118h11v-11h-11v11zM43 129h11v-11h-11v11zM43 118h11v-11h-11v11z M54 129h11v-11h-11v11zM54 118h11v-11h-11v11z"
         id="glyph186" />
      <glyph
         glyph-name="oslash"
         unicode="ø"
         horiz-adv-x="107"
         d="M32 86h11v-11h-11v11zM21 86h11v-11h-11v11zM21 75h11v-11h-11v11zM32 75h11v-11h-11v11zM43 86h11v-11h-11v11zM54 86h11v-11h-11v11zM64 86h11v-11h-11v11zM64 75h11v-11h-11v11zM54 75h11v-11h-11v11zM64 54h11v-11h-11v11zM75 75h11v-11h-11v11zM75 65h11v-11h-11v11 zM75 54h11v-11h-11v11zM75 43h11v-11h-11v11zM75 32h11v-11h-11v11zM75 22h11v-11h-11v11zM64 22h11v-11h-11v11zM64 32h11v-11h-11v11zM64 43h11v-11h-11v11zM64 65h11v-11h-11v11zM54 22h11v-11h-11v11zM64 11h11v-11h-11v11zM54 11h11v-11h-11v11zM43 11h11v-11h-11v11z M32 11h11v-11h-11v11zM21 11h11v-11h-11v11zM21 22h11v-11h-11v11zM32 22h11v-11h-11v11zM21 32h11v-11h-11v11zM11 22h11v-11h-11v11zM11 32h11v-11h-11v11zM11 43h11v-11h-11v11zM11 54h11v-11h-11v11zM11 65h11v-11h-11v11zM11 75h11v-11h-11v11zM21 65h11v-11h-11v11z M21 54h11v-11h-11v11zM21 43h11v-11h-11v11zM43 22h11v-11h-11v11zM43 75h11v-11h-11v11zM54 54h11v-11h-11v11zM43 43h11v-11h-11v11zM32 43h11v-11h-11v11zM43 54h11v-11h-11v11zM0 22h11v-11h-11v11zM86 75h11v-11h-11v11zM86 86h11v-11h-11v11zM0 11h11v-11h-11v11z"
         id="glyph187" />
      <glyph
         glyph-name="otilde"
         unicode="õ"
         d="M21 86h11v-11h-11v11zM11 86h11v-11h-11v11zM11 75h11v-11h-11v11zM21 75h11v-11h-11v11zM32 86h11v-11h-11v11zM43 86h11v-11h-11v11zM54 86h11v-11h-11v11zM54 75h11v-11h-11v11zM43 75h11v-11h-11v11zM54 54h11v-11h-11v11zM64 75h11v-11h-11v11zM64 65h11v-11h-11v11 zM64 54h11v-11h-11v11zM64 43h11v-11h-11v11zM64 32h11v-11h-11v11zM64 22h11v-11h-11v11zM54 22h11v-11h-11v11zM54 32h11v-11h-11v11zM54 43h11v-11h-11v11zM54 65h11v-11h-11v11zM43 22h11v-11h-11v11zM54 11h11v-11h-11v11zM43 11h11v-11h-11v11zM32 11h11v-11h-11v11z M21 11h11v-11h-11v11zM11 11h11v-11h-11v11zM11 22h11v-11h-11v11zM21 22h11v-11h-11v11zM11 32h11v-11h-11v11zM0 22h11v-11h-11v11zM0 32h11v-11h-11v11zM0 43h11v-11h-11v11zM0 54h11v-11h-11v11zM0 65h11v-11h-11v11zM0 75h11v-11h-11v11zM11 65h11v-11h-11v11zM11 54 h11v-11h-11v11zM11 43h11v-11h-11v11zM32 22h11v-11h-11v11zM32 75h11v-11h-11v11zM32 118h11v-11h-11v11zM11 129h11v-11h-11v11zM21 129h11v-11h-11v11zM43 118h11v-11h-11v11zM54 118h11v-11h-11v11zM54 129h11v-11h-11v11zM43 107h11v-11h-11v11zM32 129h11v-11h-11v11z M21 140h11v-11h-11v11zM11 118h11v-11h-11v11z"
         id="glyph188" />
      <glyph
         glyph-name="oe"
         unicode="œ"
         horiz-adv-x="128"
         d="M64 86h11v-11h-11v11zM64 75h11v-11h-11v11zM75 86h11v-11h-11v11zM86 86h11v-11h-11v11zM96 86h11v-11h-11v11zM96 75h11v-11h-11v11zM86 75h11v-11h-11v11zM107 75h11v-11h-11v11zM107 65h11v-11h-11v11zM107 22h11v-11h-11v11zM96 22h11v-11h-11v11zM86 22h11v-11h-11 v11zM96 11h11v-11h-11v11zM86 11h11v-11h-11v11zM75 11h11v-11h-11v11zM64 11h11v-11h-11v11zM64 22h11v-11h-11v11zM75 22h11v-11h-11v11zM75 75h11v-11h-11v11zM96 54h11v-11h-11v11zM107 54h11v-11h-11v11zM64 43h11v-11h-11v11zM75 43h11v-11h-11v11zM86 43h11v-11h-11 v11zM96 43h11v-11h-11v11zM107 43h11v-11h-11v11zM86 54h11v-11h-11v11zM75 54h11v-11h-11v11zM64 54h11v-11h-11v11zM21 86h11v-11h-11v11zM11 86h11v-11h-11v11zM11 75h11v-11h-11v11zM21 75h11v-11h-11v11zM32 86h11v-11h-11v11zM43 86h11v-11h-11v11zM54 75h11v-11h-11 v11zM54 65h11v-11h-11v11zM54 54h11v-11h-11v11zM54 43h11v-11h-11v11zM54 22h11v-11h-11v11zM43 11h11v-11h-11v11zM32 11h11v-11h-11v11zM21 11h11v-11h-11v11zM11 11h11v-11h-11v11zM11 22h11v-11h-11v11zM21 22h11v-11h-11v11zM11 32h11v-11h-11v11zM0 22h11v-11h-11v11 zM0 32h11v-11h-11v11zM0 43h11v-11h-11v11zM0 54h11v-11h-11v11zM0 65h11v-11h-11v11zM0 75h11v-11h-11v11zM11 65h11v-11h-11v11zM11 54h11v-11h-11v11zM11 43h11v-11h-11v11zM32 75h11v-11h-11v11zM43 75h11v-11h-11v11zM32 22h11v-11h-11v11zM96 65h11v-11h-11v11zM54 11 h11v-11h-11v11zM54 86h11v-11h-11v11zM43 22h11v-11h-11v11zM54 32h11v-11h-11v11zM64 32h11v-11h-11v11zM64 65h11v-11h-11v11z"
         id="glyph189" />
      <glyph
         glyph-name="p"
         unicode="p"
         d="M0 75h11v-11h-11v11zM0 86h11v-11h-11v11zM11 86h11v-11h-11v11zM11 75h11v-11h-11v11zM11 65h11v-11h-11v11zM11 54h11v-11h-11v11zM11 43h11v-11h-11v11zM0 43h11v-11h-11v11zM0 54h11v-11h-11v11zM0 65h11v-11h-11v11zM0 32h11v-11h-11v11zM11 32h11v-11h-11v11z M11 22h11v-11h-11v11zM11 11h11v-11h-11v11zM0 11h11v-11h-11v11zM0 22h11v-11h-11v11zM54 11h11v-11h-11v11zM64 22h11v-11h-11v11zM64 32h11v-11h-11v11zM64 43h11v-11h-11v11zM64 54h11v-11h-11v11zM64 65h11v-11h-11v11zM64 75h11v-11h-11v11zM54 54h11v-11h-11v11z M54 43h11v-11h-11v11zM54 32h11v-11h-11v11zM54 22h11v-11h-11v11zM54 65h11v-11h-11v11zM21 75h11v-11h-11v11zM32 75h11v-11h-11v11zM43 75h11v-11h-11v11zM43 86h11v-11h-11v11zM54 86h11v-11h-11v11zM54 75h11v-11h-11v11zM32 86h11v-11h-11v11zM21 11h11v-11h-11v11z M32 11h11v-11h-11v11zM43 11h11v-11h-11v11zM43 22h11v-11h-11v11zM32 22h11v-11h-11v11zM21 22h11v-11h-11v11zM0 0h11v-11h-11v11zM11 0h11v-11h-11v11zM11 -10h11v-11h-11v11zM0 -10h11v-11h-11v11z"
         id="glyph190" />
      <glyph
         glyph-name="thorn"
         unicode="þ"
         d="M0 75h11v-11h-11v11zM0 86h11v-11h-11v11zM11 86h11v-11h-11v11zM11 75h11v-11h-11v11zM11 65h11v-11h-11v11zM11 54h11v-11h-11v11zM11 43h11v-11h-11v11zM0 43h11v-11h-11v11zM0 54h11v-11h-11v11zM0 65h11v-11h-11v11zM0 32h11v-11h-11v11zM11 32h11v-11h-11v11z M11 22h11v-11h-11v11zM11 11h11v-11h-11v11zM0 11h11v-11h-11v11zM0 22h11v-11h-11v11zM54 11h11v-11h-11v11zM64 22h11v-11h-11v11zM64 32h11v-11h-11v11zM64 43h11v-11h-11v11zM64 54h11v-11h-11v11zM64 65h11v-11h-11v11zM64 75h11v-11h-11v11zM54 54h11v-11h-11v11z M54 43h11v-11h-11v11zM54 32h11v-11h-11v11zM54 22h11v-11h-11v11zM54 65h11v-11h-11v11zM21 75h11v-11h-11v11zM32 75h11v-11h-11v11zM43 75h11v-11h-11v11zM43 86h11v-11h-11v11zM54 86h11v-11h-11v11zM54 75h11v-11h-11v11zM32 86h11v-11h-11v11zM21 11h11v-11h-11v11z M32 11h11v-11h-11v11zM43 11h11v-11h-11v11zM43 22h11v-11h-11v11zM32 22h11v-11h-11v11zM21 22h11v-11h-11v11zM0 0h11v-11h-11v11zM11 0h11v-11h-11v11zM11 -10h11v-11h-11v11zM0 -10h11v-11h-11v11zM0 97h11v-11h-11v11zM11 97h11v-11h-11v11zM11 107h11v-11h-11v11z M0 107h11v-11h-11v11z"
         id="glyph191" />
      </font>
</defs>
</svg>
