<svg xmlns="http://www.w3.org/2000/svg">
<defs>
<font
   id="Cat"
   horiz-adv-x="300"
   horiz-origin-x="0"
   horiz-origin-y="0"
   vert-origin-x="512"
   vert-origin-y="768"
   vert-adv-y="1024"><font-face
     font-family="Cat"
     font-weight="400"
     font-stretch="normal"
     units-per-em="1000"
     panose-1="2 0 5 3 0 0 0 0 0 0"
     ascent="800"
     descent="-200"
     x-height="562"
     cap-height="755"
     bbox="-6 -226 1094 872"
     underline-thickness="50"
     underline-position="-100"
     unicode-range="U+0020-2212"
     id="font-face1" /><missing-glyph
     horiz-adv-x="364"
     d="M33 0v666h265v-666h-265zM66 33h199v600h-199v-600z"
     id="missing-glyph1" /><glyph
     glyph-name=".notdef"
     horiz-adv-x="364"
     d="M33 0v666h265v-666h-265zM66 33h199v600h-199v-600z"
     id="glyph1" /><glyph
     glyph-name="uni0000"
     id="glyph2" /><glyph
     glyph-name="uni0000"
     id="glyph3" /><glyph
     glyph-name="uni0009"
     horiz-adv-x="333"
     id="glyph4" /><glyph
     glyph-name="uni000D"
     id="glyph5" /><glyph
     glyph-name="space"
     unicode=" "
     id="glyph6" /><glyph
     glyph-name="exclam"
     unicode="!"
     horiz-adv-x="145"
     d="M48 744q11 12 22 12q10 0 18 -9q6 -6 7.5 -34.5t1.5 -128.5q0 -146 6 -248q3 -47 3 -71q0 -27 -4.5 -36t-16.5 -9h-7q-18 1 -26 18q-6 12 -11 135.5t-5 245.5v25q1 59 3 75.5t9 24.5zM48 72q9 14 29 14q31 0 31 -27q0 -4 -4 -18q-10 -21 -27 -21q-9 0 -20 8 q-16 12 -16 24q0 10 7 20z"
     id="glyph7" /><glyph
     glyph-name="quotedbl"
     unicode="&quot;"
     horiz-adv-x="335"
     d="M229 724q12 15 29 15q11 0 15 -7q5 -10 5 -71q0 -65 11 -94q7 -18 7 -30q0 -19 -26 -22h-5q-13 0 -22 13q-26 40 -26 131q0 49 12 65zM47 715q9 12 29 12q14 0 18 -7q5 -10 5 -71q1 -66 11 -89q11 -25 11 -44q0 -16 -8 -21q-8 -4 -13 -4q-24 0 -36 23q-26 50 -26 144 q0 44 9 57z"
     id="glyph8" /><glyph
     glyph-name="numbersign"
     unicode="#"
     horiz-adv-x="492"
     d="M298 295q2 1 13.5 74t11.5 82q0 4 -16 4q-15 0 -39.5 -2.5t-42.5 -5.5t-19 -4q-2 -2 -17 -72.5t-15 -78.5q0 -3 40 -3q80 0 84 6zM382 714q6 6 17 6q17 0 25 -11q2 -2 2 -12q0 -19 -12 -82q-12 -60 -12 -77q0 -12 4.5 -15t16.5 -4q8 0 19 -11q10 -11 4 -26 q-7 -15 -26 -15q-24 0 -31 -12.5t-15 -67.5q-9 -68 -9 -72q0 -10 3.5 -12.5t12.5 -2.5h8q39 0 39 -27q0 -26 -43 -30q-26 -2 -30 -8q-3 -3 -20 -110q-14 -88 -21.5 -112.5t-22.5 -34.5q-9 -6 -13.5 -6t-14.5 7q-15 10 -12 25q37 196 37 229q0 3 -16 3q-27 0 -69.5 -4.5 t-43.5 -8.5q-2 -7 -26 -111q-21 -90 -32.5 -121t-24.5 -35q-2 -1 -6 -1q-10 0 -19.5 8.5t-9.5 18.5q0 1 25 111t25 122q0 10 -17 10q-27 0 -27 27q0 25 40 25q19 0 23 13q5 14 16 70.5t11 68.5q0 2 -2 2q-8 0 -36 -5q-17 -3 -27 -3q-25 0 -25 25q0 26 66 39l41 7l13 87 q12 75 19.5 95t23.5 21h5q19 0 19 -32q0 -26 -7 -74q-9 -70 -9 -82q0 -1 4 -1q15 0 62 5.5t50 7.5q5 11 22 94q20 92 26 99z"
     id="glyph9" /><glyph
     glyph-name="dollar"
     unicode="$"
     horiz-adv-x="393"
     d="M284 332q-8 12 -22 22.5t-21 10.5q-2 0 -3 -1q-1 -2 -1 -14q0 -24 4 -61t8 -39q1 0 1 -0.5t1 -0.5q8 0 25 21t17 33q0 15 -9 29zM163 547q-4 63 -8 67h-1q-7 0 -27 -22q-15 -17 -19.5 -25.5t-4.5 -23.5t4 -22t20 -19q23 -17 30 -17q8 0 8 22q0 6 -2 40zM155 794q9 9 22 9 q11 0 17 -7q6 -8 11 -48l5 -40l56 1h29q31 0 39 -8q12 -12 12 -21q0 -22 -46 -22q-26 0 -51 -5t-31 -11q-1 -1 -1 -22q0 -30 3 -77q7 -96 18 -102q60 -35 87.5 -66t27.5 -67q0 -12 -3 -26q-10 -46 -66 -86q-19 -14 -24 -20t-5 -14q0 -6 1 -11q1 -7 12 -96q7 -61 7 -64 q0 -13 -9 -22q-8 -8 -20 -8q-19 0 -27 20q-7 21 -12 65q-8 62 -11 77t-8 15q-9 0 -42 -14q-32 -13 -57 -13q-38 0 -38 30q0 13 8.5 19t34.5 12q34 8 62.5 23.5t28.5 26.5q0 10 -6.5 95t-9.5 88q-1 3 -36 22q-40 23 -59 40t-26 38q-7 17 -7 36q0 65 76 120l35 25l-2 50 q-1 9 -1 23q0 29 6 35z"
     id="glyph10" /><glyph
     glyph-name="percent"
     unicode="%"
     horiz-adv-x="766"
     d="M540 740q14 16 25 16q10 0 19 -11q4 -6 4 -9q0 -13 -79 -171q-88 -176 -213 -408q-71 -131 -82 -138q-10 -6 -14 -6.5t-14 6.5q-15 9 -15 22q0 14 57 117q74 135 226 427q71 138 86 155zM189 643q-39 28 -48 28q-6 0 -13 -7q-31 -36 -31 -130q0 -42 8 -67q9 -29 30 -52 t40 -23q29 0 48 38.5t19 89.5q0 48 -17 83q-9 20 -36 40zM131 744q15 3 26 3q22 0 29 -13q3 -5 45 -47q36 -33 50 -58q22 -46 22 -114q0 -51 -13 -89q-7 -21 -27.5 -47t-35.5 -34q-23 -13 -50 -13q-34 0 -64.5 22.5t-51.5 64.5q-13 26 -17 42.5t-5 56.5q0 4 -0.5 11.5 t-0.5 11.5q0 82 32 138q15 24 15 33q0 22 46 32zM605 349q-33 26 -37 26q-2 0 -19 -26q-39 -68 -39 -147q0 -85 42 -106q19 -10 36 -10q56 0 74 97q5 27 5 45q0 72 -62 121zM549 433q18 11 42 11q36 0 36 -22q0 -8 37 -43q35 -34 47.5 -63.5t12.5 -79.5v-23 q-4 -103 -48 -147q-43 -43 -92 -43q-44 0 -82 36q-52 49 -52 143q0 98 57 185q22 34 42 46z"
     id="glyph11" /><glyph
     glyph-name="ampersand"
     unicode="&amp;"
     horiz-adv-x="563"
     d="M277 92q0 7 -28 44.5t-54.5 70t-28.5 34.5h-1q-6 0 -21.5 -20.5t-25.5 -41.5q-8 -17 -8 -42q0 -33 16 -46q23 -19 59 -19q16 0 44 5q48 10 48 15zM243 674q-17 7 -36 7q-33 0 -60.5 -23.5t-40.5 -64.5q-8 -29 -8 -53q0 -50 37 -127q3 -7 7 -15t6.5 -12.5t5 -10.5 t4.5 -9.5l4 -7t4 -5.5t3.5 -4t3.5 -2.5t4 -0.5q6 0 42 31q113 101 113 170q0 29 -16 57q-29 51 -73 70zM166 739q14 4 29 4q47 0 79 -16q29 -14 60 -46t44 -62q16 -33 16 -70q0 -100 -140 -221q-39 -34 -39 -43q0 -6 41.5 -59.5t65.5 -81.5l18 -20l37 38q69 72 87 153 q13 53 32 53q5 0 8 -1q20 -5 20 -31q0 -12 -5 -35q-10 -49 -46 -109.5t-72 -89.5q-21 -16 -21 -23t27 -38q23 -27 23 -36q0 -2 -2 -10q-5 -16 -23 -17h-5q-13 0 -44 31l-33 33l-46 -15q-49 -17 -91 -17q-43 0 -76 19q-46 27 -59 74q-4 13 -4 32q0 66 59 134l25 29l-19 29 q-19 28 -39.5 75.5t-27.5 77.5q-5 20 -5 56q0 66 15 100q16 35 46.5 63.5t64.5 39.5z"
     id="glyph12" /><glyph
     glyph-name="quotesingle"
     unicode="'"
     horiz-adv-x="153"
     d="M47 726q10 13 25 13q10 0 16 -7q6 -8 10 -54q4 -50 12 -82q5 -25 5 -35q0 -18 -16 -24q-8 -2 -11 -2q-29 0 -44 83q-6 36 -6 62q0 32 9 46z"
     id="glyph13" /><glyph
     glyph-name="parenleft"
     unicode="("
     horiz-adv-x="299"
     d="M188 729q19 22 39 22q11 0 18 -7t7 -19q0 -19 -12 -29q-15 -13 -45 -63t-45 -88q-35 -85 -48 -191q-4 -29 -4 -66q0 -104 35.5 -201t96.5 -157q26 -26 26 -40v-7q-2 -13 -5 -16.5t-17 -4.5h-7q-16 0 -45 29q-92 92 -130 243q-13 55 -13 168q0 75 7 111q37 196 142 316z "
     id="glyph14" /><glyph
     glyph-name="parenright"
     unicode=")"
     horiz-adv-x="299"
     d="M52 744q9 6 18 6q16 0 43 -28q72 -77 109.5 -184t37.5 -228q0 -180 -81 -353q-30 -62 -44 -82t-28 -20q-31 0 -31 26q0 9 32 75q56 113 79 231q10 56 10 99q0 30 -1 49q-7 200 -123 338q-31 37 -31 55q0 10 10 16z"
     id="glyph15" /><glyph
     glyph-name="asterisk"
     unicode="*"
     horiz-adv-x="415"
     d="M190 741q8 9 24 9t22 -8q6 -11 15 -59q11 -70 22 -70q7 0 33 28q26 29 48 29q21 0 21 -29q0 -13 -24 -40.5t-46 -38.5q-17 -9 -17 -16q0 -6 21 -50q19 -39 19 -56q0 -13 -11 -22q-11 -11 -28 -5q-10 4 -17.5 16t-23.5 49q-25 59 -39 59q-8 0 -12.5 -8t-12.5 -34 q-15 -55 -19 -63.5t-17 -9.5h-8q-24 0 -24 26q0 18 11 57q11 40 11 44q0 5 -41 23q-32 15 -44.5 27t-12.5 28q0 10 9 17t19 7q6 0 11 -3q40 -29 64 -29h3q8 2 12.5 12.5t11.5 45.5q13 57 20 64z"
     id="glyph16" /><glyph
     glyph-name="plus"
     unicode="+"
     horiz-adv-x="424"
     d="M187 601q9 9 19 9q13 0 21 -14q8 -18 11 -92q4 -77 7 -84q3 -3 46 -3h18h22q40 0 46 -10q7 -10 7 -17q0 -8 -7 -18q-9 -12 -68 -14l-59 -3l2 -88q1 -17 1 -42q0 -49 -6 -55q-7 -9 -21 -9q-19 0 -25 12q-6 13 -10 93q-4 81 -12 84q-1 1 -9 1q-9 0 -51 -4q-24 -3 -41 -3 q-39 0 -39 22q0 17 16 24.5t60 12.5q13 1 28.5 3t24.5 3t10 1q5 0 5 32q0 6 -2 58q-2 58 -2 63q0 30 8 38z"
     id="glyph17" /><glyph
     glyph-name="comma"
     unicode=","
     horiz-adv-x="161"
     d="M44 126q7 7 23 7q36 0 53 -76q4 -19 4 -40q0 -33 -12 -53.5t-33 -20.5h-4q-7 1 -10 2t-5 4t-2 9q0 1 0.5 5.5t0.5 7.5q2 42 2 50q0 32 -11 53q-12 24 -12 36q0 10 6 16z"
     id="glyph18" /><glyph
     glyph-name="hyphen"
     unicode="-"
     horiz-adv-x="362"
     d="M239 336q31 3 47 3q22 0 31 -10q10 -10 4 -26q-7 -15 -36 -20.5t-119 -9.5q-26 -1 -64 -1q-41 0 -53 5t-12 19q0 20 14 25t82 9q75 3 106 6z"
     id="glyph19" /><glyph
     glyph-name="period"
     unicode="."
     horiz-adv-x="147"
     d="M51 95q14 14 21 14q11 0 22.5 -10.5t14.5 -23.5q1 -4 1 -11q0 -17 -10 -27t-24 -10q-19 0 -32 18q-7 8 -7 20q0 16 14 30z"
     id="glyph20" /><glyph
     glyph-name="slash"
     unicode="/"
     horiz-adv-x="414"
     d="M324 763q11 11 22 11t18.5 -8.5t7.5 -21.5q0 -12 -65 -179q-16 -40 -36.5 -93t-43 -110t-29.5 -76q-101 -258 -111 -264q-7 -5 -23 -5q-17 0 -22 15q-1 2 -1 7q0 15 25 81.5t117 300.5q131 331 141 342z"
     id="glyph21" /><glyph
     glyph-name="zero"
     unicode="0"
     horiz-adv-x="570"
     d="M396 679q11 23 9 41l-2 17l-19 -25q-16 -20 -29.5 -28t-36.5 -8q-6 0 -28 2q-87 8 -116 31q-16 12 -19 9q-1 -1 -1 -11q0 -14 1 -22q1 -6 1 -17q0 -18 -13 -41q-13 -26 -13 -35q0 -8 13 -14q15 -7 15 -17t-13 -10q-5 0 -13 3q-8 2 -9 2q-12 0 -12 -26q0 -7 3.5 -8.5 t15.5 -0.5h4q16 0 16 -9q0 -12 -20 -18q-23 -8 -28 -20.5t-5 -66.5v-37q1 -104 13 -146q22 -81 60 -119t98 -38h2q42 0 71 16q129 70 129 302v5q-1 66 -7 82.5t-36 30.5q-33 17 -33 29q0 5 8 8t26 -6q10 -6 16 -6q5 0 5 6q0 4 -3 13q-7 21 -22 6q-7 -8 -16 2q-6 6 -5.5 9.5 t9.5 12.5q10 10 10 13q0 6 -26 50q-7 11 -7 18t7 21zM385 806q30 31 49 31q10 0 16 -5q19 -12 19 -68q0 -30 -6 -71q-3 -19 -3 -29q0 -13 7 -24q6 -10 10.5 -12t13.5 3q7 3 13 3q9 0 9 -7t-9 -17q-10 -10 -10 -16q0 -5 6 -17q3 -7 12 -44t15 -45q3 -3 3 -71v-27 q-1 -95 -17 -156q-17 -66 -26 -84q-23 -44 -65 -83t-82 -52q-28 -9 -73 -9q-41 0 -70 9q-28 9 -63 42t-53 68q-25 47 -33 94t-8 145q1 124 12 170l12 52l-15 15q-15 15 -11 22q3 6 14 6t17 -6q2 -2 3 -2q6 0 19 26q14 27 14 59q0 4 -0.5 15.5t-0.5 19.5v24q0 38 6 49.5 t24 11.5q22 0 60 -53q12 -16 30.5 -23t67.5 -14q7 -1 17 -1q13 0 29 19q15 18 47 52zM200 597q8 14 15 14q5 0 16 -8q12 -8 12 -23q0 -10 -6.5 -17.5t-16.5 -7.5q-5 0 -7 1q-19 5 -19 23q0 9 6 18zM303 605q8 8 22 6q16 -1 16 -25q0 -23 -20 -23q-6 0 -12 3q-13 4 -13 21 q0 11 7 18z"
     id="glyph22" /><glyph
     glyph-name="one"
     unicode="1"
     horiz-adv-x="341"
     d="M172 719q27 21 46 21q14 0 24 -12q10 -13 10 -57q0 -34 -1 -60q-3 -105 -3 -138q0 -23 2 -32t3 -9t9 -1q55 -6 55 -41q0 -29 -40 -60q-21 -15 -25.5 -23.5t-9.5 -36.5q-2 -14 -2 -16q0 -8 17 -18q3 -1 4 -2q34 -19 34 -42q0 -20 -26 -43l-21 -18l-2 -54q-1 -43 -8 -58 t-25 -15q-17 0 -21.5 13.5t-4.5 64.5q0 44 2 57.5t12 26.5l13 20l-14 16q-12 15 -12 37q0 21 1 37q3 41 6 52t16 23q17 16 10 21q-10 6 -14 6q-21 0 -21 76q0 33 7 127q2 20 2 52q0 21 -2 23h-1q-9 0 -56 -42q-50 -46 -62 -46q-11 0 -18 7t-7 18q0 10 44 55t79 71zM61 496 q0 8 4 8q10 0 32 -33l21 -33l8 21q9 22 9 27t6.5 10.5t12.5 5.5q4 0 6 -2q3 -3 3 -9q0 -8 -6 -28q-9 -28 -13.5 -35.5t-14.5 -7.5q-7 0 -11 1q-14 2 -21 8.5t-19 26.5q-17 29 -17 40zM112 375q8 8 18 8t16 -7.5t6 -17.5q0 -16 -12 -23q-5 -3 -10 -3q-9 0 -16 8.5t-7 19.5 q0 9 5 15zM111 235q9 10 22 10q15 0 19 -12q3 -7 3 -15q0 -12 -6.5 -20t-16.5 -8q-8 0 -17 6q-13 7 -13 20q0 8 9 19zM123 165q9 0 28 -42q14 -31 14 -43q0 -8 -7 -8q-2 0 -8 2q-7 4 -23.5 38.5t-16.5 45.5q0 7 13 7zM54 127q27 32 40 32q7 0 7 -10q0 -11 -26 -39t-37 -28 h-2q-9 3 -9 8q0 9 27 37z"
     id="glyph23" /><glyph
     glyph-name="two"
     unicode="2"
     horiz-adv-x="574"
     d="M332 772q28 29 36 35.5t19 6.5h8q21 -2 28 -12.5t7 -41.5q0 -21 -1 -34q-2 -34 -2 -39q0 -24 13 -45q16 -30 19 -60q4 -29 9.5 -36t24.5 -7q30 0 48 -12.5t18 -31.5q0 -17 -16 -33q-15 -15 -74 -41q-59 -27 -59 -32q0 -3 16 -14t16 -15q0 -10 -18 -10q-12 0 -25 7 q-9 5 -15 5q-5 0 -15 -10q-11 -12 -11 -23q0 -1 0.5 -4t0.5 -5q1 -3 1 -9q0 -14 -10 -14q-6 0 -13 6q-1 1 -4 1q-12 0 -97 -85q-91 -91 -91 -96q0 -4 146 -4q107 0 132.5 -3.5t25.5 -18.5q0 -7 -1 -11q-2 -18 -29 -23t-131 -5h-53h-172l-11 14q-11 13 -11 25q0 11 137 151 q97 97 118 121t22 40q2 17 5 20t18 3q19 0 31 10q10 8 31 16q27 10 27 17q0 4 -10 14q-9 8 -12.5 18.5t-5.5 37.5q-4 41 -19 70q-14 29 -14 62q0 37 -7 37q-6 0 -21 -20q-14 -17 -21 -20t-32 -3q-26 0 -30 -2t-4 -15q0 -18 -7 -21q-1 -1 -3 -1q-5 0 -10.5 8t-5.5 16q0 3 1 5 q0 1 0.5 2t0.5 2q0 6 -8 6q-11 0 -18 -10t-14 -3q-9 7 -15 7q-12 0 -52 -20q-31 -16 -47 -16q-18 0 -18 24q0 13 12.5 24.5t44.5 27.5q21 11 21 19q0 4 -1 7q-1 2 -1 7q0 12 10 12t20 -12q11 -12 21 -12q8 0 14 1q17 3 20.5 7t5.5 23q2 26 14 26q5 0 7.5 -2.5t4 -7.5 t2.5 -17q2 -20 4 -23.5t15 -3.5q12 0 23.5 8.5t36.5 34.5zM250 610q10 16 25 16q10 0 17.5 -9t7.5 -24q0 -14 -7.5 -22t-17.5 -8q-16 0 -26 17q-5 9 -5 15q0 5 6 15zM283 533q11 11 16 11q3 0 13 -5q11 -6 11 -25q0 -33 -26 -33q-12 0 -19 7.5t-7 18.5q0 14 12 26z"
     id="glyph24" /><glyph
     glyph-name="three"
     unicode="3"
     horiz-adv-x="554"
     d="M412 559q0 3 -3 3t-3 -3t3 -3t3 3zM114 829q11 8 21 8q20 0 84 -56q30 -27 49.5 -36t58.5 -14l29 -4l35 35q29 28 44 37.5t31 9.5q31 0 31 -38q0 -33 -22 -83q-15 -35 -15 -46q0 -8 4 -16q5 -12 10.5 -15t22.5 -3q30 0 30 -11t-30 -17q-13 -2 -16.5 -7t-5.5 -23 q-4 -26 -11 -39q-4 -10 -4 -12q0 -6 12 -18q11 -13 11 -20q0 -9 -10 -9t-21 10q-5 5 -9 5q-5 0 -32 -20q-30 -23 -32 -30q-1 -1 4 -5t13 -9q20 -10 45.5 -34.5t35.5 -45.5q13 -25 13 -78q0 -50 -10.5 -74.5t-47.5 -60.5q-78 -77 -213 -87q-3 0 -9 -0.5t-9 -0.5 q-62 0 -131 38q-19 10 -24 16t-5 20t2.5 17.5t15.5 4.5h3q18 0 44 -13q46 -23 84 -23q18 0 50 5q59 10 90.5 24t59.5 42q45 45 45 90q0 18 -6 39q-9 33 -40.5 57.5t-76.5 32.5q-15 3 -26 3q-14 0 -47 -9q-37 -10 -49 -10q-10 0 -20 10q-12 12 -12 20q0 19 77 43 q100 32 142 68l20 17l-13 21q-13 20 -19 22q-5 1 -5 6q0 6 8.5 12.5t20.5 9.5q21 6 21 9q0 1 -6 11q-9 13 -9 40q0 25 -5 25q-2 0 -12 -5q-3 -2 -15 -2q-33 0 -92.5 19.5t-68.5 34.5q-3 6 -7 6q-7 0 -7 -20q0 -18 -11.5 -26.5t-47.5 -19.5q-32 -9 -36 -15q-3 -6 -16 -6 t-20 7t-7 17q0 16 17 31q19 15 23 15q6 0 19 5l15 6l-11 30q-12 30 -12 51t13 31zM205 602q0 29 26 29q12 0 18.5 -7t6.5 -17q0 -13 -9 -23t-20 -10q-22 0 -22 28zM290 616q4 4 21 2q12 -2 15 -5.5t3 -16.5q0 -21 -14 -22q-10 -1 -21 5q-8 6 -8 23q0 10 4 14z"
     id="glyph25" /><glyph
     glyph-name="four"
     unicode="4"
     horiz-adv-x="526"
     d="M402 599q0 3 0.5 8.5t0.5 7.5q0 29 -4 33h-1q-10 0 -33 -26q-19 -20 -27.5 -25.5t-22.5 -5.5q-19 0 -19 -6l2 -10q6 -19 6 -33q0 -16 -9 -29.5t-33 -37.5q-57 -57 -85 -57q-18 0 -18 -8q0 -6 5 -12q7 -10 7 -20q0 -18 -33 -61q-34 -45 -34 -50q0 -4 19 -4q12 0 20 6 t26 28q28 35 36 35q12 0 12 -11t-12 -23q-14 -15 -14 -22q0 -6 11 -6q6 0 20 2t19 2q6 0 6 17q0 11 5.5 19t12.5 8q3 0 5 -1q6 -4 6 -21v-18l53 5q53 4 61 7q6 2 6 47v34l-2 79l-20 2q-20 2 -20 15q0 8 4.5 9.5t17.5 0.5q2 0 6 -0.5t5 -0.5q7 0 8.5 3t1.5 14v18l-17 -12 q-15 -12 -26 -12q-9 0 -9 6q0 11 27 37l28 25zM379 730q25 27 42 27q10 0 19 -9q10 -10 8 -22q-2 -10 3 -19q4 -8 4 -119v-111l15 -4q15 -5 15 -15q0 -11 -15 -11h-14l-3 -233q-2 -168 -3.5 -201.5t-8.5 -42.5q-11 -12 -22 -12q-10 0 -19 11q-8 8 -8 46q0 5 2 89l4 124h-31 q-19 0 -59 -5q-21 -3 -25.5 -6t-6.5 -18q-3 -20 -12 -20q-8 0 -10 15t-6 19q-1 1 -9 1q-12 0 -74 -4q-37 -3 -60 -3q-47 0 -47 21q0 10 -9 17q-8 5 -8 17q0 20 33 62l34 45l-28 27q-28 27 -28 42q0 9 13 24q8 9 18 11t44 2h49q11 11 32.5 33.5t32.5 33.5l-8 37q-7 31 -7 59 v7q1 14 2 19.5t4.5 10.5t10.5 8q10 5 15 5q9 0 46 -23q7 -4 11 -4q6 0 21 19q5 7 43 50zM295 445q0 24 23 24h4q10 -1 12.5 -5t2.5 -17q0 -14 -3 -17t-17 -3t-18 3.5t-4 14.5zM243 400q6 3 12 3q20 0 20 -23t-15 -24h-4q-11 0 -18.5 7.5t-7.5 17.5q0 13 13 19z"
     id="glyph26" /><glyph
     glyph-name="five"
     unicode="5"
     horiz-adv-x="492"
     d="M119 610q-16 8 -19 8q-5 0 -5 -22v-23l19 12q17 12 20 15l-8 6q-3 2 -7 4zM122 859q13 13 24 13q23 0 44 -62q16 -49 23 -53q7 -5 60 -9l52 -4l14 32q12 28 27 45t27 17q17 0 27 -19t15 -63q4 -44 4 -45q0 -13 -8 -23q-9 -11 -22 -11q-15 0 -24 14l-10 15l-14 -13 q-10 -10 -25 -10q-19 0 -59 4q-56 5 -80 12.5t-35 23.5q-5 8 -7 8q-3 0 -12 -18q-11 -22 -22 -24q-26 -5 -26 -18q0 -16 32 -34t32 -30q0 -5 -6 -8q-6 -4 -6 -14q0 -13 -26 -30l-26 -19l1 -35l2 -34l72 1h26q76 0 139 -28q55 -25 86 -70.5t31 -103.5q0 -48 -19 -82t-68 -73 q-47 -38 -89 -54t-119 -25q-24 -3 -42 -3q-65 0 -65 37v5l2 16l67 4q84 4 132 21t87 55q31 30 42 51t11 50q0 82 -92 125q-25 12 -43 14t-96 2q-72 0 -90.5 2t-24.5 10q-7 10 -7 71q0 46 1 80l1 140l19 17q19 17 27 17q10 0 18 69q4 30 18 44zM403 635q23 12 38 12 q11 0 11 -7t-28 -24t-38 -17h-2q-7 3 -7 9q0 12 26 27zM188 635q8 8 25 6q12 -1 19 -10t7 -19q0 -23 -23 -26h-4q-12 0 -21.5 10t-9.5 22q0 10 7 17zM331 602q0 -29 -29 -29q-28 0 -28 21q0 12 12 24t24 12q21 0 21 -28zM379 590q6 0 15.5 -5t16 -9.5t15 -12t9.5 -7.5 q14 -10 7 -18q-7 -7 -20 -3q-14 4 -34 21.5t-20 25.5t11 8z"
     id="glyph27" /><glyph
     glyph-name="six"
     unicode="6"
     horiz-adv-x="552"
     d="M430 343q-2 0 -25 -10.5t-33 -10.5t-10 10q0 11 27 25q20 11 20 14q0 5 -21 8q-12 2 -19 18q-5 11 -8.5 12t-13.5 -6q-13 -9 -56 -9q-64 0 -78 14q-8 8 -15 8q-9 0 -9 -12q0 -8 -7 -13.5t-16 -5.5q-5 0 -7 1q-27 6 -27 57q0 22 -6 32q-2 2 -3 2q-11 0 -18 -71l-3 -31 l38 -20q40 -21 41 -24q1 -1 1 -5q0 -14 -21.5 -38.5t-34.5 -24.5q-11 0 -11 6q0 7 17 25t17 20q-24 29 -48 29q-4 0 -4 -30q0 -16 1 -25q5 -102 40.5 -150t105.5 -48q2 0 8 0.5t8 0.5q74 5 127.5 53.5t63.5 119.5q1 4 1 13q0 21 -7.5 43.5t-14.5 22.5zM327 752q37 10 67 10 q54 0 54 -30q0 -15 -10 -20.5t-36 -5.5q-68 0 -140 -43.5t-109 -107.5q-21 -36 -21 -45q0 -3 2 -3t10 5q11 8 20 8q16 0 50 -33q27 -25 36 -30t31 -5t30 4.5t32 30.5q37 40 58 40q3 0 11 -2q10 -3 16.5 -17t6.5 -31q0 -9 -1 -14t-1 -13q0 -14 21 -36t41 -63q16 -36 16 -60 q0 -3 -0.5 -11t-0.5 -13q-4 -89 -75 -160q-60 -60 -145 -75q-20 -4 -45 -4q-75 0 -127.5 45.5t-70.5 126.5q-9 42 -9 122t9 122q15 67 38 113t63 88q78 81 179 107zM274 347q6 14 23 14q11 0 18 -7t7 -20q0 -20 -13 -25q-4 -2 -12 -2q-11 0 -18.5 7.5t-7.5 18.5q0 7 3 14z M206 347q8 8 18 8t16 -8t6 -18q0 -15 -12 -23q-4 -3 -10 -3q-10 0 -16.5 8.5t-6.5 19.5q0 10 5 16zM360 310q4 4 9 4q13 0 38 -21q35 -29 35 -37q0 -5 -8 -8h-2q-12 0 -41 24q-34 26 -34 32q0 3 3 6z"
     id="glyph28" /><glyph
     glyph-name="seven"
     unicode="7"
     horiz-adv-x="597"
     d="M435 829q12 9 23 9q15 0 24 -15t9 -41q0 -30 5 -39t24 -13q20 -5 28 -20q5 -10 5 -14q0 -6 -12 -31q-16 -28 -16 -31q0 -2 25 -4q24 -1 24 -14q0 -7 -6.5 -10t-29.5 -5q-36 -4 -37 -5q-22 -32 -22 -41q0 -8 23 -22t23 -28q0 -7 -9 -7t-31 13q-16 10 -22 10q-4 0 -8 -4 q-8 -8 -131 -256q-47 -94 -69.5 -138t-38 -72.5t-21 -33.5t-11.5 -6h-5q-28 0 -28 26q0 13 76 168.5t131 254.5q49 89 49 107q0 8 4.5 15t4.5 14q0 12 14 15t29 28q14 23 14 31q0 7 -11 10q-13 4 -21 21l-9 18l-12 -16q-13 -16 -35.5 -21t-74.5 -5q-48 0 -66.5 6.5 t-31.5 26.5q-11 18 -19 18q-7 0 -10 -11q-3 -10 -21 -26q-17 -15 -49 -15q-26 0 -48 11q-23 11 -23 26q0 10 11.5 17t30.5 7q2 0 6 -0.5t6 -0.5l29 -3l24 45q16 32 24.5 43t19.5 11q7 0 14 -3q16 -5 31 -41q8 -19 19 -41q4 -7 58 -7h55l26 40q22 35 39 49zM95 614 q0 2 -0.5 3.5t-0.5 2.5q0 5 6 5q2 0 4 -0.5t6.5 -1t7.5 -0.5q68 -11 68 -27q0 -11 -13 -11q-10 0 -45 8q-32 7 -33 21zM237 619q7 5 16 5q16 0 21 -20q5 -18 2 -27q-4 -9 -23 -9q-14 0 -20 6t-6 20q0 19 10 25zM344 593q-2 10 -2 14q0 17 17 17h4q11 -2 13.5 -5.5t2.5 -16.5 t-2.5 -16.5t-13.5 -5.5q-10 -1 -13.5 1.5t-5.5 11.5zM111 557q39 19 51 19q11 0 11 -12q0 -9 -42 -29q-41 -18 -53 -18h-1q-9 1 -9 7q0 12 43 33z"
     id="glyph29" /><glyph
     glyph-name="eight"
     unicode="8"
     horiz-adv-x="531"
     d="M276 351q-25 15 -30 15l-25 -17q-42 -31 -75.5 -86.5t-33.5 -93.5v-8q7 -71 115 -89q10 -2 32 -2q43 0 85.5 14t64.5 37q22 22 22 53q0 34 -25 72q-11 17 -51.5 50t-78.5 55zM405 585q1 5 1 11q0 9 -6 9q-5 0 -21 -7l-22 -9l16 -11q14 -10 21 -10q8 0 11 17zM258 682 q-37 4 -52 8.5t-32 15.5q-19 13 -22 13q-4 0 -5 -6q-1 -2 -13 -28t-12 -31q0 -6 25 -17q26 -12 26 -23q0 -12 -10 -12q-9 0 -25 9q-12 6 -17 6t-5 -5t4 -13q4 -10 8 -11.5t14 3.5q9 3 16 3q16 0 16 -10q0 -8 -15 -15q-14 -5 -14 -15t28 -43q24 -29 50.5 -48.5t40.5 -19.5 l2 1h2q19 5 49.5 25.5t47.5 39.5l23 26l-13 9q-4 3 -15 11.5t-13 10.5q-11 8 -11 13q0 2 5.5 8t5.5 12q0 16 20 24q24 12 24 13q0 4 -12 17q-15 17 -18 28q-3 10 -7 10q-1 0 -17 -7q-13 -6 -29 -6q-18 0 -50 4zM111 834q12 4 16 4q20 0 52 -46q24 -36 35 -41q13 -5 54 -9 l42 -4l34 26q53 40 70 40q10 0 21 -12q10 -12 10 -30q0 -16 -10 -41q-6 -14 -6 -19q0 -6 12 -22q15 -20 32 -20t17 -11t-12 -15q-7 -2 -9 -8.5t-2 -25.5q-2 -94 -94 -163q-38 -29 -48 -34q-4 -1 -4 -5q0 -6 39 -32q86 -58 114 -114q16 -34 16 -79q0 -36 -11 -58 q-26 -50 -83 -77.5t-134 -27.5q-3 0 -11 0.5t-12 0.5q-91 4 -142 55q-25 23 -34.5 43t-9.5 50q0 2 0.5 8t0.5 9q4 63 42 113q11 17 11 21q0 8 44 52l49 47l-38 35q-40 38 -57 61q-18 26 -27 26q-4 0 -6 -1t-6 -1q-13 0 -13 12q0 8 7 12q10 8 5 24q-7 22 -10 44q-4 27 -9 27 t-5 12q0 11 10 11q13 0 24.5 27.5t11.5 60.5q0 65 24 75zM203 616q0 11 6 18.5t16 7.5t16 -7.5t6 -18.5v-4q-1 -8 -5 -10.5t-17 -2.5q-14 0 -18 3t-4 14zM279 634q3 8 17 8q15 0 21 -8q7 -11 5 -22q-1 -8 -5 -10.5t-17 -2.5t-17 2.5t-5 10.5q-2 14 1 22z"
     id="glyph30" /><glyph
     glyph-name="nine"
     unicode="9"
     horiz-adv-x="548"
     d="M443 530q-5 20 -13 20q-6 -1 -28 -12t-22 -14t26.5 -11t36.5 -8l3 1q4 4 -3 24zM142 544q-27 11 -33 11q-11 0 -11 -26q0 -13 2.5 -15.5t13.5 -0.5q5 1 18 5.5t18 5.5l20 8zM370 788q17 16 32 16q18 0 29 -21.5t11 -56.5q0 -13 -1 -20q-2 -22 -2 -25q0 -16 15 -38 q16 -25 19 -31q3 -8 18 0q21 7 24 7q9 0 9 -10q0 -13 -11 -16q-20 -6 -20 -22q0 -12 7 -32q11 -34 11 -80q0 -127 -86.5 -262.5t-212.5 -198.5q-49 -23 -74 -23q-18 0 -23 11q-4 7 -4 14q0 18 63 49q104 51 171 139q44 59 76.5 137.5t32.5 124.5q0 14 -5.5 18t-35.5 14 q-26 8 -34.5 13.5t-9.5 13.5q-2 12 -10 12t-8 12q0 11 34 29q35 18 35 25q0 6 -19 33q-24 32 -24 42q0 6 3 19q4 23 0 27q-5 2 -21 -16l-17 -19l-71 -4q-16 -1 -41 -1q-35 0 -44 4q-6 3 -11 3q-14 0 -14 -25q0 -12 -20 -34t-20 -27q0 -4 37 -21q41 -18 41 -27q0 -4 -6 -10 q-9 -9 -9 -17q0 -4 -17.5 -11t-37.5 -13t-21 -7q-4 -2 5 -24q30 -74 116 -74q13 0 19 1q27 2 64 17t61 34q20 15 36 15q17 0 23 -15q2 -8 2 -11q0 -23 -50 -55q-72 -46 -156 -46q-44 0 -76 15q-61 30 -92 96q-19 41 -19 83q0 58 38 108l26 34l-12 26q-12 24 -12 43 q0 16 9 24q7 8 18 8q16 0 63 -20q43 -19 70 -19q3 0 11.5 0.5t14.5 0.5q35 1 44 4.5t23 20.5q33 36 36 39zM201 596q7 11 22 11q12 0 21 -6.5t9 -17.5q0 -27 -30 -27q-12 0 -19 7t-7 18q0 8 4 15zM312 601q6 6 16 6q16 0 25 -12q3 -5 3 -10q0 -19 -22 -22h-4q-11 0 -18 6.5 t-7 15.5t7 16z"
     id="glyph31" /><glyph
     glyph-name="colon"
     unicode=":"
     horiz-adv-x="152"
     d="M45 531q6 15 27 15q16 0 27 -12q9 -9 9 -24t-9.5 -26t-22.5 -11q-10 0 -16 5q-19 13 -19 36q0 9 4 17zM51 103q11 10 26 10t26 -11t11 -22q0 -15 -15 -28q-12 -12 -25 -12t-28 13q-8 8 -8 21q0 18 13 29z"
     id="glyph32" /><glyph
     glyph-name="semicolon"
     unicode=";"
     horiz-adv-x="182"
     d="M90 536q13 14 23 14q7 0 17 -8q13 -13 13 -28q0 -9 -6 -18q-8 -14 -25 -14q-14 0 -25 11t-11 19q0 10 14 24zM68 91q9 10 17 10q10 0 24 -14q13 -13 13 -30q0 -3 -2 -29q-2 -37 -16.5 -71t-29.5 -39q-9 -3 -16 -3q-18 0 -18 24q0 23 13 56q10 27 10 45q0 9 -1 14 q-2 14 -2 16q0 11 8 21z"
     id="glyph33" /><glyph
     glyph-name="less"
     unicode="&lt;"
     horiz-adv-x="416"
     d="M217 535q124 73 131 73t20 -11q10 -8 10 -15q0 -12 -28.5 -32.5t-111.5 -70.5q-130 -81 -130 -84t91 -58q106 -63 120 -73t14 -24q0 -28 -25 -28q-6 0 -9 1q-17 4 -116 61t-126 79q-19 16 -19 43q0 12 4 21q7 15 29 30t146 88z"
     id="glyph34" /><glyph
     glyph-name="equal"
     unicode="="
     horiz-adv-x="485"
     d="M133 534q30 2 181 4h40q63 0 77.5 -4.5t14.5 -21.5q0 -23 -38 -27q-47 -7 -281 -7q-45 0 -48 1q-8 2 -13.5 11t-5.5 18q0 5 4 13q7 9 69 13zM161 354q114 6 170 6q54 0 74 -6t22 -21q0 -2 0.5 -4.5t0.5 -3.5q0 -13 -14.5 -17.5t-56.5 -4.5q-46 0 -172 -6q-54 -3 -84 -3 q-40 0 -51.5 6.5t-11.5 25.5q0 14 21 18.5t102 9.5z"
     id="glyph35" /><glyph
     glyph-name="greater"
     unicode="&gt;"
     horiz-adv-x="459"
     d="M75 598q0 27 24 27q16 0 38 -14q36 -21 130 -68q92 -46 122.5 -69.5t30.5 -47.5q0 -33 -33.5 -67t-127.5 -96q-93 -62 -132 -84t-57 -22q-11 0 -21 8q-9 7 -9 16q0 20 55 51q39 22 136.5 88.5t110.5 79.5q16 16 13 25q-3 8 -103 59q-99 51 -138 76t-39 38z"
     id="glyph36" /><glyph
     glyph-name="question"
     unicode="?"
     horiz-adv-x="552"
     d="M148 800q9 9 18 9q16 0 50 -34q25 -25 40.5 -34t60.5 -24l66 -22l23 14q23 14 41 14q11 0 18 -7q6 -6 6 -26t-8 -67.5t-8 -58.5v-29l28 -8q28 -8 28 -17t-29 -9h-29l-6 -24q-8 -25 -15 -34t-9 -27q0 -11 -2.5 -14.5t-11.5 -3.5q-12 0 -37 -17q-64 -47 -81 -66.5 t-35 -66.5q-19 -47 -39 -47q-7 0 -14 4q-12 6 -12 26q0 25 19 64t39 62t63 53q45 33 49 40l1 2v2q0 6 -8 21.5t-8 20.5q0 8 9 8q13 0 22 -12l8 -12l6 12q6 12 6 17q0 7 -10 7q-30 0 -30 18q0 7 3.5 8.5t15.5 1.5q14 0 16.5 4t2.5 24q0 28 5 43q3 11 1.5 13.5t-11.5 2.5 q-14 0 -50 16q-36 17 -74 28q-37 9 -54 20q-9 6 -12 7t-5 0t-6 -8q-9 -13 -37 -21l-30 -8l17 -27q17 -26 17 -37q0 -10 -7 -10q-12 0 -29 25q-17 26 -34 26q-16 0 -23 15q-2 4 -2 11q0 26 47 50q17 9 22 13.5t5 11.5q0 1 -0.5 3t-0.5 3v9q0 28 14 42zM197 624q6 6 18 6 q14 0 22 -8q5 -7 5 -13q0 -13 -14 -22q-5 -4 -12 -4q-10 0 -17.5 8.5t-7.5 18.5q0 8 6 14zM289 593q12 9 17 9q4 0 13 -9t9 -20q0 -9 -7 -16t-18 -7q-12 0 -19 6.5t-7 15.5q0 12 12 21zM43 576q4 10 20 7q18 -4 67 -11q55 -7 55 -20q0 -4 -5 -9q-2 -2 -12 -2 q-25 0 -71.5 7.5t-51.5 12.5q-6 6 -2 15zM147 87q11 8 24 8t21.5 -9t8.5 -22q0 -16 -13 -29q-15 -15 -25 -9q-26 15 -26 40q0 14 10 21z"
     id="glyph37" /><glyph
     glyph-name="at"
     unicode="@"
     horiz-adv-x="827"
     d="M531 363q0 7 -7 8.5t-12 -3.5q-4 -4 -0.5 -8.5t11.5 -4.5t8 8zM438 497q-74 2 -84 4q-12 2 -13 2q-4 0 -4 -5q0 -7 1 -12q1 -4 1 -11q0 -12 -21 -28q-15 -13 -29 -34t-14 -32q0 -2 2 -4q3 -3 26 -11q21 -7 21 -18q0 -9 -9 -9t-17 1q-26 4 -26 -5q0 -8 21 -7h6q17 0 17 -7 t-15 -15q-17 -8 -17 -19q0 -14 20 -34.5t41 -27.5q21 -8 30 -8q4 0 22 4q26 7 50 24t41 23q14 5 23 26q8 19 8 25q0 9 -16 13q-17 6 -19 26v6q0 25 29 33q12 4 12 14q0 11 -15 25q-12 12 -12 23q0 8 1 14l3 23zM387 729q18 3 47 3q75 0 110 -11q62 -19 113 -58.5t79 -89.5 q53 -95 53 -197q0 -27 -4 -47q-23 -131 -105 -172q-30 -14 -57 -14q-49 0 -102 43l-25 20l-27 -17q-28 -17 -50 -24q-17 -5 -38 -5q-43 0 -72 15q-19 10 -41 33t-33 43q-7 16 -21 16h-6h-4q-18 0 -18 10q0 9 17 15q18 7 15 15q-3 7 -3 30q0 14 -3.5 19.5t-15.5 10.5 q-19 9 -19 16t16 7h5h7q9 0 12 3.5t8 18.5q5 20 30 51q20 26 20 44q0 14 -1 25q-2 26 -2 28q0 13 14 22q12 7 16 7q7 0 36 -16q36 -20 80 -22l44 -2l22 20q34 33 54 33q13 0 23 -10q10 -9 10 -34q0 -23 -7 -54q-4 -24 -4 -26q0 -12 9 -30q7 -14 11.5 -18.5t14.5 -4.5h5h4 q18 0 18 -9q0 -8 -16 -14q-13 -4 -15.5 -9t-2.5 -25q0 -27 13 -35q9 -6 9 -12q0 -9 -18 -12q-9 -1 -14.5 -8.5t-14.5 -27.5l-13 -33l12 -11q27 -26 58 -26q30 0 56 24.5t40 69.5q13 39 13 83q0 79 -38.5 150.5t-100.5 104.5q-74 38 -146 38q-134 0 -247 -121 q-98 -104 -98 -235q0 -74 35 -150q14 -31 41.5 -62.5t50.5 -43.5q40 -20 96 -20q18 0 34 3q78 12 136 41q20 10 32 10t22 -11q11 -11 2 -27q-17 -29 -112 -56q-66 -19 -118 -19q-182 0 -253 194q-26 72 -26 142q0 90 39 166q48 97 130 162t179 83zM454 383q-7 -3 -13 -3 q-11 0 -18 8t-7 18q0 23 26 23q11 0 18.5 -7.5t7.5 -17.5q0 -15 -14 -21zM339 420q4 4 15 4q21 0 27 -8t6 -16q0 -17 -14 -22q-8 -2 -12 -2q-11 0 -18.5 7t-7.5 17q0 16 4 20z"
     id="glyph38" /><glyph
     glyph-name="A"
     unicode="A"
     horiz-adv-x="718"
     d="M306 707q-15 8 -18 22q-3 13 -8 4q-1 -1 -1 -2q-7 -14 -23.5 -74t-16.5 -73q0 -10 28 -14q44 -7 44 -23q0 -12 -13 -12q-10 0 -33 6q-34 9 -37 9t-4 -12t1 -14q3 -2 25 4q22 7 27 -1q2 -4 2 -6q0 -13 -40 -24l-28 -8l-27 -103q-27 -100 -31 -119l-4 -16h202q202 0 204 5 q2 4 -23 115.5t-30 120.5q-3 8 -35 17t-32 21q0 11 12 11q8 0 28 -5q12 -4 13.5 -2t-1.5 16q-4 22 -7 22t-21 -8q-14 -7 -24 -7q-13 0 -13 9q0 8 17 18q3 2 8 4.5t7 4t5.5 3.5t4.5 3t2.5 3t2 4t0.5 5q0 10 -17 59l-22 65l-15 -17q-11 -13 -19 -15.5t-36 -2.5q-40 0 -54 7z M255 815q9 6 19 6q32 0 58 -48q6 -15 22 -15h5q12 0 19 5t17 22q18 30 40 30q10 0 18 -7q9 -8 28.5 -48.5t19.5 -51.5q0 -13 12 -47q12 -36 23 -36q16 0 16 -14q0 -8 -7 -12t-7 -11q0 -6 9 -35q11 -38 21 -46t4 -15q-1 -1 -1 -7q0 -28 31 -153q41 -166 58 -226 q16 -59 16 -75q0 -13 -6 -17.5t-19 -4.5q-18 0 -27 17t-27 83q-23 78 -24 79q-4 6 -221 6h-219l-3 -13q-5 -18 -17 -74q-13 -57 -20 -71.5t-22 -14.5q-30 0 -30 30q0 32 66 281q32 124 32 129q0 9 -16 7q-10 -1 -13 1t-3 9q0 11 24 19q14 5 20 9.5t7 14.5q6 27 7 31 q2 9 0 12.5t-11 5.5q-15 3 -15 15q0 8 3 10t16 0l18 -3l23 76q40 138 56 147zM393 635q7 7 18 7q16 0 22 -12q3 -6 3 -13q0 -11 -7.5 -19t-18.5 -8q-10 0 -17 7t-7 19t7 19zM300 628q7 8 17 8q9 0 16 -7t7 -19q0 -11 -7.5 -18t-17.5 -7q-19 0 -20 19q-2 16 5 24z"
     id="glyph39" /><glyph
     glyph-name="B"
     unicode="B"
     horiz-adv-x="557"
     d="M325 699q-29 1 -87.5 2t-88.5 2q-22 23 -43 49l-4 -30q-5 -42 -5 -91q0 -36 4 -39q4 -4 40 -12q38 -8 38 -21q0 -5 -4 -9q-2 -2 -8 -2q-10 0 -33 5q-22 5 -32 5q-5 0 -6 -1q-3 -3 -3 -19q0 -22 5 -25h2q5 0 29.5 12t30.5 12l1 -1h1q5 -2 5 -8q0 -12 -37 -34l-37 -21v-176 q0 -181 3 -204l4 -26h56q55 0 93 9q62 13 123 50.5t75 71.5q7 17 7 44q0 28 -7 45q-18 43 -83 75t-134 32q-3 0 -9 -0.5t-9 -0.5q-13 -1 -29 -1q-18 0 -27 9q-11 11 -11 23q0 26 80 30q43 2 85 13t59 25l13 9l-24 19q-23 18 -23 25q0 9 8 9t23 -8t27 -16.5t13 -8.5 q5 0 13 20.5t8 34.5q0 20 -3 20l-31 -13q-31 -13 -39 -13h-2q-6 3 -6 8q0 13 35 30q34 18 34 25q0 8 -26 30q-25 20 -25 34q0 4 0.5 12t0.5 10q0 12 -4 12q-2 0 -17 -13zM344 837q13 20 19.5 25t19.5 5q21 0 27.5 -16.5t10.5 -75.5q3 -42 6.5 -56t12.5 -24q41 -44 41 -113 q0 -47 -12 -69q-10 -19 -32.5 -41.5t-43.5 -35.5l-19 -11l34 -19q54 -31 82.5 -74.5t28.5 -90.5q0 -84 -81 -147q-30 -23 -80 -45.5t-90 -29.5q-49 -10 -120 -15q-36 -3 -56 -3q-30 0 -39.5 8.5t-12.5 34.5q-4 29 -4 197q0 185 5 347q6 161 17 193q14 42 23 55t23 13 q16 0 24.5 -8.5t24.5 -42.5l18 -38l64 -1l64 -2l13 25q2 4 32 55zM160 647q9 12 20 12q9 0 15.5 -7.5t6.5 -18.5t-6.5 -17.5t-15.5 -6.5q-13 0 -22 13q-7 10 2 25zM278 630v5q0 23 22 23h5q10 -2 12.5 -5t2.5 -16q0 -14 -3 -17.5t-17 -3.5q-21 0 -22 14z"
     id="glyph40" /><glyph
     glyph-name="C"
     unicode="C"
     horiz-adv-x="637"
     d="M466 810q37 28 59 28q15 0 25 -12q8 -8 8 -23q0 -3 -2 -25q-5 -40 -5 -49q0 -12 4 -16.5t17 -13.5q21 -13 21 -30q0 -10 -3 -14t-13 -6q-3 -1 -10 -1q-35 0 -63 34q-14 18 -14 32q0 9 1 15q1 7 1.5 13.5t0.5 10t-1 3.5q-2 0 -40 -31q-26 -22 -37.5 -27t-39.5 -7 q-41 -4 -84 -18q-45 -15 -54 -15q-11 0 -38 27q-23 23 -30 23h-1q-1 -1 -1 -4q0 -12 6 -31q10 -33 10 -44q0 -16 -16 -28q-16 -11 -34.5 -48.5t-27.5 -76.5q-8 -35 -8 -72q0 -4 0.5 -13.5t0.5 -15.5q6 -124 67.5 -202t171.5 -101q40 -8 71 -8q84 0 148 49q17 13 36 13 q30 0 30 -24q0 -3 -2 -9q-4 -10 -31.5 -31t-55.5 -35q-49 -24 -128 -24q-75 0 -136 23q-155 59 -209 217q-21 60 -21 147q0 52 9 92q7 33 27 79t34 61q10 10 10 19q0 2 -4 24q-11 57 -11 71q0 8 4 26q7 25 21 29q6 3 13 3q17 0 56 -33q9 -7 22.5 -19t15.5 -13q5 -5 12 -5 q8 0 38 9q45 12 74 15q34 4 51 20q23 21 55 42zM408 601q13 10 17 10q5 0 13 -5q10 -6 10 -21q0 -12 -6 -18q-7 -7 -17 -7q-15 0 -23 15q-5 10 -4 14.5t10 11.5zM549 588q29 16 42 16t13 -11q0 -8 -34 -26t-44 -18q-8 0 -8 10t31 29zM301 575q9 12 20 12q12 0 23 -17 q6 -11 6 -15t-7 -12q-10 -11 -21 -11q-12 0 -21 13q-7 10 -7 15q0 3 7 15zM191 556q18 3 32 3q35 0 35 -15q0 -3 -1 -4q-4 -9 -42 -9q-25 0 -31.5 2t-6.5 9q0 11 14 14zM505 539q3 3 8 3q11 0 42 -17q32 -16 32 -29q0 -6 -5 -8h-2q-9 0 -41 15q-38 18 -38 28q0 4 4 8z M221 477q35 31 42 31q11 0 11 -12q0 -8 -8 -16q-55 -50 -63 -50q-2 0 -8 6q-4 4 -4 8q0 6 30 33z"
     id="glyph41" /><glyph
     glyph-name="D"
     unicode="D"
     horiz-adv-x="628"
     d="M182 722q-14 28 -16 28q-1 0 -17 -28q-17 -29 -36 -35l-21 -7l2 -43l1 -44l23 -8q36 -13 36 -26q0 -3 -3 -6q-6 -6 -28 0q-22 7 -26 -1q-2 -4 -2 -11q0 -38 7 -38q2 0 29 16q24 16 32 16q9 0 9 -12q0 -8 -28 -29t-38 -21q-8 0 -8 -154q0 -150 4 -202l4 -48h36 q171 0 282.5 87t122.5 228q1 9 1 26q0 57 -29 118q-17 35 -38 58.5t-56 47.5q-29 19 -36.5 28t-14.5 35q-11 36 -15 36q-6 0 -14 -22q-9 -22 -19 -26q-8 -4 -45 -4q-52 0 -70 6q-14 5 -29 35zM146 824q13 13 23 13q21 0 50 -55l21 -40l27 -2q3 0 7.5 -0.5t6.5 -0.5 q14 0 22 16q27 53 58 53q11 0 21 -6q8 -5 23.5 -32t24.5 -54q7 -20 49 -52q83 -61 114 -160q13 -40 13 -74q0 -26 -1 -45q-3 -81 -28 -137t-83 -113q-63 -62 -144 -91.5t-204 -35.5q-44 -2 -54 -2q-36 0 -44 16.5t-8 82.5v32q0 150 -3 345q-1 54 -1 137q0 103 3 108 q4 7 31 11q17 2 23.5 8t20.5 30q9 18 32 48zM174 616q7 7 19 7q15 0 21 -11q3 -6 3 -12q0 -9 -6.5 -16t-15.5 -7q-12 0 -20 7t-8 16t7 16zM295 615q8 8 17 8q10 0 16 -7.5t6 -17.5q0 -16 -12 -23q-5 -3 -10 -3q-9 0 -15.5 8t-6.5 19q0 10 5 16zM377 576q30 17 42 17 q11 0 11 -9q0 -10 -52 -40q-10 -5 -4 -9l14 -6q24 -10 28 -10q6 0 6 -11q0 -12 -15 -12q-17 0 -33 9.5t-16 19.5q0 12 -6 12t-6 11q0 12 31 28z"
     id="glyph42" /><glyph
     glyph-name="E"
     unicode="E"
     horiz-adv-x="498"
     d="M88 809q8 5 24 5q10 0 18 -3q10 -4 33 -47q24 -45 37 -49q13 -5 63 -5h48l22 45q14 28 20.5 36t17.5 10h6q14 0 25 -12.5t25 -46.5q17 -40 17 -61q0 -18 -14 -21q-10 -2 -12 -2q-16 0 -28 26q-9 20 -11 20q-3 0 -12 -19q-8 -19 -26.5 -25.5t-68.5 -6.5h-15q-67 1 -88 7 t-34 30q-12 23 -19 23h-1q-4 -3 -13 -32q-8 -26 -8 -89q0 -14 2 -108l4 -168l70 4q145 8 211 8q45 0 51 -7q6 -8 6 -17q0 -18 -15 -25q-18 -7 -145 -10q-124 -3 -156 -8l-26 -3l3 -89q4 -89 7 -92q2 -2 40 -2q8 0 28 0.5t32 0.5q140 2 165 2q96 0 103 -7t7 -23q0 -14 -6 -20 q-5 -5 -158 -9q-43 -1 -116.5 -2.5t-87.5 -1.5h-22q-31 0 -39 8q-7 7 -9.5 61t-4.5 263q-2 208 -2 225q0 97 7 124q9 35 23.5 71.5t21.5 41.5zM195 594q9 6 15 6q7 0 18 -11q7 -7 7 -16q0 -10 -8 -18t-18 -8q-9 0 -17 8q-7 7 -7 19q0 14 10 20zM307 593q7 7 18 7 q15 0 21 -11q3 -6 3 -12q0 -9 -6.5 -16t-15.5 -7q-12 0 -19.5 7t-7.5 16t7 16zM378 549q23 15 36 15q12 0 12 -9q0 -7 -25.5 -23.5t-35.5 -16.5h-1q-9 1 -9 7q0 10 23 27zM112 551q3 8 9 8q8 0 22 -5q22 -7 22 -18q0 -9 -17 -9q-8 0 -12 1q-26 4 -26 16q0 1 2 7zM140 502 q19 11 29 11t10 -9t-17 -20t-30 -11q-11 0 -11 7q0 9 19 22zM372 505q2 6 6 6q8 0 28 -16q9 -7 9 -17q0 -11 -10 -11t-22 12t-12 22q0 1 0.5 2t0.5 2z"
     id="glyph43" /><glyph
     glyph-name="F"
     unicode="F"
     horiz-adv-x="477"
     d="M106 849q11 11 29 11q17 0 28 -11q10 -12 28 -62l18 -51l43 -2h12q31 0 37 4t14 31q12 39 31.5 65t36.5 26q11 0 25 -10q9 -8 30.5 -64.5t21.5 -72.5q0 -12 -7.5 -19t-17.5 -7q-14 0 -23 13q-6 11 -18 44q-9 27 -16 27q-8 0 -12 -24q-11 -50 -27 -61t-85 -12 q-8 0 -19.5 -0.5t-15.5 -0.5q-35 0 -49 13q-12 11 -24 44q-9 32 -12 32q-5 0 -15.5 -45.5t-10.5 -68.5v-34l23 -10q29 -11 29 -26q0 -3 -2 -5q-3 -3 -27 2l-23 6v-105q0 -106 5 -108q1 -1 30 -1q24 0 130 2q90 2 106 2q50 0 64 -5t16 -20v-7q0 -9 -5 -13.5t-26 -7.5 t-53.5 -4.5t-98.5 -2.5l-166 -4q-1 -1 -3 -147l-2 -146l-16 -7q-16 -8 -27 -2q-8 5 -10 27.5t-2 128.5q0 151 -7 162q-4 5 -4 12q0 5 5 20q5 13 5 63q0 10 -2 110q-1 44 -1 99q0 59 9 92q29 106 51 130zM299 627q7 8 17 8q9 0 15.5 -6.5t6.5 -16.5q0 -13 -4 -16.5t-18 -3.5 q-13 0 -17 2.5t-5 10.5q-1 11 5 22zM196 622q7 7 18 7q16 0 20 -10q3 -6 3 -12q0 -9 -6 -16.5t-15 -7.5q-12 0 -19.5 7t-7.5 16t7 16zM404 606q19 9 27 9q9 0 11 -11q1 -4 -4.5 -9t-17.5 -11q-22 -12 -32 -12q-9 0 -9 11t25 23zM381 554q8 0 23 -15t15 -24q0 -7 -9 -7 q-12 0 -26 12.5t-14 21.5q0 5 4 8.5t7 3.5zM125 499q-6 5 -6 9q0 11 22.5 22t39.5 11q14 0 14 -8q0 -7 -27 -21t-39 -14q-3 0 -4 1z"
     id="glyph44" /><glyph
     glyph-name="G"
     unicode="G"
     horiz-adv-x="876"
     d="M589 817q17 14 29 14q9 0 20 -9q8 -7 19 -34t11 -40q0 -7 42 -10q52 -4 91.5 -26.5t39.5 -48.5q0 -16 -14 -23q-6 -3 -11 -3q-6 0 -23 12q-40 30 -87 30q-13 0 -20 -1t-18 -1q-23 0 -34.5 8.5t-17.5 30.5q-6 19 -11 19q-6 0 -18 -28q-17 -37 -55 -47q-25 -6 -44 -18.5 t-47 -42.5l-38 -41q-14 0 -41.5 1t-41.5 1l24 -28q24 -30 24 -39q0 -11 -13 -43q-13 -34 -13 -98v-18q0 -47 16 -92q27 -74 81 -112.5t156 -56.5q22 -3 36 -3q16 0 48 6q40 8 71.5 21t35.5 23q4 12 4 77q0 109 -7 141q-6 31 -13 38t-39 7q-5 0 -21 -0.5t-27 -0.5 q-9 0 -22.5 -0.5t-18.5 -0.5q-42 0 -52 9q-8 8 -8 20q0 10 7 16q9 6 97 10q62 2 67 2q29 0 44 -10q25 -16 36 -51t17 -115q1 -13 1 -48q0 -70 -6 -147.5t-13 -88.5q-8 -13 -25 -13q-10 0 -17 7t-7 33q0 27 -3 30q-2 1 -3 1q-13 0 -44 -11q-45 -14 -101 -14q-75 0 -146.5 26 t-116.5 71q-42 42 -65 105.5t-23 132.5q0 49 12 94l12 45l-29 32q-38 41 -38 61q0 7 3 13q6 17 23.5 23t61.5 7l54 1l26 30q42 48 97 64q15 5 23 13t23 34q21 37 40 54zM689 644q9 26 20 26t11 -14q0 -9 -8 -30q-9 -20 -20 -20q-6 0 -10 6v1q-1 1 -1 2q0 11 8 29zM572 615 q3 7 17 7q15 0 21 -7q6 -11 5 -22q-1 -8 -5 -10.5t-17 -2.5t-17 2.5t-5 10.5q-2 15 1 22zM694 595q3 5 23 5q40 0 50 -10q4 -4 4 -8q0 -11 -33 -11q-19 0 -32.5 5.5t-13.5 13.5q0 1 2 5zM496 547q7 7 16 7q10 0 16 -7.5t6 -17.5q0 -15 -11 -21q-6 -3 -11 -3q-10 0 -17 7 t-7 17t8 18zM436 452q27 15 38 15q9 0 9 -11q0 -9 -24.5 -24t-38.5 -15q-1 0 -4 1q-8 3 -8 8q0 12 28 26zM500 432q12 18 18 18q5 0 8 -6q1 -1 1 -5q0 -12 -9 -39.5t-16 -35.5q-6 -6 -9 -6q-8 0 -8 19q0 29 15 55z"
     id="glyph45" /><glyph
     glyph-name="H"
     unicode="H"
     horiz-adv-x="563"
     d="M469 758q11 11 21 11q12 0 20 -12.5t9 -33.5q0 -5 1 -55t2 -137.5t2 -166.5q2 -102 2 -232q0 -107 -4 -115q-8 -17 -25 -17q-13 0 -21 12q-9 12 -9 165v152l-13 3q-26 3 -36 4q-16 2 -21.5 5.5t-13.5 20.5l-12 25l-18 -22q-20 -27 -52 -27q-15 0 -37 3q-28 3 -38 6.5 t-20 14.5q-13 13 -19 25q-3 10 -7 1q-1 -1 -4 -6t-7 -11.5t-8 -12.5q-17 -22 -36 -25l-19 -1l2 -149q1 -37 1 -86q0 -66 -9 -75q-9 -10 -22 -10q-15 0 -22 13q-7 12 -9 105q-4 214 -7 343q-3 132 -3 198q0 57 3 63q6 11 21 11h2q19 0 24 -11q8 -19 11 -164q4 -169 4 -170 q0 -8 5 -8q9 0 27 29q36 64 61 64q16 0 25 -11.5t18 -41.5l10 -34h57l15 31q31 62 62 62q32 0 45 -62q7 -33 19 -37q13 -4 16 -2q2 0 2 54q0 28 -2 126q-1 52 -1 116t8 72zM309 292q12 8 14 8q1 0 13 -8q9 -6 9 -18q0 -16 -12 -23q-5 -3 -10 -3q-9 0 -16 8t-7 18t9 18z M201 271q0 14 3 18.5t12 4.5q1 0 5 -0.5t6 -0.5q19 -1 19 -21q0 -23 -22 -23q-5 0 -8 1q-15 4 -15 21zM399 242q18 12 26 12q11 0 11 -9q0 -8 -17.5 -22.5t-27.5 -14.5q-11 0 -11 9q0 12 19 25zM117 231q3 5 16 5q18 0 37.5 -8t19.5 -17t-14 -9q-13 0 -34 6q-27 8 -27 17 q0 2 2 6zM372 184q4 6 13 6q10 0 29 -11q18 -10 18 -19q0 -5 -8 -8q-2 -1 -7 -1q-14 0 -30 10t-16 19q0 3 1 4zM171 161q23 16 35 16q11 0 11 -11q0 -8 -25 -25.5t-37 -17.5h-3q-8 3 -8 9q0 11 27 29z"
     id="glyph46" /><glyph
     glyph-name="I"
     unicode="I"
     horiz-adv-x="312"
     d="M106 751q74 4 77 4q29 0 39 -9q10 -8 10 -17q0 -10 -10.5 -20.5t-19.5 -10.5q-8 0 -12 -6q-1 -2 -1 -40q0 -37 1 -58q2 -56 2 -62q0 -20 -2.5 -26t-10.5 -11q-13 -10 -23 -10q-14 0 -14 -10q0 -7 8 -15q16 -17 20 -35t4 -64q0 -61 -11 -72q-4 -4 -9.5 -7.5t-8 -5.5 t-2.5 -4q0 -5 18 -22l25 -22l4 -79q3 -65 8 -75.5t34 -10.5h3q32 0 32 -26q0 -17 -13.5 -22t-72.5 -7q-42 -2 -50 -2q-27 0 -35 5t-8 20q0 24 28 28q11 2 13.5 8.5t3.5 41.5q1 14 1 36q0 36 -6 50t-25 24q-50 27 -50 54q0 25 45 47q14 7 16 13t2 37q0 30 -3.5 39t-22.5 30 q-26 28 -26 46q0 21 40 40l30 14v55q0 53 -4 77l-4 22h-30q-32 0 -43 11t-11 17t7 16q8 10 57 14zM211 539q5 10 9 10q13 0 24 -40q3 -12 3 -20q0 -15 -8 -15q-4 0 -9 4q-7 6 -13.5 24t-6.5 31q0 5 1 6zM270 524q8 12 14 12t9 -8q1 -2 1 -8q0 -11 -7.5 -23t-14.5 -12 q-11 0 -11 14q0 11 9 25zM203 406q0 26 25 26q10 0 18.5 -6t8.5 -15q0 -1 -0.5 -2.5t-0.5 -2.5q-3 -19 -27 -19q-10 0 -17 5t-7 14zM209 311q0 14 3 18.5t12 4.5q1 0 5 -0.5t6 -0.5q12 -2 15.5 -6t3.5 -19q0 -19 -17 -19q-4 0 -14 2q-14 4 -14 20zM246 251q3 9 9 9 q11 0 23 -29q10 -20 10 -29q0 -4 -3 -7q-2 -2 -5 -2q-10 0 -22.5 18t-12.5 33q0 5 1 7zM209 243q5 11 15 11q8 0 11 -8q1 -2 1 -6q0 -13 -8.5 -30t-16.5 -17q-7 0 -8.5 3.5t-0.5 15.5q2 21 7 31z"
     id="glyph47" /><glyph
     glyph-name="J"
     unicode="J"
     horiz-adv-x="417"
     d="M262 749q7 7 19 7q18 0 24 -17.5t7 -79.5q2 -75 4 -91q3 -13 33 -24q56 -24 56 -53q0 -15 -11 -25t-44 -26l-34 -16v-98l36 -18q58 -29 58 -49q0 -3 -2 -9q-7 -17 -47 -37l-43 -20l1 -101v-42q0 -64 -12 -94q-13 -37 -42 -65t-61 -36q-22 -5 -39 -5q-68 0 -107 44 q-40 43 -40 77q0 29 30 29q10 0 15 -4.5t12 -20.5q25 -57 78 -61q2 0 6 -0.5t6 -0.5q52 0 75.5 42t23.5 134q0 29 -1 45q-2 40 -2 48q0 32 6.5 44t26.5 20q13 5 15 8t-2 8q-7 9 -16 9q-7 0 -22 15q-13 13 -13 38q0 4 2 52q4 77 10 85q4 7 30 19l23 12l-23 11 q-32 16 -37.5 29.5t-5.5 79.5v26q0 104 7 111zM85 581q3 7 8 7q9 0 19.5 -18.5t11.5 -41.5q1 -10 -1 -13.5t-9 -3.5q-11 0 -22 32q-8 21 -8 34v3zM148 566q8 17 20 17q10 0 10 -11q0 -9 -8 -26.5t-15 -21.5q-3 -2 -7 -2q-8 0 -8 14q0 15 8 30zM169 501q8 8 25 6 q18 -1 19 -18v-5q0 -28 -24 -28q-12 0 -19.5 8t-7.5 19t7 18zM169 328q6 6 16 6q17 0 26 -12q3 -5 3 -10q0 -19 -22 -22h-4q-11 0 -18.5 7t-7.5 16q0 8 7 15zM146 259q9 0 30 -28q20 -29 20 -39q0 -8 -10 -8q-9 0 -28.5 26t-19.5 38q0 11 8 11zM104 253q2 2 11 0 q13 -3 13 -39q0 -24 -9 -28q-10 -3 -14 3q-3 5 -3 37q0 19 2 27z"
     id="glyph48" /><glyph
     glyph-name="K"
     unicode="K"
     horiz-adv-x="466"
     d="M244 739q0 4 -1.5 12.5t-1.5 11.5q0 16 15 16q7 0 9 -5.5t2 -23.5v-32q0 -5 -10 -5t-13 26zM111 485q7 0 15 -9t15 -9q10 0 10 -10q0 -6 -10 -39q-11 -29 -23 -30h-3q-10 0 -10 10t9 34q3 9 4.5 13t1 7t-2 3.5t-5.5 0.5q-7 0 -10 -10.5t-5 -47.5q-2 -34 -2 -40 q0 -26 8 -26q9 0 40 34q37 41 37 49q0 12 11 20.5t26 8.5q9 0 21 -5q6 -3 10 -3t4 4q0 6 -9 12q-8 5 -8 15q0 13 18 36q6 7 34 51q18 29 29.5 37.5t33.5 8.5q20 0 20 6q0 5 -16 20t-16 28q0 12 13 31q14 21 14 31q0 13 12.5 26t24.5 13h2q24 -3 24 -25q0 -10 -7 -38l-11 -41 l18 -25q18 -25 18 -47q0 -18 -13 -25q-15 -8 -48 -11q-26 -2 -32.5 -6.5t-24.5 -30.5q-19 -27 -19 -34q0 -6 6 -15q5 -8 22 -39q9 -18 9 -25q0 -6 -5 -16q-8 -17 -31 -18h-7q-23 0 -46 5q-16 4 -25 4t-18 -9l-12 -11l40 -19q52 -24 100 -69.5t80 -100.5q30 -53 30 -114 q0 -25 -9 -30q-8 -4 -17 -4q-27 0 -37 59q-19 100 -121 177q-62 47 -103 47q-14 0 -40 -21l-25 -22q1 -39 3 -116.5t3 -116.5l-16 -4q-8 -2 -12 -2q-20 0 -26 40q-5 40 -10 206t-5 287q0 13 0.5 34t0.5 29q1 87 3.5 111.5t9.5 29.5q8 7 18 7t20 -10q7 -7 9 -29.5t2 -105.5 q0 -93 1.5 -109.5t9.5 -16.5zM295 723q13 8 21 8q13 0 13 -12q0 -7 -17.5 -18t-28.5 -11q-4 0 -6 2q-3 3 -3 7q0 9 21 24zM217 673q3 9 22 7q20 -1 21 -15v-5q0 -24 -23 -24h-4q-19 2 -19 23q0 6 3 14zM146 532q6 11 19 11q10 0 18.5 -8t8.5 -20q0 -21 -21 -21q-9 0 -17 5 q-14 9 -14 17q0 6 6 16z"
     id="glyph49" /><glyph
     glyph-name="L"
     unicode="L"
     horiz-adv-x="509"
     d="M124 732q6 6 16 6q19 0 27 -16q8 -14 8 -93q0 -59 -6 -69q-5 -10 -23 -17q-17 -8 -17 -11q3 -5 19 -15l18 -12l2 -69q0 -8 0.5 -22t0.5 -19q0 -39 -5 -52t-21 -22q-20 -11 -20 -18q0 -6 20 -22l20 -16l1 -91l2 -91h153q153 0 161 -4q7 -5 7 -21q0 -17 -8 -23 q-7 -7 -172 -8q-21 0 -51.5 -0.5t-41.5 -0.5q-74 0 -88.5 10.5t-14.5 55.5v4v4.5v4.5q-2 66 -5 97q-2 28 -6 36.5t-23 22.5q-27 20 -28 40v8q0 9 5 15t25 22l32 24v103l-30 16q-39 21 -39 48q0 4 2 12q4 15 38 31l35 17v64q0 64 7 71zM252 596q6 4 8 4t16 -32.5t14 -39.5 q0 -9 -11 -9q-12 0 -23 27t-11 38q0 8 7 12zM317 576q9 12 15 12q8 0 8 -15q0 -10 -4 -22q-7 -20 -17 -20q-11 0 -11 17q0 14 9 28zM205 483q0 24 23 24h4q10 -1 12.5 -5t2.5 -17q0 -14 -3 -17t-17 -3t-18 3.5t-4 14.5zM211 351q7 7 17 7q16 0 23 -15t-6 -27q-12 -13 -27 -6 q-14 8 -14 23q0 11 7 18zM302 312q0 11 10 11t23 -31q12 -29 12 -37q0 -7 -9 -7q-8 0 -22 24.5t-14 39.5zM274 289q4 3 7 3q9 0 9 -15q0 -14 -8 -29q-10 -18 -20 -18q-6 0 -9 6l-1 1v2q0 9 8 28t14 22z"
     id="glyph50" /><glyph
     glyph-name="M"
     unicode="M"
     horiz-adv-x="832"
     d="M732 766q12 6 17 6q4 0 16 -9q9 -7 12 -21t7 -64q12 -164 12 -541q0 -109 -3 -112q-5 -8 -19 -8q-19 0 -26 13q-4 8 -7 155t-6 290t-7 143q-8 0 -79 -146t-153 -334q-17 -39 -41 -39h-5q-11 2 -21 17.5t-42 79.5q-48 94 -48 112q0 19 8 35l8 19l-19 4q-27 5 -52 44 t-25 74q0 2 0.5 5.5t0.5 4.5l4 25h-52l-39 58q-38 58 -43 58t-5 -76q0 -57 2 -71t15 -35q18 -32 18 -39q0 -14 -10 -14q-7 0 -13 9q-10 13 -14 9t-4 -9q0 -14 18 -24q18 -11 18 -19t-19 -8h-8h-1q-8 0 -8 -40q0 -33 3 -124l4 -165l-15 -7q-16 -7 -27 4q-8 8 -10.5 35 t-7.5 144q-4 112 -6.5 141t-10.5 34q-7 6 -7 13q0 11 10 11q7 0 8.5 77.5t4.5 160.5t11 92q11 11 23 11q13 0 42.5 -31.5t64.5 -82.5l37 -54h28q31 0 45 -8q17 -9 17 -26q0 -16 -10 -43q-7 -18 -7 -26t11 -27l13 -26l36 3q7 1 20 1q45 0 45 -28q0 -23 -30 -60l-20 -24 l30 -62q31 -61 33 -61q4 0 49 103q76 174 167 365q49 101 62 108zM176 467q10 6 17 6t14.5 -12t7.5 -21q0 -1 -1 -2v-2q-5 -14 -25 -14q-8 0 -15 5q-8 7 -8 20q0 14 10 20zM236 338q0 24 23 24h4q10 -1 12.5 -5t2.5 -17q0 -14 -3 -17t-17 -3t-18 3.5t-4 14.5zM217 227 q0 26 2 32t9 6t10 -6t5 -24q3 -27 3 -39q0 -18 -9 -21q-2 -1 -5 -1q-15 0 -15 53zM266 260q2 5 9 5q10 0 26 -16q13 -13 13 -25q0 -11 -12 -11q-9 0 -23 17t-14 27q0 2 1 3z"
     id="glyph51" /><glyph
     glyph-name="N"
     unicode="N"
     horiz-adv-x="643"
     d="M82 746q14 3 21 3q12 0 29 -18q15 -17 54 -75l37 -56h31q29 0 40.5 -8.5t11.5 -29.5t-12 -45l-13 -26q9 -14 27 -41.5t27 -40.5l38 4q20 2 25 2q14 0 21 -5q9 -8 9 -22q0 -22 -18 -49l-19 -28l21 -30q30 -42 77 -102t50 -60q4 0 4 239v68q0 309 6 316q6 8 21 8 q12 0 18 -7q9 -11 16 -478q3 -171 3 -217q0 -50 -7 -58q-7 -9 -14 -9q-14 0 -45.5 37t-114.5 149q-59 80 -74.5 104t-15.5 39q0 7 1 11q2 14 2 16q0 9 -14 10q-9 1 -20 13t-38 52q-3 4 -7 11q-31 52 -33 68q0 9 5 37q1 7 -0.5 9t-7.5 1h-4q-23 0 -64 59q-29 44 -35 44 q-5 0 -5 -81q0 -59 2 -72t12 -25q15 -18 15 -29q0 -7 -6 -10q-5 -4 -15 4q-1 1 -2 1q-6 0 -6 -78q0 -65 1 -115q0 -29 0.5 -77.5t0.5 -65.5v-21v-17t-0.5 -12.5t-0.5 -8.5v-4q-3 -8 -15 -8q-19 0 -27 13q-6 10 -11 98.5t-6 181.5q0 87 -9 95q-8 6 -8 15q0 8 8 11q7 2 8 145 q2 141 7 152q6 11 18 13zM145 488q8 8 23 8q27 0 27 -24v-5q-3 -22 -23 -22q-6 0 -14 3q-19 6 -19 24q0 8 6 16zM234 358q11 11 16 11t17 -10q10 -9 10 -20q0 -8 -7 -15q-8 -8 -17 -8q-10 0 -18 8t-8 18q0 9 7 16zM251 248q3 5 9 5q11 0 34 -17q24 -17 24 -28q0 -6 -6 -9h-1 q-7 0 -31 15t-29 22q-4 6 0 12zM212 245q3 3 7 3q15 0 17 -71v-11q0 -22 -8 -26q-10 -4 -15 5q-5 8 -5 57q0 39 4 43z"
     id="glyph52" /><glyph
     glyph-name="O"
     unicode="O"
     horiz-adv-x="680"
     d="M483 661q0 28 -7 28q-4 0 -17 -11q-13 -14 -31 -14q-14 0 -49 6q-20 3 -36 3q-24 0 -52 -4q-27 -4 -42 -4q-13 0 -23 6q-10 7 -12.5 6t-5.5 -15q-4 -19 -27 -44q-47 -53 -71 -145q-8 -29 -8 -80q0 -85 21 -142q47 -125 140 -170q35 -16 86 -16q47 0 78 14q33 16 66 50.5 t52 74.5q22 45 30 80t8 88q0 134 -79 236q-21 27 -21 53zM480 772q12 6 18 6q10 0 22 -11q16 -14 19 -63q2 -32 6 -44t17 -30q39 -50 66 -134q14 -44 14 -130q-1 -60 -3.5 -80t-13.5 -52q-29 -83 -85 -144.5t-133 -80.5q-35 -8 -63 -8q-70 0 -140 45q-79 52 -122 139.5 t-43 196.5q0 21 1 31q9 131 80 225q24 33 24 49q0 11 -1 18v10q0 21 4 35q6 12 23 12q22 0 50 -19l29 -19q30 0 89 1t88 1l21 20q23 21 33 26zM402 580q0 -26 -26 -26q-12 0 -19 8t-7 19q0 25 26 25t26 -26zM259 593q6 6 17 6q16 0 24 -11q3 -4 3 -10q0 -8 -6 -15t-16 -8h-4 q-11 0 -18 6.5t-7 15.5t7 16zM463 542q22 17 30 17q7 0 7 -10t-17.5 -25t-28.5 -15l-1 1h-2q-8 3 -8 7q0 7 20 25zM171 544q0 10 9 10q8 0 31 -9q24 -10 24 -23q0 -8 -12 -8q-15 0 -33.5 10.5t-18.5 19.5zM451 496q3 6 15 6q11 0 29 -6q32 -11 32 -23q0 -4 -3 -7t-8 -3 q-9 0 -30 7q-37 11 -37 21q0 1 2 5zM200 474q22 9 42 9q19 0 19 -9q0 -7 -27.5 -17.5t-46.5 -11.5h-2q-14 0 -14 7q0 11 29 22z"
     id="glyph53" /><glyph
     glyph-name="P"
     unicode="P"
     horiz-adv-x="531"
     d="M134 717q-9 17 -15 17q-15 0 -17 -85l-2 -62l23 -13q24 -14 24 -23t-8 -9q-9 0 -25 4q-4 1 -10 1t-6 -20q0 -23 3 -26q1 -1 2 -1q7 0 30 9q20 8 34 8q11 0 11 -6q0 -13 -37 -29q-34 -15 -38 -19q-5 -5 -9 -65q-2 -36 -2 -40q0 -23 6 -26q8 -6 54 -8h16q59 0 116 19t95 52 q17 15 32.5 38t15.5 34q0 6 -35 24q-35 17 -35 29q0 5 6 8h2q11 0 35 -11q21 -9 29 -9q9 0 9 13q0 3 -2 19q-4 19 -12 19q-5 0 -21 -8q-13 -7 -22 -7q-11 0 -11 9q0 12 22 25q18 10 18 17q0 10 -35 45q-19 19 -24 28t-5 24q0 26 -8 26q-5 0 -17 -14q-13 -16 -25.5 -21 t-40.5 -5q-20 0 -33 1q-46 2 -61 8.5t-27 29.5zM57 744q31 63 63 63q17 0 35 -19q18 -22 18 -25q0 -4 11 -17q13 -13 47 -13q27 0 36 4.5t37 30.5q36 34 48 34q23 0 32.5 -13.5t13.5 -53.5q3 -25 8.5 -35.5t25.5 -31.5q30 -32 46 -62q10 -21 12.5 -35.5t2.5 -53.5t-3 -53.5 t-14 -38.5q-36 -72 -117 -115q-47 -25 -79.5 -32.5t-101.5 -10.5l-83 -5v-248l-18 -2q-18 -2 -25 7q-17 19 -17 324q0 44 2 144l4 224zM272 616q8 8 17 8t16 -7.5t7 -17.5t-6 -17q-7 -9 -11.5 -10t-14.5 4q-15 8 -15 23q0 10 7 17zM168 611q6 6 16 6q17 0 26 -12q3 -5 3 -9 q0 -19 -23 -23h-4q-11 0 -18 6.5t-7 15.5t7 16z"
     id="glyph54" /><glyph
     glyph-name="Q"
     unicode="Q"
     horiz-adv-x="706"
     d="M332 692q-22 2 -32.5 8t-32.5 27q-25 25 -32 25q-3 0 -3 -2q-3 -7 3 -25q5 -15 5 -22q0 -17 -41 -58q-97 -96 -97 -241q0 -95 46 -175.5t120 -115.5q27 -13 41.5 -15.5t52.5 -2.5q57 0 68 7q10 6 10 10q0 5 -7 15q-19 33 -63 33q-11 0 -17 -1t-17 -1q-31 0 -31 21 q0 15 18 24.5t47 9.5q65 -1 107 -49l24 -29l31 33q40 42 65 107.5t25 126.5q0 62 -26 127t-70 111q-37 40 -37 56q-2 19 -7 34l-8 16l-11 -15q-3 -4 -11 -15t-11 -15q-8 -13 -30 -13h-13q-30 0 -66 4zM448 804q15 16 34 16q18 0 30 -15q11 -15 24 -56q13 -42 46 -78 q63 -69 87 -168q11 -43 11 -85q0 -5 -0.5 -16t-0.5 -18q-7 -164 -115 -269l-39 -39l11 -17q20 -33 77 -40q42 -5 42 -28q0 -10 -10 -20q-11 -11 -34 -11q-34 0 -74.5 22t-56.5 53l-8 16l-30 -9q-37 -10 -82 -10q-46 0 -79 10q-108 36 -174.5 136.5t-66.5 225.5q0 4 0.5 12 t0.5 12q9 151 108 256q19 21 24 31t6 34q4 65 49 65q19 0 33.5 -8t41.5 -33q22 -20 31 -24t34 -4t32 3t18 19q16 21 30 37zM272 574q-2 12 -2 15q0 16 19 16h5q13 -2 16 -5.5t3 -16.5q0 -14 -2.5 -17.5t-15.5 -4.5q-12 -1 -16.5 1.5t-6.5 11.5zM403 595q6 11 21 11 q11 0 18 -7t7 -17q0 -16 -12 -22q-7 -4 -14 -4q-10 0 -17 7t-7 17q0 8 4 15zM184 559q0 6 6 6q14 0 45 -19q32 -20 32 -29q0 -5 -12 -5h-4q-16 1 -41.5 18t-25.5 29zM501 543q35 15 45 15t10 -11t-41 -28q-38 -16 -47 -16q-6 0 -6 7q0 11 7.5 17t31.5 16zM235 487q7 3 16 3 q22 0 22 -13q0 -11 -31 -19q-32 -9 -41 -14q-11 -6 -20 -6q-15 0 -15 12q0 11 31 22q8 3 38 15zM473 483q0 8 10 8q13 0 35 -11q33 -16 33 -30q0 -4 -3 -7q-2 -2 -5 -2q-15 0 -42.5 15.5t-27.5 26.5z"
     id="glyph55" /><glyph
     glyph-name="R"
     unicode="R"
     horiz-adv-x="508"
     d="M123 733q-4 12 -9 12q-14 0 -14 -70v-48l34 -22q33 -22 33 -28q0 -9 -10 -9q-9 0 -29.5 9t-24.5 9l-2 -1q-4 -4 -4 -25q0 -34 6 -38h1q9 0 31 15q26 17 43 17q12 0 12 -10q0 -8 -33.5 -28t-47.5 -20h-1q-7 0 -9 -8.5t-2 -40.5q0 -36 2 -43.5t13 -11.5q17 -6 62 -6 q78 0 111 12q43 15 77 46t44 63q4 12 -7 13q-14 1 -39 15t-25 23q0 8 12 8q13 0 37 -11q23 -12 28 -7q4 4 0 29q-4 23 -15 23q-7 0 -23 -8q-12 -6 -20 -6q-9 0 -9 7q0 11 24 25q18 10 18 19q0 11 -35 36q-27 18 -35 37q-7 17 -10 17t-15 -14q-9 -10 -20.5 -13t-49.5 -5 q-36 -2 -39 -2q-21 0 -38 14q-19 17 -22 26zM85 807q17 19 32 19q23 0 50 -51q15 -26 19 -26l5 1h13h15q21 0 27 4t21 28q24 36 44 36q25 0 46 -56q12 -32 37 -50q34 -23 55.5 -68.5t21.5 -91.5q0 -13 -1 -20q-6 -49 -31.5 -87.5t-80.5 -80.5l-19 -15l26 -18 q27 -19 56.5 -60t40.5 -75q12 -33 15 -103q1 -18 1 -42q0 -25 -8 -34q-11 -11 -25 -11q-11 0 -17 6q-7 7 -7 37q0 39 -8 86t-18 70q-31 66 -93 96q-26 13 -44.5 16.5t-74.5 6.5q-25 2 -63 2q-21 0 -22 -1q-2 -2 -6 -146q-2 -145 -13 -154q-7 -7 -17 -7q-20 0 -25 17 q-1 4 -1 110q0 151 1 245l4 340l14 22q13 19 13 29q0 7 17 26zM253 647q7 11 22 10q24 -3 24 -22t-24 -22h-3q-10 0 -16 6.5t-6 15.5q0 6 3 12zM166 649q3 3 10 3q21 0 28 -12q3 -4 3 -10q0 -8 -7 -14.5t-17 -6.5q-13 0 -17 18t0 22z"
     id="glyph56" /><glyph
     glyph-name="S"
     unicode="S"
     horiz-adv-x="449"
     d="M294 165q5 0 20 -23t18 -23q5 0 17 18.5t12 28.5t-30 11q-19 1 -24.5 3.5t-5.5 10.5q0 7 5.5 9t25.5 4l30 2l-3 21q-4 22 -27 42q-21 17 -21 30q0 2 2 20l3 29q-8 -3 -23.5 -9t-23.5 -9l-44 22q-32 15 -38.5 22t-8.5 23q-1 20 -7 20q-5 0 -14 -11q-11 -11 -22 -11 t-30.5 20.5t-35.5 49.5q-36 63 -36 115q0 59 47 111q43 47 93 64q22 7 63 7q42 0 72 -8q40 -12 72.5 -43.5t32.5 -57.5q0 -11 -8 -19.5t-18 -8.5q-2 0 -36 34q-27 27 -48.5 37t-56.5 10q-43 0 -79.5 -19.5t-56.5 -53.5q-16 -28 -16 -62q0 -50 32 -92q5 -7 8 -7t18 12 q20 17 38 17t28.5 -16t10.5 -43q0 -45 38 -45q17 0 36 9q25 11 42 11t25 -11q8 -8 8 -24q0 -4 -2 -30q-1 -11 -1 -25q0 -18 10 -28q17 -15 27 -45t10 -62q0 -24 -6 -45q-19 -67 -86.5 -105.5t-176.5 -46.5q-12 -1 -31 -1q-44 0 -62 23q-8 11 -8 18q0 5 3 12q3 8 6.5 10.5 t15.5 2.5q3 0 35 -2q10 -1 30 -1q71 0 130 22q35 13 35 22q0 10 -12 29q-11 15 -11 26q0 9 10 9zM56 360q10 0 29 -25q17 -25 17 -39q0 -10 -9 -10h-1q-8 0 -26.5 27t-18.5 38q0 9 9 9zM138 336q7 7 18 7q15 0 21 -11q4 -7 4 -14q0 -10 -7.5 -17.5t-17.5 -7.5q-7 0 -14 4 q-11 6 -11 21q0 11 7 18zM248 276q8 3 15 3q23 0 23 -23q0 -8 -8 -14t-17 -6q-8 0 -12 4q-8 8 -8 21q0 12 7 15zM12 256q3 6 26 6q56 0 72 -16q4 -4 4 -7q0 -8 -25 -8q-14 0 -23 1q-55 5 -55 20q0 3 1 4z"
     id="glyph57" /><glyph
     glyph-name="T"
     unicode="T"
     horiz-adv-x="487"
     d="M18 744q15 8 228 8q174 0 207.5 -4.5t33.5 -27.5q0 -20 -20.5 -26t-90.5 -6h-82l2 -84l1 -85l31 -12q53 -20 53 -45q0 -23 -47 -52q-12 -7 -14 -14.5t-2 -40.5v-45l30 -17q52 -30 52 -56q0 -16 -10.5 -25t-43.5 -22l-40 -15v-65q0 -59 -5.5 -77t-22.5 -18q-19 0 -24 11 t-5 57v27q1 77 5.5 93.5t28.5 25.5q27 11 27 18q0 4 -14 4q-21 0 -26 15.5t-6 82.5l-1 82q11 8 33 26l-20 10q-26 12 -31 27t-6 79q-1 43 -1 97l-1 18h-105q-102 0 -118 10q-12 9 -12 22q0 17 16 24zM54 525q5 8 12 6t25 -38t18 -48q0 -13 -10 -13q-12 0 -20 21 q-6 18 -20 42q-9 15 -9 21q0 5 4 9zM143 490q15 31 26 31t11 -8q0 -12 -15.5 -39t-22.5 -27q-12 0 -12 9q0 8 13 34zM160 426q8 8 19 8q10 0 17 -7t7 -19q0 -30 -26 -30q-12 0 -19 8t-7 19q0 12 9 21zM163 319q7 7 18 7q13 0 22 -9q5 -5 5 -14q0 -11 -9 -19.5t-20 -8.5 q-9 0 -14 5q-9 9 -9 21q0 11 7 18zM77 188q13 27 20 27h1q10 -3 10 -15q0 -15 -10 -32q-14 -26 -25 -26q-6 0 -6 11q0 14 10 35zM128 191q0 14 6 14q11 0 26 -32q12 -25 12 -39q0 -10 -8 -13h-1q-7 0 -21 28t-14 42z"
     id="glyph58" /><glyph
     glyph-name="U"
     unicode="U"
     horiz-adv-x="622"
     d="M42 742q3 4 15 4q19 0 26 -7q6 -9 9 -171q5 -212 21 -295.5t59 -126.5q21 -21 57.5 -38t68.5 -21q8 -1 21 -1q18 0 45 13q53 26 79.5 66.5t40.5 116.5q14 72 37 93q8 6 8 10q0 3 -14 17q-13 12 -15 21t-2 47t2 46.5t15 15.5q17 9 17 16q0 6 -18 15l-20 9l-3 77 q-2 50 -2 54q0 24 7 32q9 10 20 10q10 0 17 -8q4 -6 9.5 -44.5t6.5 -69.5q1 -17 19 -26q45 -24 45 -53q0 -10 -5.5 -17t-23.5 -20q-19 -13 -23.5 -20.5t-4.5 -22.5t4 -21t20 -15q23 -11 33 -30q5 -10 5 -14q0 -5 -8 -16q-11 -15 -34 -27l-23 -13l-9 -57 q-16 -92 -51.5 -143.5t-107.5 -86.5q-29 -15 -67 -15h-14q-36 1 -50.5 4.5t-46.5 18.5q-79 39 -114.5 100t-48.5 178q-6 70 -6 274q0 137 4 141zM412 649q6 11 13 9q8 -3 8 -20q0 -18 -7.5 -35.5t-17.5 -17.5q-6 0 -6.5 4.5t1.5 21.5q4 28 9 38zM336 641q3 7 8 7 q10 0 23.5 -21.5t13.5 -38.5q0 -12 -9 -14h-1q-7 0 -21.5 25t-14.5 38q0 1 0.5 2t0.5 2zM413 561q7 7 16 7q10 0 16.5 -8.5t6.5 -18.5q0 -15 -11 -20q-6 -3 -11 -3q-10 0 -17 8t-7 18t7 17zM413 411q6 6 16 6q16 0 25 -12q3 -5 3 -10q0 -19 -22 -22h-4q-11 0 -18 6.5 t-7 15.5t7 16zM374 302q15 24 23 24q4 0 7 -8v-2q1 -1 1 -2q0 -12 -12 -31.5t-19 -19.5q-11 0 -11 11q0 12 11 28zM416 313q3 7 7 7q11 0 23 -23t12 -35q0 -10 -10 -10h-2q-12 1 -22 28q-9 22 -9 30l1 1v2z"
     id="glyph59" /><glyph
     glyph-name="V"
     unicode="V"
     horiz-adv-x="587"
     d="M549 750q13 6 26 2t13 -23q0 -26 -27 -96q-25 -67 -25 -83q0 -5 20 -29q19 -25 19 -41q0 -14 -10 -25q-14 -17 -46 -19l-32 -2l-13 -32q-11 -31 -11 -33t17 -30t17 -42q0 -12 -11 -23q-12 -12 -55 -20q-7 -1 -17 -22.5t-37 -93.5q-30 -81 -44.5 -107.5t-27.5 -26.5 q-16 0 -31.5 29.5t-52.5 130.5q-50 140 -57 147q-6 6 -6 17t-69 196t-69 197q0 11 8.5 18t20.5 7q16 0 25 -13q6 -11 73 -187l65 -175l16 3q3 1 7 1q14 0 14 -11q0 -9 -10 -16t-10 -18q0 -14 15 -14h2h4q6 0 7.5 -6t1.5 -30q0 -40 20 -91t25 -51q4 0 25 53.5t30 84.5 q4 16 15.5 26.5t23.5 10.5q5 0 7 -1t6 -1q10 0 10 10q0 8 -9 19q-12 14 -12 27q0 10 17 58.5t25 60.5q7 7 30 7q25 0 25 8q0 6 -14 20q-14 12 -14 29q0 11 34 104q34 89 46 96zM286 607q0 6 -0.5 18t-0.5 17q0 27 9 27q3 0 4 -1q10 -4 13 -39q3 -24 3 -38q0 -32 -15 -32 q-4 0 -6 1t-3.5 6.5t-2 14t-1.5 26.5zM369 617q22 25 31 25t9 -11q0 -10 -20.5 -31t-30.5 -21t-10 5q0 8 21 33zM372 549q7 7 18 7q16 0 22 -14q5 -10 4 -15t-9 -12q-12 -13 -27 -6q-15 6 -15 23q0 10 7 17zM318 389q9 6 14 6q8 0 19 -12q6 -6 6 -16t-7.5 -17.5t-17.5 -7.5 q-9 0 -17 8q-7 7 -7 19q0 14 10 20z"
     id="glyph60" /><glyph
     glyph-name="W"
     unicode="W"
     horiz-adv-x="897"
     d="M841 762q10 13 24 13q11 0 19 -9q7 -9 7 -22q0 -22 -20 -91q-5 -17 -13.5 -48.5t-19.5 -73t-17 -64.5q-103 -397 -137 -436q-9 -11 -23 -11q-17 0 -30 19q-31 52 -84 241q-42 141 -72 252q-22 83 -29 83q-4 0 -22 -60l-15 -53l-31 -2q-34 -2 -34 -4q0 -4 22 -30 q21 -22 21 -34q0 -9 -12 -47q-8 -30 -13 -36t-25 -9q-25 -4 -25 -11q0 -5 15 -23q15 -16 15 -30q0 -33 -18 -94.5t-34.5 -104.5t-19.5 -47q-13 -21 -32 -21q-9 0 -14 7q-12 15 -125 381q-89 287 -89 321q0 15 12 22q7 4 13 4q12 0 21 -17.5t22 -61.5q11 -38 133 -424 q30 -93 34 -93q3 0 19 63l17 64l-18 20q-28 32 -28 52q0 7 1 10q3 13 19.5 22.5t34.5 9.5q30 0 30 23q0 18 -18 40q-33 40 -33 60q0 13 14 27q13 13 46 16q29 2 34 7q3 3 27 81q19 66 29 84.5t25 18.5q19 0 32 -26.5t38 -112.5q3 -9 15 -12q9 -3 9 -13q0 -9 -1 -16 q0 -2 -0.5 -6t-0.5 -7q0 -20 4 -40t10 -23q5 -2 25 13q13 10 23 10t10 -12q0 -8 -24 -26q-21 -16 -21 -27q0 -5 1 -9q5 -24 48 -165t47 -145q1 -1 2 -1q7 0 27 70t75 286q65 257 78 278zM442 460q8 3 13 3q20 0 20 -19q0 -12 -9 -21q-9 -10 -19 -10q-11 0 -17 11q-3 6 -3 12 q0 17 15 24zM401 323q6 8 18 8q15 0 24 -12q3 -6 3 -11q0 -19 -24 -21h-2q-10 0 -17 7t-7 16q0 6 5 13zM432 260q19 31 32 31q9 0 9 -9q0 -8 -15.5 -34t-26.5 -35q-10 -8 -14 -4q-5 3 -5 9q0 10 20 42zM473 223q2 21 5 27.5t10 6.5q10 0 10 -19q0 -14 -1 -25q-1 -45 -11 -47 h-2q-13 0 -13 30q0 7 2 27z"
     id="glyph61" /><glyph
     glyph-name="X"
     unicode="X"
     horiz-adv-x="647"
     d="M322 404q0 -4 106 -166t106 -182t-16 -26q-8 -3 -11 -3q-7 0 -17 10q-19 19 -109 159q-94 147 -100 147t-99 -140t-111.5 -164t-31.5 -24q-11 0 -20 10t-9 22q0 4 1 6q4 13 114 175q17 25 34.5 51.5t31 46.5t24.5 36.5l17 25.5l7 10q1 2 -12 25.5t-37.5 63t-52.5 81.5 q-106 160 -106 171t9 20t21 9q9 0 17 -6q6 -5 56 -79.5t97.5 -146.5t49.5 -72q1 0 11 14q6 10 6 15q0 3 -5 15q-13 25 -13 42q0 15 12 27q13 13 26 13q4 0 22 -2l33 -3l10 22q6 15 6 20q0 7 -14 25q-17 22 -17 45q0 12 7 19t49 7q31 0 39 2.5t23 18.5q16 19 25 19q3 0 11 -3 q18 -6 18 -22q0 -15 -17 -43q-20 -35 -44 -35q-5 0 -8 1q-9 1 -9.5 -2.5t4.5 -16.5q3 -6 3 -11q0 -12 -24 -55l-28 -52l-27 1q-27 0 -27 -4q0 -5 9 -21q6 -10 6 -15q0 -7 -21 -38q-25 -36 -25 -43zM579 682q4 6 16 6q10 0 10 -12q0 -13 -7 -42q-7 -30 -17 -31q-1 0 -3 -1h-1 q-6 0 -6 15q0 12 1 21q4 39 7 44zM625 613q18 12 26 12q10 0 10 -9q0 -8 -17.5 -22.5t-27.5 -14.5t-10 9q0 12 19 25zM509 594q7 9 17 9t18 -8t8 -19q0 -7 -3 -13q-4 -9 -8.5 -11t-16.5 -1q-20 1 -21 18q-2 15 6 25zM428 484q6 5 16 5q23 0 23 -27t-25 -27q-12 0 -19 8 t-7 18q0 14 12 23zM403 391q17 13 29 13t12 -11q0 -8 -20 -22.5t-31 -14.5h-1l-2 1q-8 3 -8 9q0 10 21 25zM465 362q1 4 1.5 12t1 11t2 7.5t4 6t6.5 1.5h4q8 -3 8 -21v-13q-3 -40 -14 -40q-1 0 -7 2q-8 3 -8 15q0 3 2 19z"
     id="glyph62" /><glyph
     glyph-name="Y"
     unicode="Y"
     horiz-adv-x="534"
     d="M20 747q9 10 19 10q7 0 14 -3q8 -3 99 -181q89 -178 97 -178t13 14q4 10 4 14q0 7 -9 24q-12 24 -12 40q0 37 61 41q17 1 28 21q8 14 8 21q0 6 -6 21q-9 22 -9 44q0 19 7 23q7 5 36 10q21 4 27 9.5t20 30.5q13 24 20.5 33t16.5 9q6 0 13 -3q14 -6 14 -21q0 -18 -21 -61 q-13 -27 -21 -36t-21 -14q-8 -3 -10.5 -4t-5 -3.5t-2.5 -6.5q0 -1 2.5 -13t2.5 -19q0 -10 -10.5 -33t-10.5 -30q0 -26 -48 -35q-13 -1 -16.5 -4t-1.5 -8q12 -29 12 -38q0 -12 -24 -59l-28 -56l-5 -146q-4 -116 -8.5 -144t-22.5 -28h-6q-14 2 -19.5 12t-5.5 38q0 9 2 47 q3 55 5 155l2 83l-18 27q-18 24 -105 195.5t-87 181.5t10 20zM490 681q4 10 11 6q7 -1 7 -29q0 -36 -9 -36q-11 0 -11 40q0 14 2 19zM540 646q14 25 27 25q10 0 10 -8t-15 -33t-22 -27l-2 -1h-2q-6 0 -6 11q0 16 10 33zM451 573q8 11 22 11q15 0 22 -12q3 -6 3 -12 q0 -11 -8 -19t-19 -8q-12 0 -19 7t-7 17q0 9 6 16zM384 450q8 8 17 8q10 0 16 -8t6 -18q0 -15 -11 -22q-5 -3 -10 -3q-10 0 -16.5 8.5t-6.5 19.5q0 9 5 15zM364 344q28 28 41 28q8 0 8 -10t-24 -34.5t-34 -24.5q-14 0 -14 8t23 33zM431 359q11 14 19 1q1 -2 1 -9 q0 -18 -6.5 -45.5t-12.5 -29.5q-2 -1 -5 -1q-11 0 -11 22q0 16 5.5 36.5t9.5 25.5z"
     id="glyph63" /><glyph
     glyph-name="Z"
     unicode="Z"
     horiz-adv-x="545"
     d="M244 726q196 6 233 6l54 -1l2 -19q2 -20 -6 -28q-9 -11 -47 -76l-38 -65l20 -30q20 -28 20 -50q0 -21 -12.5 -30t-45.5 -9h-12l-41 1q-28 -40 -50 -77l15 -21q14 -20 14 -43q0 -21 -14.5 -31t-50.5 -12q-27 -2 -34 -5.5t-18 -21.5q-15 -22 -15 -28q0 -1 -36 -51.5 t-36 -56.5q0 -3 58 -3q71 0 120 1q114 2 122 2q52 0 58 -7q6 -8 6 -17q0 -18 -18 -27q-15 -7 -213 -8h-87q-112 0 -126 9q-15 8 -15 22q0 12 59 91q60 79 73 104q16 32 28.5 42t35.5 10q31 0 31 9q0 6 -11 20q-14 17 -14 30t14 27q13 11 40 56q18 28 29.5 37.5t29.5 9.5 q4 0 22 -2q25 -4 25 1t-20 25q-20 18 -20 37q0 13 12 24q9 7 36 49t27 47q0 4 -74 4q-61 0 -72.5 -4.5t-20.5 -31.5q-8 -26 -21 -26q-6 0 -8 5q-4 8 3 29q9 21 5 25q-2 2 -99 2q-95 2 -102 7q-8 6 -8 21q0 13 7 17q8 6 186 11zM328 622q25 17 35 17q9 0 9 -13 q0 -10 -22.5 -25t-35.5 -15h-2q-12 2 -12 8q0 9 28 28zM285 558q4 4 20 4t20 -16q1 -3 1 -9q0 -11 -6.5 -19t-15.5 -8q-6 0 -14 6q-9 6 -9 27q0 11 4 15zM179 423q7 7 17 7q16 0 22 -12q4 -7 4 -14q0 -10 -7 -17.5t-18 -7.5q-7 0 -14 4q-11 6 -11 21q0 12 7 19zM41 359 q24 24 33 24q10 0 10 -11t-22 -31.5t-34 -20.5q-11 0 -11 6q0 9 24 33zM93 284q7 63 16 63h1q5 -2 9.5 -17t4.5 -28q0 -2 -0.5 -4.5t-0.5 -3.5q-5 -30 -8.5 -36.5t-12.5 -6.5q-6 0 -8.5 2t-2.5 9q0 2 2 22z"
     id="glyph64" /><glyph
     glyph-name="bracketleft"
     unicode="["
     horiz-adv-x="296"
     d="M59 730q26 4 75 4q94 0 101 -7t7 -22q0 -14 -7 -21q-10 -8 -72 -11q-63 -3 -65 -10v-30q0 -98 4 -452l4 -246h66q54 0 68 -5t14 -25t-17.5 -25.5t-85.5 -6.5q-27 -1 -58 -1q-28 0 -37 10q-8 8 -10.5 69t-6.5 346q-3 204 -3 301q0 109 4 116q5 12 19 16z"
     id="glyph65" /><glyph
     glyph-name="backslash"
     unicode="\"
     horiz-adv-x="441"
     d="M51 756q8 12 24 12q12 0 21 -9q8 -8 49 -108q23 -57 147 -357q107 -259 107 -274q0 -13 -7 -20.5t-17 -7.5q-14 0 -26 13q-13 15 -70 154q-237 576 -237 579q0 5 9 18z"
     id="glyph66" /><glyph
     glyph-name="bracketright"
     unicode="]"
     horiz-adv-x="274"
     d="M68 719q8 2 36 2q6 0 21 -0.5t23 -0.5q67 -2 79 -12q8 -7 9.5 -65.5t1.5 -336.5q0 -391 -6 -399q-10 -16 -103 -18q-45 0 -60 6t-15 25q0 16 13 21.5t56 9.5l54 4l2 341v108q0 233 -5 245q-4 7 -13.5 9t-43.5 2t-45 2t-18 9q-12 12 -12 19q0 9 8 18t18 11z"
     id="glyph67" /><glyph
     glyph-name="asciicircum"
     unicode="^"
     horiz-adv-x="442"
     d="M206 722q12 7 18 7q7 0 19 -7q11 -9 85.5 -148t74.5 -151q0 -27 -28 -27h-5q-11 2 -24 21t-54 93q-63 112 -67 114q-2 0 -35.5 -62t-66.5 -125l-33 -63q-4 -7 -20 -7t-24 8q-7 9 -7 22q0 12 78.5 164.5t88.5 160.5z"
     id="glyph68" /><glyph
     glyph-name="underscore"
     unicode="_"
     horiz-adv-x="513"
     d="M170 -58q23 0 68.5 1t80 1.5t54.5 0.5h22q53 0 68 -5t15 -23q0 -25 -30 -29.5t-198 -4.5q-201 0 -208 7t-7 22t7 22q8 6 128 8z"
     id="glyph69" /><glyph
     glyph-name="grave"
     unicode="`"
     horiz-adv-x="221"
     d="M44 795q10 15 26 15q8 0 15 -5q6 -4 19 -30q10 -21 29 -42.5t36 -29.5q15 -7 15 -29q0 -25 -24 -25q-8 0 -21 5q-20 8 -48 38t-41 57q-12 25 -12 31t6 15z"
     id="glyph70" /><glyph
     glyph-name="a"
     unicode="a"
     horiz-adv-x="429"
     d="M289 302q-11 6 -45 6q-26 0 -43 -5q-34 -11 -64.5 -35.5t-45.5 -53.5q-16 -30 -16 -75q0 -27 8 -43q15 -28 44 -28q23 0 76 17q56 19 96 22l43 3l2 32v8q0 33 -5 68q-8 62 -50 84zM323 591q11 4 18 4t21 -9q12 -8 12 -24q0 -3 -2 -33q-1 -12 -1 -29q0 -20 6 -23 q9 -3 8.5 -10.5t-9.5 -12.5q-6 -3 -6 -15t15 -111q17 -117 21 -199q1 -16 1 -41q0 -29 -5 -39t-19 -10q-4 0 -20 2q-52 6 -55 6q-24 0 -65 -14q-78 -26 -111 -26t-63 21q-37 24 -50 90q-3 18 -3 34q0 70 48.5 128t125.5 78q25 7 64 7q35 0 52 -7q10 -4 10 7q0 13 -26 24 q-24 11 -24 19q0 12 14 12q7 0 22 -5q12 -4 1 5q-2 1 -4 3q-11 9 -11 12t7 11q10 10 8 29l-1 18l-61 3q-9 1 -28 1q-41 0 -61 -5q-22 -4 -25 -4q-11 0 -21 6q-12 5 -14 5q-5 0 -18 -13q-12 -13 -19 -13q-2 0 -10 2q-9 4 -11.5 10.5t-2.5 29.5q0 34 11 46q10 12 30 12 q19 0 33 -10q15 -10 64 -10h26q53 1 66.5 3.5t28.5 13.5q23 17 33 21zM122 457q6 6 15 6q11 0 20.5 -7.5t9.5 -17.5q0 -8 -10 -17t-19 -9q-10 0 -17 8t-7 18q0 11 8 19zM208 457q6 6 16 6q16 0 25 -12q3 -5 3 -10q0 -19 -22 -22h-4q-11 0 -18 6.5t-7 15.5t7 16zM44 443 q3 3 5 3t31 -14t29 -24q0 -7 -15 -7q-18 0 -35.5 11.5t-17.5 22.5q0 5 3 8zM73 380q15 7 27 7q14 0 14 -14q0 -11 -22 -17q-25 -7 -30 -7q-10 0 -10 11t21 20z"
     id="glyph71" /><glyph
     glyph-name="b"
     unicode="b"
     horiz-adv-x="519"
     d="M377 489q-5 14 -10 14q-6 0 -18 -21l-13 -23l-46 -2q-5 0 -13 -0.5t-11 -0.5q-27 0 -41 5t-31 20q-15 13 -21 13q-9 0 -9 -26q0 -16 -9 -32.5t-20 -20.5q-10 -3 -34 -20l-24 -17v-253l21 -9q68 -28 143 -28q44 0 74 10q50 17 81 57.5t36 95.5q2 22 2 28q0 19 -6.5 27.5 t-22.5 13.5q-23 7 -23 17q0 12 22 13l21 2l-15 7q-16 6 -16 14q0 6 6 15q3 4 3 10q0 7 -9 25q-12 26 -12 38q0 15 -5 28zM26 798q10 5 16 5q10 0 20 -8q8 -8 12.5 -171.5t7.5 -166.5q5 -5 17 4q11 8 14 42q2 35 12 50t32 15q16 0 30 -8.5t51 -38.5q10 -9 25 -9q10 0 17 1 q18 2 25 7t15 21q25 50 54 50q19 0 30.5 -17t26.5 -67q17 -53 23.5 -67t17.5 -14q5 0 8 1q17 4 21 -7q3 -10 -2 -12q-6 -2 -15 -9q-7 -5 -7 -11q0 -2 7 -33q8 -32 8 -74q0 -70 -17 -112q-19 -47 -64.5 -85.5t-97.5 -50.5q-25 -6 -63 -6q-61 0 -115 14q-42 10 -53 10h-2 q-3 -3 -3 -14q0 -18 -24 -18t-30 18q-2 13 -4 383q0 43 -0.5 106.5t-0.5 84.5q0 181 8 187zM322 405q8 7 17 7q19 0 19 -25q0 -16 -11 -23q-5 -3 -10 -3q-10 0 -17 8.5t-7 18.5q0 11 9 17zM198 390q7 11 21 10q24 -3 24 -22t-24 -22h-3q-21 0 -21 21q0 7 3 13zM107 370 q0 8 11 8q13 0 43 -11q21 -8 25 -12.5t4 -22.5t-4.5 -23t-30.5 -15q-34 -14 -42 -14q-7 0 -7 10t33 27l33 16l-31 12q-34 13 -34 25z"
     id="glyph72" /><glyph
     glyph-name="c"
     unicode="c"
     horiz-adv-x="524"
     d="M121 589q13 7 16 7q2 0 15 -5q15 -5 39 -28l24 -21l74 2q51 2 67.5 4t31.5 11q25 14 46 14q15 0 23 -7q15 -12 15 -66q0 -22 -5 -27q-7 -8 -18 -8q-13 0 -23.5 10.5t-10.5 24.5q0 4 -0.5 6t-2.5 2t-5.5 -2l-10.5 -6q-20 -11 -112 -15q-58 -2 -64 -2q-22 0 -29 2.5 t-17 10.5q-18 14 -20 14q-4 0 -4 -37q0 -24 -3 -34t-14 -24q-34 -41 -34 -115q0 -3 0.5 -9.5t0.5 -10.5q6 -123 102 -175q37 -20 76 -20q41 0 79 20.5t62 57.5q23 35 40 35q6 0 13 -4q11 -6 11 -21q0 -28 -36.5 -70t-82.5 -64q-30 -14 -84 -15q-36 0 -50.5 3t-40.5 15 q-81 38 -128 129l-23 43l1 74q1 61 7 89t27 59q14 22 14 55q1 34 11 62.5t23 35.5zM222 387q-1 3 -1 8q0 23 24 23q11 0 18 -6.5t7 -16.5q0 -5 -1 -8q-4 -19 -23 -19q-20 0 -24 19zM337 410q3 8 17 8q15 0 21 -8q6 -10 4 -22q-1 -8 -5 -10.5t-17 -2.5t-17 2.5t-5 10.5 q-2 13 2 22zM430 401q25 17 34 17q10 0 10 -11q0 -7 -6 -13q-42 -35 -62 -35q-2 0 -3 1q-5 3 -5 8q0 13 32 33zM140 383q-2 5 5 11.5t11 4.5q1 0 4.5 -2t9.5 -5t11 -6q22 -11 22 -25q0 -6 -6 -9h-2q-8 0 -30.5 12.5t-24.5 18.5zM173 335q17 6 31 6q20 0 20 -11q0 -9 -27 -18 t-36 -9q-10 0 -10 9q0 14 22 23zM399 343q8 0 29 -15q19 -13 19 -22q0 -7 -11 -8h-2q-10 0 -27 13.5t-17 21.5q0 10 9 10z"
     id="glyph73" /><glyph
     glyph-name="d"
     unicode="d"
     horiz-adv-x="568"
     d="M367 496q-11 25 -14 25t-12 -17q-10 -19 -26 -26.5t-52 -10.5q-26 -2 -29 -2q-16 0 -28 13q-15 15 -19 15t-4 -31q0 -23 -3 -29.5t-21 -18.5q-25 -18 -42 -51q-12 -23 -15 -37t-3 -43q0 -49 12.5 -80.5t45.5 -64.5q33 -35 66.5 -48t88.5 -14q54 0 82 13q30 13 37 23t7 44 q0 30 -1 51l-3 86l-19 8q-19 9 -19 20q0 4 0.5 6t3 3t5.5 0.5t11 -1.5q8 -2 12.5 -1.5t6 2.5t1.5 7q0 11 -13 13t-13 11q0 7 13 14q12 5 16 29q2 20 2 24q0 12 -5 17.5t-20 9.5q-24 6 -32 12.5t-17 28.5zM454 791q7 7 19 7q19 0 22.5 -27.5t3.5 -174.5v-188l13 1h1 q14 0 14 -10t-13 -16q-15 -8 -18 -25q-1 -6 -1 -36q0 -95 9 -208q3 -37 3 -56q0 -23 -5.5 -30t-20.5 -7q-17 0 -23 14q-5 10 -8 11t-16 -6q-47 -25 -121 -25q-81 0 -136 30q-65 34 -101.5 95t-36.5 133q0 14 4 44q11 70 53 115q17 18 20.5 28t4.5 51q2 48 10 64t32 16 q12 0 21 -6.5t29 -29.5q19 -21 26 -26.5t16 -5.5q7 0 11 1q19 4 32 26q34 57 63 57q12 0 22 -10q8 -8 22 -39.5t14 -41.5q0 -6 10 -6q11 0 14.5 29t3.5 130q0 115 7 122zM234 404q8 8 18 8t16 -7.5t6 -17.5q0 -16 -12 -23q-4 -3 -10 -3q-10 0 -16.5 8.5t-6.5 19.5q0 9 5 15z M328 387q0 24 23 24h4q10 -1 12.5 -5t2.5 -17q0 -14 -3 -17t-17 -3t-18 3.5t-4 14.5zM133 369q3 8 6 8q2 0 32 -14q29 -14 29 -26q0 -6 -8 -9h-2q-9 0 -30.5 10t-25.5 17q-4 6 -1 14zM167 299q20 13 32 13q11 0 11 -11q0 -8 -24 -23t-36 -15q-8 0 -8 7q0 15 25 29z"
     id="glyph74" /><glyph
     glyph-name="e"
     unicode="e"
     horiz-adv-x="483"
     d="M142 335q-19 10 -24 10q-4 0 -8 -13q-2 -10 -2 -11q0 -8 9 -8q8 0 21 4l24 7zM359 464q2 12 2 14q0 6 -4 6t-18 -11q-12 -9 -31 -9q-17 0 -30 1q-8 1 -22 1q-26 0 -40 -4q-8 -3 -14 -3q-8 0 -29 8l-25 11v-12q0 -13 -14 -50l-14 -40l34 -15q40 -18 40 -31q0 -4 -6 -9 q-7 -4 -12 -16q-4 -9 -39 -18q-37 -11 -37 -15q0 -6 54 -6q32 0 53 1q148 4 177 28q7 6 7 13q0 12 -19 18q-21 6 -21 17q0 10 18 10h1q10 1 11 1l-7 2q-17 3 -17 15q0 7 8 13q7 6 7 10q0 6 -7 24q-7 21 -7 35q0 8 1 11zM353 550q20 10 40 10t29 -9t9 -28q0 -21 -9 -49 q-5 -18 -5 -29q0 -21 14 -21q4 0 6 1q1 0 3 1h1q12 0 12 -13q0 -6 -6 -14q-7 -7 -7 -16q0 -7 3 -19q3 -17 9 -27.5t6 -13.5q0 -7 -20 -50q-15 -32 -86 -51q-23 -6 -96 -12.5t-115 -6.5q-17 0 -25 2q-3 1 -8 1q-6 0 -6 -6t11 -30q11 -23 39 -47.5t55 -33.5q33 -10 60 -10 q65 0 123 44q20 14 31 14q10 0 19 -13q5 -8 5 -16q0 -19 -34 -44q-54 -39 -111 -46q-18 -2 -28 -2q-88 0 -154.5 55t-76.5 136q-1 7 -1 24q0 71 25 154q14 48 14 69q0 14 -3 38q-2 14 -2 18q0 11 8 21q10 11 36 11q29 0 52 -11q29 -13 85 -13q52 0 67 12q14 11 31 20z M294 414q7 7 18 7q15 0 21 -11q3 -6 3 -12q0 -9 -6.5 -16t-15.5 -7q-12 0 -19.5 7t-7.5 16t7 16zM195 403q7 7 16 7q10 0 16.5 -8t6.5 -18q0 -14 -11 -20q-6 -3 -11 -3q-10 0 -17 7.5t-7 17.5t7 17z"
     id="glyph75" /><glyph
     glyph-name="f"
     unicode="f"
     horiz-adv-x="359"
     d="M220 797q8 2 26 2q33 0 63 -10t32 -23q2 -10 -2 -25q-4 -14 -20 -14t-20 6q-6 9 -41 9q-16 0 -30 -3q-62 -18 -74 -132l-5 -41h62q62 0 74 -6q11 -6 11 -25q0 -14 -8 -20t-68 -8l-60 -2l-1 -50q0 -35 -2.5 -45.5t-13.5 -22.5l-17 -17l16 -18q10 -13 12.5 -23.5t2.5 -47.5 q0 -34 -2.5 -45.5t-10.5 -20.5l-12 -13l12 -13q12 -14 15 -89q0 -7 0.5 -19.5t0.5 -17.5q0 -36 -5.5 -49t-19.5 -13h-6q-17 2 -23.5 20t-6.5 65v54l-23 21q-23 22 -23 38q0 17 23 41q23 25 23 38q0 37 -17 42q-15 5 -28 20.5t-13 28.5q0 15 25 37q23 21 29 21q3 0 3 12 q0 16 -4.5 38.5t-8.5 25.5q-8 5 -34 5q-28 0 -39 6.5t-11 22.5q0 18 15 23q15 6 20 2q1 -1 8 -1q5 0 23 2l26 4v30q0 26 8.5 63t18.5 58q15 30 42 51t58 28zM238 476q0 9 7 9q6 0 16 -8.5t17 -22.5q11 -18 11 -25q0 -4 -5 -7q-9 -6 -13 -2q-7 4 -20 26.5t-13 29.5zM306 447 q12 26 24 26q3 0 6 -3t3 -7q0 -11 -9 -30t-21 -19q-5 0 -8 2q-4 3 -4 7q0 5 9 24zM199 409q7 7 21 5q18 -2 18 -24q0 -16 -11 -21q-6 -3 -11 -3q-10 0 -17.5 7.5t-7.5 17.5t8 18zM202 253q9 6 14 6t16 -11t11 -20q0 -8 -9 -17q-7 -9 -19 -9q-9 0 -16 7t-7 21q0 17 10 23z M300 248q10 0 30 -32q15 -26 15 -38q0 -11 -11 -11q-7 0 -24.5 30t-17.5 41q0 10 8 10zM253 227q4 4 15 4q5 0 6.5 -3t1.5 -14v-19q-1 -17 -2 -24t-3.5 -10t-8.5 -4q-1 0 -3 -1h-2q-8 0 -8 33q0 34 4 38z"
     id="glyph76" /><glyph
     glyph-name="g"
     unicode="g"
     horiz-adv-x="548"
     d="M136 564q6 3 13 3q23 0 62 -30q20 -15 66 -19l46 -4l29 26q29 26 47 26q20 0 29 -14t16 -55q7 -44 19 -62q18 -25 28 -60q19 -66 19 -151q0 -31 -1 -48q-5 -97 -15 -144.5t-41 -110.5q-30 -65 -97.5 -102t-150.5 -37q-23 0 -47 3q-87 12 -90 42v6q0 20 29 20q13 0 34 -3 q42 -6 76 -6q106 0 164 64q76 83 79 311l1 72l-32 8q-37 10 -37 20q0 4 5 9q7 8 23 1q17 -6 23 -6q8 0 8 9q0 6 -1 10q-4 21 -9 21q-2 0 -12 -8q-7 -7 -16 -7q-13 0 -13 12q0 10 15 19q13 9 13 16t-13 26q-14 21 -17 42q-4 22 -8 22q-1 0 -20 -15q-16 -13 -37 -13 q-4 0 -42 2q-61 4 -79 15q-13 8 -18 8q-4 0 -4 -4t6 -13q5 -8 5 -14q0 -13 -31 -43q-24 -22 -24 -28q0 -4 16 -13q29 -14 29 -28q0 -3 -3 -6t-8 -3q-7 0 -25 9q-16 8 -23 8q-10 0 -18 -34q-2 -12 -2 -13q0 -5 3 -5q5 0 25 11q22 11 32 11q7 0 12 -7q1 -1 1 -3q0 -15 -51 -34 q-13 -5 -17.5 -7.5t-8 -7t-3.5 -12.5q0 -3 6 -39q17 -89 95 -125q24 -11 39.5 -13.5t53.5 -2.5t53 2.5t33 12.5q18 9 29 9q14 0 21 -18q2 -8 2 -11q0 -38 -82 -55q-27 -6 -55 -6q-64 0 -120.5 27t-86.5 72q-43 65 -43 152q0 103 57 173q13 15 16 27t5 51q2 37 5 47t13 15z M204 406q5 5 22 3q12 -1 14.5 -4.5t2.5 -17.5q0 -13 -2.5 -17t-10.5 -5q-13 -2 -22 4q-8 8 -8 23q0 10 4 14zM312 402q3 9 22 7q19 -1 20 -15v-5q0 -24 -23 -24h-4q-18 1 -18 23q0 6 3 14z"
     id="glyph77" /><glyph
     glyph-name="h"
     unicode="h"
     horiz-adv-x="504"
     d="M43 781q8 9 20 9q15 0 23 -12q9 -12 9 -153q0 -140 7 -140q5 0 17 6q11 6 11 41q0 34 6.5 45.5t25.5 11.5q20 0 52 -29q24 -21 33 -25t36 -4q25 0 33.5 2.5t16.5 12.5q30 36 67 36q18 0 30 -12q11 -12 11 -43v-22v-17q0 -37 12 -70q10 -25 12 -55t2 -157v-58 q0 -120 -6 -126t-20 -6q-19 0 -26 10q-5 8 -5 59q0 39 1 67l3 116l-28 16q-40 22 -40 35q0 3 1 4q3 6 11 6q10 0 27 -12q13 -8 19 -8q9 0 9 13q0 1 -0.5 3t-0.5 4q-1 13 -17 13l-24 -3h-5q-10 0 -10 6q0 11 25 23q23 11 23 19q0 5 -3 12q-6 19 -20 32q-15 15 -11 24 q3 8 7 33l3 23l-20 -19q-15 -14 -25 -16.5t-53 -2.5q-38 0 -49.5 2t-18.5 10q-11 11 -15 11q-5 0 -5 -12q0 -14 -7.5 -21.5t-33.5 -19.5q-5 -2 -15 -7t-12.5 -5.5t-9 -6t-7.5 -8t-4.5 -11t-3.5 -16.5t-1.5 -23t-1.5 -30.5v-40.5v-82q0 -145 -3 -176t-18 -31q-1 0 -5 0.5 t-6 0.5q-13 1 -21 16q-6 12 -9 382v160q0 209 7 216zM206 420q7 7 15 7q10 0 18 -7.5t8 -17.5q0 -7 -4 -12q-9 -14 -22 -14q-6 0 -13 5q-8 8 -8 21q0 12 6 18zM314 416q15 11 17 11q6 0 15 -11t9 -18q0 -11 -7 -17t-17 -6q-15 0 -23 15q-5 10 -4 14.5t10 11.5zM116 381 q3 5 15 5q19 0 43.5 -9.5t24.5 -18.5q0 -11 -12 -11q-14 0 -38 8q-35 10 -35 20q0 2 2 6zM149 322q30 18 41 18q9 0 9 -11q0 -10 -24 -25.5t-41 -15.5q-15 0 -15 7q0 10 30 27z"
     id="glyph78" /><glyph
     glyph-name="i"
     unicode="i"
     horiz-adv-x="215"
     d="M62 709q10 7 23 7q20 0 26 -15q3 -7 3 -16q0 -15 -10 -26.5t-23 -11.5q-8 0 -18 8q-11 10 -11 29t10 25zM62 555q9 10 22 10q15 0 22 -12q9 -11 9 -107q0 -75 -4.5 -98.5t-22.5 -42.5l-16 -17l14 -14q9 -10 12.5 -22t4.5 -48q0 -7 0.5 -17.5t0.5 -13.5q0 -26 -12 -35 l-13 -9l15 -10q10 -7 12.5 -15t2.5 -38q0 -34 -6 -47.5t-22 -13.5q-23 0 -28 42q-2 25 -28 49q-25 24 -25 39q0 14 18 29q19 15 23 15q5 0 5 26q0 18 -4 27t-19 25q-23 25 -23 41q0 18 31 36l21 12v99q0 64 1.5 83.5t8.5 26.5zM133 433q4 3 8 3q11 0 19 -33q5 -20 5 -26 q0 -13 -15 -13q-11 0 -17 32q-5 22 -5 27q0 7 5 10zM188 395q10 15 22 15q9 0 9 -9q0 -11 -10 -24t-19 -13q-10 0 -10 10t8 21zM128 328q6 6 16 6q11 0 20 -7t9 -17q0 -27 -26 -27q-12 0 -19 8t-7 19t7 18zM123 176q3 8 20 8q19 0 24 -8q7 -9 1 -24q-6 -14 -18 -14 q-1 0 -3.5 0.5t-4.5 0.5q-19 1 -20 15q-2 15 1 22zM167 112q0 10 7 10q15 0 28 -25q9 -18 9 -28q0 -12 -11 -12q-7 0 -20 21.5t-13 33.5zM131 105q3 5 7 5q5 0 10 -6t6 -15v-7q0 -17 -5.5 -29t-13.5 -12h-1q-9 3 -9 17q0 2 0.5 6.5t0.5 7.5q2 30 5 33z"
     id="glyph79" /><glyph
     glyph-name="j"
     unicode="j"
     horiz-adv-x="256"
     d="M149 682q9 9 22 9q15 0 22 -10q4 -7 4 -15q0 -12 -8.5 -20.5t-19.5 -8.5q-10 0 -18 7q-11 11 -11 20q0 8 9 18zM150 556q7 10 22 10q11 0 18 -7t7 -122q0 -114 8 -114q9 0 29.5 -20t20.5 -29q0 -11 -29 -42q-28 -29 -28 -42q0 -2 2 -16q4 -27 13 -33q31 -19 31 -43 q0 -12 -6.5 -19t-40.5 -33q-10 -7 -12.5 -19t-4.5 -69q-2 -66 -9.5 -87.5t-35.5 -42.5q-25 -19 -57 -19q-22 0 -30 3.5t-24 19.5q-23 23 -23 39q0 14 7.5 21.5t17.5 7.5q18 0 30 -19q9 -13 24 -13q13 0 24.5 9.5t14.5 25.5q6 40 9 138q0 20 18 38q15 15 15 20q0 3 -6 9 q-10 11 -10 72q0 43 2 54t13 19q14 11 14 16q0 7 -18 11l-19 6l2 130q1 129 11 140zM87 371q6 15 17 15q6 0 9 -5l1 -1v-2q0 -8 -7 -31q-8 -29 -17 -29h-1q-9 2 -9 20q0 16 7 33zM21 369q3 6 8 6q15 0 22 -49q4 -26 -6 -26t-15 10q-11 20 -11 49q0 6 2 10zM61 262 q4 15 21 15q12 0 19 -7t7 -16q0 -6 -3 -12q-5 -11 -21 -11q-12 0 -19 8q-7 9 -4 23zM73 153q3 8 22 7q13 -1 16 -4t3 -14q0 -26 -20 -26q-6 0 -10 3q-13 7 -13 23q0 3 2 11zM39 68q2 7 15 7q8 0 9.5 -3.5t-0.5 -15.5q-9 -51 -27 -51q-12 0 -12 11q0 9 6 25q5 20 9 27zM78 46 q-2 18 -2 20q0 9 10 9t14 -8.5t8 -37.5q2 -18 2 -20q0 -9 -10 -9t-14 8.5t-8 37.5z"
     id="glyph80" /><glyph
     glyph-name="k"
     unicode="k"
     horiz-adv-x="452"
     d="M43 790q7 7 22 7q22 0 25.5 -24t3.5 -165q0 -125 2 -150.5t10 -30.5q11 -5 11 -17t-11 -12t-11 -8q0 -10 14 -15q13 -6 13 -11q0 -7 -13 -30q-14 -25 -14 -53q0 -16 6 -19h1q9 0 40 24q37 28 53 29q12 1 15.5 4.5t4.5 16.5q2 17 39 60t49 43q23 0 23 13q0 6 -3 17t-3 17 q0 11 12 29q11 15 23 39q10 17 27 17q30 0 30 -25q0 -17 -15 -44q-12 -21 -12 -33q0 -8 3 -21q3 -12 3 -23q0 -44 -54 -44q-17 0 -40 -27q-16 -18 -20 -27t-4 -27q0 -26 -9.5 -34.5t-41.5 -11.5l-33 -3l51 -24q83 -39 142 -129q31 -48 31 -71q0 -15 -13 -22q-11 -7 -20 -3 q-7 2 -43 58q-33 52 -59.5 75t-81.5 50q-49 23 -61 23q-11 0 -30 -17q-7 -6 -9 -21.5t-2 -65.5q0 -79 -7 -86t-22 -7t-22 7t-7 386t7 386zM242 622q8 14 16 14q7 0 7 -16q0 -13 -4 -26q-6 -27 -17 -27h-3q-7 1 -8.5 5t-0.5 17q2 22 10 33zM277 577q21 11 36 11q12 0 12 -8 t-18 -19.5t-31 -11.5h-2q-16 1 -16 10q0 8 19 18zM245 495q0 2 -0.5 5.5t-0.5 4.5q0 19 20 19h5q13 -2 16 -5.5t3 -16.5q0 -14 -3.5 -17t-17.5 -3q-13 0 -17 2.5t-5 10.5zM147 391q-1 4 -1 11q0 18 19 18h5q13 -2 16 -5.5t3 -16.5q0 -14 -3 -17t-17 -3q-13 0 -17 2.5 t-5 10.5z"
     id="glyph81" /><glyph
     glyph-name="l"
     unicode="l"
     horiz-adv-x="271"
     d="M100 796q7 7 23 7q15 0 20 -7q5 -10 5 -77q0 -68 7 -68h2q9 2 15 -6t14 -32.5t8 -33.5q0 -8 -9 -8q-12 0 -19 18q-6 17 -11 17q-4 0 -7 -11q-4 -11 -24 -24l-20 -12l17 -18q22 -21 22 -46q0 -13 -3 -36q-4 -28 -9 -37.5t-23 -26.5q-26 -24 -26 -30q0 -5 24 -14 q24 -7 27.5 -26.5t5.5 -131.5q2 -117 5 -130q2 -8 5.5 -10.5t14.5 -2.5q14 0 24 1h10q57 0 57 -26q0 -11 -10 -21q-6 -7 -18 -8.5t-52 -1.5q-61 0 -76 11l-15 11l-2 138l-3 137l-30 30q-19 19 -25 28t-6 21q0 29 44 63q18 14 22 39q1 6 1 14t-4 12.5t-19 14.5q-33 23 -33 46 q0 24 31 41q24 14 28 20q5 8 5 88q0 81 7 88zM211 615q8 20 18 20q8 0 8 -14q0 -18 -6.5 -31t-16.5 -13q-11 0 -11 10q0 7 8 28zM181 536q7 7 18 7q12 0 21 -9q4 -4 4 -12q0 -9 -7 -17.5t-16 -8.5q-12 0 -19.5 7.5t-7.5 16.5t7 16zM168 402q7 15 22 12q24 -3 24 -22t-24 -22 h-4q-21 0 -21 19q0 5 3 13zM159 299q9 30 18 30q12 0 12 -17q0 -8 -5 -33q-5 -22 -8.5 -28.5t-11.5 -7.5h-3q-11 0 -11 15q0 12 9 41zM205 309q3 8 9 8q11 0 17 -18q7 -18 7 -31t-8 -13h-2q-7 1 -15.5 18.5t-8.5 29.5q0 4 1 6z"
     id="glyph82" /><glyph
     glyph-name="m"
     unicode="m"
     horiz-adv-x="781"
     d="M64 573q9 10 19 10t17 -9.5t7 -24.5q0 -5 -2 -15q-4 -15 -4 -25q0 -6 4 -6q8 0 43 25q64 43 121 43t94 -42q21 -26 24 -30q3 -6 6 -6q6 0 23 16q70 64 149 64q9 0 25 -2q75 -11 115 -98q38 -83 38 -218q0 -43 -3 -96q-7 -103 -11 -122q-5 -25 -28 -25q-10 0 -17 7 q-9 9 -9 37q0 21 8 146q3 44 3 78q0 109 -45 188q-26 47 -81 47q-34 0 -69.5 -20.5t-62.5 -58.5q-17 -22 -17 -56q0 -24 -2.5 -30t-15.5 -13l-18 -9l21 -22q15 -16 18 -25t3 -41q0 -30 -2 -39.5t-12 -17.5l-14 -13l14 -15q11 -12 18.5 -44t7.5 -60q0 -26 -7 -33t-18 -7 q-13 0 -22 9q-7 9 -11 50q-4 40 -22 55q-43 34 -43 51q0 13 20 28q26 21 32.5 28.5t6.5 17.5q0 15 -17 27q-35 25 -35 58q0 13 21 31l21 19l-7 35q-19 92 -79 92q-10 0 -16 -1q-23 -4 -58 -23.5t-57 -40.5q-16 -15 -22 -27t-13 -39q-8 -37 -8 -73q0 -4 4 -118q4 -69 4 -114 q0 -39 -5.5 -49t-20.5 -10q-19 0 -24 13q-7 18 -12 179q-3 106 -3 175q0 159 26 189zM511 449q6 7 11 7q9 0 9 -17q0 -11 -4 -23q-9 -33 -23 -33q-3 0 -9 4q-9 7 -9 0t-6 -7q-15 0 -28 20q-11 18 -11 30q0 8 6 8q11 0 27 -20l17 -21l7 23q7 21 13 29zM458 339q5 13 21 13 q11 0 18 -7q6 -6 6 -18q0 -13 -8 -21q-5 -5 -14 -5q-10 0 -17.5 8t-7.5 19q0 3 2 11zM472 235q10 7 14 7t14 -7q9 -6 9 -18q0 -15 -12 -23q-5 -3 -10 -3q-10 0 -17 8.5t-7 18.5q0 11 9 17zM524 172q3 7 7 7q9 0 20 -18.5t12 -38.5q1 -15 -10 -15q-10 0 -21 28q-9 23 -9 34 q0 1 1 3zM467 141q14 27 29 27q8 0 8 -11q0 -12 -14 -34t-22 -24h-3q-9 0 -9 10t11 32z"
     id="glyph83" /><glyph
     glyph-name="n"
     unicode="n"
     horiz-adv-x="474"
     d="M48 565q7 7 21 7q15 0 22 -7t7 -32q0 -22 5 -27h1q9 0 30 14q63 41 139 41q37 0 61 -12q73 -37 88 -149q4 -29 8.5 -40.5t15.5 -23.5q18 -20 18 -35q0 -19 -27 -44t-27 -41q0 -13 19 -26q33 -24 33 -42q0 -16 -23 -39q-15 -16 -19 -24.5t-4 -27.5q0 -46 -28 -46 q-14 0 -19 11.5t-5 41.5q0 28 5.5 48.5t13.5 20.5q9 0 3 13q-4 7 -10 10q-18 9 -18 55v14q1 25 4 34t15 22l18 19l-12 13q-11 12 -18 64q-9 83 -42 111q-12 11 -59 11q-48 0 -79 -15q-32 -17 -58 -41l-27 -25l-4 -89q-3 -73 -3 -188q0 -74 -3.5 -93t-17.5 -19q-2 0 -5 0.5 t-4 0.5q-17 2 -22 21.5t-5 99.5q0 22 2 158q5 247 10 256zM228 433q4 6 10.5 4t10.5 -11q6 -11 13 -36.5t7 -34.5t-9 -9q-12 0 -20 19q-14 33 -14 59q0 5 2 9zM295 400q13 28 24 28q5 0 8 -8q0 -1 1 -4q0 -11 -9 -29.5t-16 -21.5q-3 -1 -7 -1q-8 0 -8 10q0 11 7 26zM288 328 q8 5 14 5q10 0 19 -13q4 -7 4 -14q0 -10 -7 -17t-17 -7q-9 0 -17 8q-6 6 -6 17q0 15 10 21zM282 201q10 6 16 6q3 0 15 -5q10 -6 10 -19q0 -12 -8 -22.5t-20 -10.5q-10 0 -17 9.5t-7 20.5q0 15 11 21zM257 112q12 15 19 15t7 -11q0 -15 -12.5 -39.5t-19.5 -24.5q-8 0 -8 12 q0 11 5.5 27.5t8.5 20.5zM297 112q2 7 10.5 8.5t12.5 -4.5q3 -3 7 -38q2 -20 2 -22q0 -10 -10 -10q-7 0 -11 6t-8 23q-4 15 -4 29q0 6 1 8z"
     id="glyph84" /><glyph
     glyph-name="o"
     unicode="o"
     horiz-adv-x="523"
     d="M366 473q0 32 -7 32q-3 0 -24 -12q-15 -9 -30.5 -11t-62.5 -3h-21q-55 0 -65 3l-17 5l4 -26q1 -7 1 -16q0 -14 -18 -36q-51 -62 -51 -136q0 -79 55 -133q53 -53 127 -53q99 0 155 86q33 51 33 110q0 37 -13 69l-8 21l-29 -14q-22 -11 -37 -11q-12 0 -12 10q0 5 18.5 16.5 t39.5 19.5q1 0 1 1q0 6 -17 25q-14 16 -18 25t-4 28zM352 571q12 6 25 6q23 0 33 -12q12 -13 13 -53q1 -28 5 -38.5t18 -25.5q17 -17 38 -61q13 -27 15.5 -42t2.5 -59q0 -61 -11 -93q-28 -73 -88 -118q-65 -49 -146 -49h-6q-33 0 -48.5 3t-42.5 16q-81 37 -125 126 q-13 28 -15.5 43t-2.5 60q1 56 11 88t38 69q20 27 20 33q0 5 -5 17q-8 19 -8 37q0 20 11 31.5t31 11.5t45 -13q20 -12 58 -12h24q57 1 78 15q18 13 32 20zM287 420q8 8 19 6q11 -1 11 -21q0 -29 -20 -29q-5 0 -8 1q-9 5 -9 22q0 14 7 21zM191 414q8 7 16 7q19 0 19 -25 q0 -16 -11 -23q-5 -3 -10 -3q-9 0 -16 8t-7 18t9 18zM115 355q3 9 22 9q15 0 27 -5t12 -13q0 -7 -5 -9t-23 -2q-35 0 -35 13q0 1 2 7zM346 329q3 5 8 5q10 0 40 -20q29 -20 29 -32q0 -6 -8 -6q-13 0 -36 15q-34 21 -34 34q0 3 1 4zM161 303q31 20 38 20q6 0 9 -6q1 -1 1 -3 q0 -12 -29 -32t-45 -20q-4 0 -6 2q-4 4 -4 7q0 8 36 32z"
     id="glyph85" /><glyph
     glyph-name="p"
     unicode="p"
     horiz-adv-x="548"
     d="M332 488q0 19 -6 19q-4 0 -16 -16q-10 -13 -18 -15.5t-42 -2.5q-51 2 -62 8q-8 5 -11 5q-6 0 -13 -13q-9 -16 -35 -27q-21 -9 -27.5 -13.5t-11 -19.5t-4.5 -46q0 -35 3 -110q5 -155 13 -160q27 -16 109 -16q42 0 69 6q50 11 93 43.5t62 75.5q16 35 16 74q0 82 -78 153 q-26 23 -33.5 33t-7.5 22zM302 576q15 20 31 20q30 0 51 -64q13 -37 41 -63q85 -76 85 -188v-16q-2 -51 -21 -88q-27 -55 -80.5 -95t-122.5 -57q-32 -7 -73 -7q-45 0 -96 8l-22 4l4 -109q2 -72 2 -77q0 -34 -8 -42q-10 -10 -21 -10t-19 7q-7 4 -9 31t-6 138q-16 500 -16 572 q0 24 1 26q5 16 26 16q9 0 16 -4q11 -6 14 -44q2 -36 7 -41q2 -2 4 -2q6 0 11.5 10.5t5.5 23.5q0 20 12 36t26 16q12 0 45 -26q32 -26 55 -26q22 0 32 16q15 23 25 35zM278 414q9 12 21 12q22 0 22 -26q0 -11 -6 -17.5t-15 -6.5q-15 0 -23 14q-8 12 1 24zM183 403q7 7 18 7 q12 0 21 -9q4 -4 4 -12q0 -9 -7 -17t-16 -8q-12 0 -19.5 7t-7.5 16t7 16zM368 375q16 11 33 11q12 0 12 -8t-17.5 -19.5t-28.5 -11.5h-2q-13 1 -13 9q0 9 16 19zM131 362q3 3 9 3q15 0 34.5 -13t19.5 -24q0 -10 -6 -10q-7 0 -35 14q-27 14 -27 21q0 4 5 9zM350 326q0 8 13 8 q12 0 39 -6q28 -6 28 -18q0 -10 -8 -10q-2 0 -20 2q-52 6 -52 24zM140 299q27 7 41 7q11 0 11 -7q0 -20 -66 -31q-14 -2 -15 -2q-10 0 -13 8q-2 6 -2 7q0 7 44 18z"
     id="glyph86" /><glyph
     glyph-name="q"
     unicode="q"
     horiz-adv-x="522"
     d="M215 485q-12 16 -17 16t-5 -20q0 -21 -15 -33q-40 -34 -56.5 -52t-28.5 -43q-18 -36 -18 -79q0 -67 45 -119t122 -72q27 -7 75 -7q80 0 107 16q8 5 13 159q3 72 3 107q0 33 -4.5 48t-11.5 20t-28 14q-25 11 -34 27q-9 14 -13 14q-3 0 -11 -5q-13 -7 -62 -9 q-34 0 -42.5 2.5t-18.5 15.5zM166 576q12 13 24 13q20 0 46 -36q16 -23 23 -28.5t22 -5.5q22 0 54 26q33 26 46 26q14 0 25.5 -16t11.5 -36q0 -13 6 -23.5t12 -10.5q2 0 4 2q4 4 6 42q3 37 14 43q7 4 16 4q23 0 26 -18v-2q0 -3 0.5 -7.5t0.5 -9.5q0 -62 -9 -366 q-8 -263 -11 -318.5t-10 -60.5q-11 -7 -19 -7q-10 0 -21 11q-9 9 -9 44q0 5 2 75l5 108l-24 -5q-5 -1 -65 -6q-10 -1 -29 -1q-90 0 -166.5 43.5t-111.5 115.5q-13 27 -15.5 42t-2.5 60t2.5 60t15.5 43q19 39 57 77q38 37 50 74q10 32 24 48zM212 414q7 7 15 7q10 0 18 -7.5 t8 -17.5q0 -7 -4 -12q-9 -14 -23 -14q-6 0 -13 5q-8 8 -8 20t7 19zM303 395q6 8 18 8q16 0 25 -12q3 -5 3 -10q0 -19 -25 -22h-2q-10 0 -17 7t-7 16q0 6 5 13zM135 370q0 11 16 11t33 -8q20 -9 20 -17t-18 -8q-12 0 -25 4q-26 7 -26 18zM385 357q21 6 32 6q13 0 13 -10 q0 -12 -30 -21q-18 -5 -28 -5q-6 0 -8 2q-3 3 -3 7q0 15 24 21zM144 318q25 15 37 15q10 0 10 -9q0 -8 -25.5 -24t-37.5 -16h-1q-11 1 -11 8q0 11 28 26zM363 303q3 8 6 8q5 0 26 -14q23 -14 23 -28q0 -7 -8 -7q-7 0 -19 6q-29 14 -29 30q0 3 1 5z"
     id="glyph87" /><glyph
     glyph-name="r"
     unicode="r"
     horiz-adv-x="367"
     d="M185 566q24 10 67 10q36 0 52 -8q21 -10 44 -32t23 -33q0 -12 -14 -21q-8 -5 -16 -5q-12 0 -41 23q-16 15 -22 11q-5 -3 -15 -34t-19 -31q-4 0 -8 4q-3 3 -3 10q0 9 4 25q6 24 6 30l-1 3q-2 2 -6 2q-9 0 -20 -5t-11 -9q0 -2 1.5 -7.5t3 -14t2.5 -14.5q2 -18 2 -19 q0 -6 -4 -6q-1 0 -3 0.5t-4 0.5q-14 1 -19 21q-6 22 -9 25q-1 1 -4 1q-11 0 -34 -26.5t-41 -59.5q-2 -3 -14 -24q-8 -13 1 -24q12 -14 16 -45t4 -107v-34q0 -58 -1 -85.5t-5 -45.5t-9.5 -21.5t-16.5 -3.5q-16 0 -22.5 11.5t-6.5 43.5q0 8 2 46q2 50 2 53q0 23 -10 34 q-11 14 -11 30q0 17 11 29q8 11 8 23q0 24 -21 45q-17 19 -17 34q0 17 19 41l19 22l-2 60v20q0 36 6.5 49t24.5 13q26 0 26 -32q0 -20 4 -20q2 0 29 19q22 15 53 28zM151 405q6 10 21 10q12 0 18 -6q8 -8 8 -20q0 -11 -7 -19.5t-17 -8.5q-9 0 -15 5q-13 9 -13 21q0 9 5 18z M166 285q8 9 15 9t17 -6q11 -6 11 -19q0 -10 -7.5 -18.5t-18.5 -8.5q-12 0 -18.5 7t-6.5 17q0 11 8 19zM216 235q7 8 12 8q7 0 7 -15q0 -12 -4 -27q-11 -38 -22 -38q-4 0 -7 3t-3 12q0 13 5 31.5t12 25.5zM249 232q0 12 14 9q12 -1 21 -35q5 -23 5 -29q0 -7 -4 -11 q-3 -3 -7 -3q-10 0 -19.5 27.5t-9.5 41.5z"
     id="glyph88" /><glyph
     glyph-name="s"
     unicode="s"
     horiz-adv-x="386"
     d="M131 609q22 8 51 8q51 0 92 -19q34 -15 53.5 -33t19.5 -34q0 -9 -7 -16t-16 -7q-15 0 -41 17q-48 32 -95 32q-9 0 -13 -1q-75 -14 -81 -73q0 -2 -0.5 -5.5t-0.5 -4.5q0 -33 34 -66q15 -14 23 -14t20 4q28 7 40 7q37 0 37 -36q0 -8 -1 -13q-1 -6 -1 -14q0 -16 12 -16 q11 0 28 7q15 7 29 7q36 0 36 -45q0 -9 -1 -14t-1 -14q0 -15 12 -32q17 -26 17 -58q0 -14 -1 -23q-2 -34 -26 -65.5t-64 -51.5q-27 -14 -87 -15q-39 0 -53.5 2t-32.5 12q-23 12 -54.5 42.5t-43.5 53.5q-9 18 -9 33q0 31 28 31h4q16 -1 33 -31q8 -13 29 -42q15 -17 45 -29 t56 -12h30l-1 23v7q0 20 8 20q6 0 14 -15q10 -18 19 -18q5 0 11 8q3 4 3 6.5t-3 5t-11 6.5q-17 8 -17 15q0 6 20 6q16 0 26 -2q1 0 3 -0.5t3 -0.5q9 0 11 26v10q0 18 -16 37q-17 18 -20 32q-4 13 -21 13q-13 0 -39.5 11t-33.5 19q-7 9 -10 23q-2 10 -7 13t-19 3 q-22 0 -48.5 17t-43.5 42q-28 40 -28 86q0 44 26.5 80.5t73.5 54.5zM77 286q3 7 7 7q10 0 22 -21q7 -11 7 -22q0 -14 -12 -14q-7 0 -16 16.5t-9 28.5q0 3 1 5zM134 230q0 2 -0.5 5t-0.5 5q0 20 23 20q12 0 20 -7.5t8 -17.5q0 -6 -5 -13q-7 -8 -20 -8q-23 0 -25 16zM43 218 q4 6 19 6t28.5 -5.5t13.5 -13.5q0 -9 -22 -9q-16 0 -28 5.5t-12 12.5q0 3 1 4zM209 218q7 7 17 7q20 0 22 -17q1 -5 1 -12q0 -18 -15 -21q-14 -3 -23 4q-9 9 -9 21q0 11 7 18z"
     id="glyph89" /><glyph
     glyph-name="t"
     unicode="t"
     horiz-adv-x="396"
     d="M93 703q6 7 17 7q15 0 22 -9q7 -7 7 -55v-15v-18q0 -45 4 -53q4 -6 25 -6q5 0 39 2q42 2 46 2q19 0 27 -6q14 -9 14 -22q0 -10 -9 -19t-66 -9q-59 0 -66 -3q-9 -3 -9 -46q0 -41 -9 -49q-8 -5 -8 -12q0 -9 11 -21q12 -15 12 -60q0 -39 -10 -58q-6 -11 -6 -18q0 -6 3 -12 q5 -11 13 -62q4 -31 9 -43t17 -24q23 -23 66 -23q38 0 64 20q20 17 20 59q0 10 -1 15q0 1 -0.5 4t-0.5 5q0 28 22 28q17 0 28 -20q12 -20 12 -35q0 -12 -6 -39q-6 -29 -31 -54q-42 -42 -107 -42q-61 0 -102 36q-24 21 -34.5 41t-16.5 55q-4 27 -8.5 34t-22.5 17 q-28 16 -28 36q0 22 35 42q19 11 23 32q1 4 1 11q0 13 -26 35q-29 26 -29 38q0 23 39 43q13 8 13 35q0 20 -2 24.5t-11 5.5q-60 2 -70 10q-9 7 -9 20q0 14 13 20q15 6 44 8l32 2l2 69q2 71 8 77zM207 462q0 13 8 13q14 0 24 -27q8 -20 8 -30q0 -8 -11 -8q-9 0 -19 17.5 t-10 34.5zM280 416q-13 0 -13 12q0 10 7.5 21t14.5 11q6 0 9 -8q1 -2 1 -7q0 -10 -6 -19.5t-13 -9.5zM185 391q6 6 15 6q11 0 20 -8t9 -18q0 -5 -1 -7q-5 -17 -27 -17q-7 0 -14 5q-9 9 -9 21q0 11 7 18zM185 264q7 7 18 7q15 0 23 -14q7 -15 -6 -27q-12 -13 -27 -6 q-15 8 -15 23q0 10 7 17zM271 210q5 6 10 6q8 0 15.5 -14t7.5 -26q0 -5 -1 -7q-3 -7 -7 -7q-8 0 -21 22q-12 18 -4 26zM219 193q13 21 22 19q8 -1 8 -13q0 -13 -9.5 -28t-20.5 -15t-11 9q0 10 11 28z"
     id="glyph90" /><glyph
     glyph-name="u"
     unicode="u"
     horiz-adv-x="533"
     d="M406 566q8 8 25 6q15 -1 19.5 -13.5t5.5 -49.5l1 -33l34 -24q22 -15 28.5 -22.5t6.5 -17.5q0 -26 -38 -43q-20 -7 -20 -25q0 -6 -1.5 -16t-1.5 -12q0 -11 25 -28q28 -19 32 -33q1 -2 1 -6q0 -12 -12 -24.5t-32 -19.5l-25 -10l-1 -71q-2 -65 -5 -81t-15 -16q-34 0 -34 44 q0 25 -3 25q-4 0 -27 -21q-56 -50 -124 -50q-37 0 -68 16q-67 33 -103.5 118t-36.5 205q0 36 5 86q7 62 14.5 84t23.5 22q12 0 19.5 -11.5t7.5 -28.5q0 -5 -2 -17q-4 -17 -8 -98q-1 -11 -1 -32q0 -113 35 -189q19 -41 50.5 -68t61.5 -28q30 0 69.5 25t44.5 48q4 14 19 21 q15 6 16 27q1 20 19 35q13 12 13 15q0 2 -8 10q-10 7 -10 29v8q2 80 21 101l13 14l-15 11q-17 11 -21 37q-5 30 -5 56q0 38 7 45zM363 517q6 7 14 7q11 0 11 -9q0 -5 -10 -24t-18 -28q-9 -10 -17 -10q-7 0 -7 8t9 26.5t18 29.5zM281 516q3 6 8 6q11 0 27 -29q10 -20 10 -27 q0 -5 -4 -8q-10 -6 -15 -3q-6 4 -16.5 26.5t-10.5 31.5v1zM329 400q9 6 15 6q7 0 18 -11q6 -6 6 -16t-7.5 -17.5t-17.5 -7.5q-9 0 -17 8q-7 7 -7 18q0 14 10 20zM324 301q8 8 18 8t16 -8t6 -18q0 -15 -12 -23q-4 -3 -10 -3q-10 0 -16.5 8.5t-6.5 19.5q0 10 5 16zM297 233 q7 8 14 -3q7 -9 5 -13l-3 -7l-6 -12t-7 -12.5t-8 -10.5t-8 -4q-9 0 -9 11q0 25 22 51zM330 218q0 16 9 16q10 0 18 -20q7 -17 7 -28q0 -10 -7 -10q-9 0 -18 14t-9 28z"
     id="glyph91" /><glyph
     glyph-name="v"
     unicode="v"
     horiz-adv-x="492"
     d="M14 565q7 14 23 14t25 -14t27 -64q76 -213 90 -213q3 0 17 7q2 1 5 1q8 0 8 -9q0 -11 -11 -19l-14 -11l24 -48l7 27q5 16 8 21.5t10 5.5q11 0 11 -13q0 -12 -9 -48q-6 -24 -6 -33q0 -10 11 -31q12 -27 19 -27q6 2 27 62q18 52 25.5 65t19.5 13q11 0 11 7q0 4 -6 18 q-3 6 -3 12q0 9 12 36q24 54 44 54q8 0 10 5t-5 9q-6 4 -6 16q0 9 19 68t29 78q8 17 26 17q10 0 17 -6.5t7 -18.5q0 -13 -17 -68l-18 -53l12 -19q12 -20 12 -37q0 -35 -46 -41q-25 -4 -30 -18q-2 -8 -2 -10q0 -9 14 -30q18 -28 18 -39q0 -28 -49 -36l-26 -4l-25 -72 q-22 -67 -35 -89.5t-29 -24.5t-25 5q-18 15 -79 153t-115 283q-34 90 -34 109q0 4 2 10zM254 512q3 3 6 3q7 0 12.5 -17.5t5.5 -43.5q0 -20 -9 -20q-7 0 -13 16q-6 20 -6 41q0 17 4 21zM331 484q17 18 28 18q10 0 10 -9t-18 -27.5t-27 -18.5q-10 0 -10 7q0 10 17 30z M312 417q9 6 16 6q8 0 17 -9q8 -8 8 -19q0 -9 -6.5 -16t-18.5 -7t-19.5 8.5t-7.5 18.5q0 12 11 18zM262 309q8 8 18 8q19 0 19 -26q0 -13 -2.5 -16.5t-14.5 -4.5q-16 -3 -24 8q-7 10 -7 14q0 6 11 17z"
     id="glyph92" /><glyph
     glyph-name="w"
     unicode="w"
     horiz-adv-x="692"
     d="M23 572q7 7 18 7q16 0 20 -10q5 -10 36 -140q30 -129 38 -134t8 -33q0 -24 12 -73.5t17 -49.5t11 32q8 33 14.5 42t23.5 9q20 0 20 3q0 1 -12 25l-11 22l13 40q11 30 17.5 38.5t28.5 15.5l17 6l-15 16q-15 15 -15 29q0 13 26 76t35 72q8 8 18 8q12 0 24 -12 q13 -15 58 -155q89 -273 100 -271q4 0 27.5 100.5t49 209t33.5 121.5q9 13 25 13q18 0 24 -14q2 -4 2 -10q0 -19 -33 -155q-25 -98 -61 -254q-19 -83 -31 -110t-29 -27q-10 0 -27 16t-17 26q0 7 -29 85q-36 91 -72 199q-41 120 -46 120q-6 0 -13 -16q-4 -8 -4 -13 q0 -6 14 -23q16 -19 16 -32q0 -8 -1 -13q-4 -22 -12.5 -30.5t-29.5 -12.5q-29 -5 -29 -28q0 -15 12 -39q15 -30 15 -49q0 -31 -46 -37q-19 -3 -24 -6.5t-7 -17.5q-4 -21 -18 -61q-20 -56 -59 -56q-13 0 -22 18.5t-22 72.5q-16 64 -27 64t-11 17q0 11 7 15q6 4 2 22 q-6 26 -14 26q-3 0 -7 -4q-7 -7 -14 -7q-8 0 -8 9q0 12 15 27l14 14l-26 118q-25 113 -25 139q0 14 6 20zM124 455q0 3 -1.5 14t-1.5 16q0 18 11 18h3q11 -2 12 -44q1 -10 1 -24q0 -16 -6 -16h-3q-11 1 -15 36zM187 464q21 23 30 23q8 0 8 -10q0 -11 -18.5 -31.5 t-28.5 -20.5h-2q-9 3 -9 9q0 9 20 30zM188 406q9 5 11.5 5t12.5 -5q11 -6 11 -23t-14 -20q-15 -3 -23 3q-8 7 -8 20q0 14 10 20zM156 325q7 7 21 5q7 -1 9.5 -2.5t4 -5.5t1.5 -13q0 -13 -2.5 -17t-10.5 -5h-4q-11 0 -18.5 6.5t-7.5 15.5t7 16z"
     id="glyph93" /><glyph
     glyph-name="x"
     unicode="x"
     horiz-adv-x="474"
     d="M242 589q10 23 19 23h2q8 -1 8 -16q0 -17 -9 -36t-20 -20h-2q-10 0 -10 11q0 13 12 38zM286 562q26 16 40 16q9 0 9 -6q0 -10 -25 -28q-22 -16 -36 -16q-12 0 -12 10q0 8 24 24zM27 563q5 5 20 5q10 0 19.5 -10t34.5 -45q28 -40 36.5 -47.5t24.5 -7.5q14 0 18 -2t4 -9 q0 -11 -9 -15q-9 -3 -5 -9q3 -4 11 1q3 3 11 3q3 0 7 -0.5t6 -0.5q7 0 10 9q3 12 20 12q12 0 19.5 -6.5t7.5 -16.5q0 -6 -3 -12q-6 -11 -24 -11q-17 0 -21 9q-4 7 -9 -3l-3 -6q-4 -9 -4 -16q0 -6 9 -21q18 -28 25 -28q5 0 13 11q8 13 19 13q3 0 19 -2t18 -2q8 0 8 4 q0 1 -1 3l-2 4t-3 5.5t-4 6.5q-4 8 -4 15q0 8 9 27q8 15 14.5 21t19.5 10q24 6 35 6q14 0 10 11q-8 18 -8 28q0 16 16 36q18 23 32 23q1 0 3.5 -0.5t4.5 -0.5q14 -2 18 -5.5t4 -18.5q0 -17 -7 -28q-5 -8 -5 -13q0 -6 12 -31t12 -32q0 -4 -5 -14q-6 -10 -14 -12.5t-38 -3.5 q-44 0 -44 -7q0 -12 10 -35q11 -30 11 -40q0 -11 -10 -20q-11 -9 -25 -9q-4 0 -22 2l-18 2t-14 2t-6 1q-4 2 -12 -10q-3 -3 -3 -8q0 -11 44 -79q15 -23 42.5 -65t32.5 -50q26 -41 26 -53q0 -23 -28 -23h-5q-13 2 -29 23t-82 124q-38 61 -47 61q-3 0 -66 -94q-60 -92 -69 -95 t-16 -3q-15 0 -21 14q-3 6 -3 10q0 10 55 94q21 33 34 53q47 72 47 82q0 9 -41.5 71.5t-51.5 67.5q-11 5 -11 14q0 8 -31 54q-33 47 -33 69q0 8 5 13zM277 515q6 6 15 6q10 0 18.5 -8t8.5 -19q0 -3 -2 -9q-5 -15 -24 -15q-8 0 -15 5q-8 8 -8 21q0 12 7 19z"
     id="glyph94" /><glyph
     glyph-name="y"
     unicode="y"
     horiz-adv-x="490"
     d="M41 551q5 11 19 11q19 0 24 -19.5t9 -106.5q5 -160 30 -236.5t77 -92.5q12 -4 24 -4q23 0 48 22q23 20 23 34q0 9 -11 31q-14 28 -14 45q0 16 7 16q11 0 22 -26t14 -26q4 0 15 26q9 20 32 41t45 31l17 6l-27 26q-27 24 -28 43v14q0 34 15 46q13 10 13 16q0 4 -15 13 q-35 18 -35 42q0 17 10 29t23 12t24.5 -8.5t11.5 -17.5q0 -7 16 -18q42 -26 42 -51q0 -16 -18 -34q-17 -15 -17 -29q0 -16 23 -41t23 -41t-20 -34l-19 -17l-3 -120q-2 -124 -17.5 -177.5t-64.5 -106.5q-64 -68 -150 -74q-7 -1 -21 -1q-31 0 -48 5q-25 7 -42.5 22t-17.5 30 q0 28 23 28q15 0 33 -11q19 -12 60 -12q38 1 64 13t56 43q28 29 40.5 57.5t20.5 76.5q8 50 8 119q0 46 -5 46q-2 0 -17 -37q-10 -30 -34.5 -58.5t-49.5 -41.5q-24 -12 -52 -12q-56 0 -101 40q-28 26 -43.5 59.5t-28.5 95.5q-6 28 -10.5 118t-4.5 153q0 40 2 43zM279 538 q3 7 12 5q8 -1 8 -17q0 -18 -9.5 -38.5t-20.5 -21.5h-3q-7 0 -7 7q0 8 20 65zM194 523q3 4 7 4q13 0 24 -23q10 -20 10 -30q0 -9 -9 -9h-3q-12 1 -22 28q-8 18 -8 27zM300 454q2 1 7 1q10 0 18 -8.5t8 -18.5q0 -9 -5 -14q-7 -8 -18 -8q-10 0 -18 7t-8 16q0 5 3 11 q5 10 13 14zM303 333q7 15 17 15q8 0 16 -7q8 -5 8 -16q0 -18 -16 -26q-8 -4 -15 -4q-16 0 -16 17q0 9 6 21zM213 179q0 18 9 42t22 24q10 0 10 -11q0 -10 -9 -36q-11 -33 -22 -33q-10 0 -10 14z"
     id="glyph95" /><glyph
     glyph-name="z"
     unicode="z"
     horiz-adv-x="443"
     d="M39 563q10 4 172 4h71q94 0 103 -9q11 -9 11 -23q0 -13 -40.5 -72.5t-60.5 -77.5q-20 -17 -20 -38t-32 -58q-31 -38 -41 -38q-8 0 -8 -13t-49 -84q-46 -63 -46 -74q0 -4 149 -4q142 0 152 -5q7 -4 7 -15q0 -16 -13 -26q-12 -9 -170 -9q-126 0 -160 5t-42 25q-2 8 -2 11 q0 18 53 91q54 72 54 85q0 5 -5 17q-7 17 -7 26q0 11 11 22q10 10 23 10q8 0 14 -1t14 -1q12 0 23 14q10 11 10 23q0 1 -0.5 3.5t-0.5 3.5q-7 31 -7 44q0 11 7 19q11 11 32 11q15 0 22.5 5.5t25.5 30.5q23 32 23 39q0 6 -136 6q-129 0 -143 6q-11 6 -11 21q0 20 17 26z M383 397q9 10 15 10q7 0 7 -10q0 -12 -9 -30q-13 -24 -24 -24q-6 0 -9 8l-1 1v3q0 16 21 42zM406 353q14 13 20 13q4 0 10 -8q7 -8 -9 -23q-17 -15 -26 -15q-10 0 -10 9q0 12 15 24zM312 341q3 7 17 7q15 0 21 -7q6 -10 4 -22q-1 -8 -5 -10.5t-17 -2.5t-17 2.5t-5 10.5 q-2 13 2 22zM241 244q6 6 16 6q17 0 26 -12q3 -5 3 -10q0 -19 -22 -22h-4q-11 0 -18.5 7t-7.5 16q0 8 7 15zM216 173q15 9 23 9q7 0 10 -7q0 -1 0.5 -1t0.5 -1q0 -8 -14 -19.5t-25 -11.5t-11 10q0 12 16 21zM258 141q6 18 18 18q6 0 8 -1.5t2 -6t-2 -16.5q-2 -16 -8.5 -27 t-13.5 -11q-3 0 -4 1q-6 3 -6 14t6 29z"
     id="glyph96" /><glyph
     glyph-name="braceleft"
     unicode="{"
     horiz-adv-x="412"
     d="M131 619q30 109 154 109h11q23 0 31 -13q9 -15 3 -26q-4 -10 -14.5 -13t-45.5 -7q-41 -5 -59.5 -23.5t-26.5 -62.5q-4 -28 -4 -37q0 -15 5 -43q12 -67 12 -89q0 -44 -39 -77l-26 -23l24 -25q33 -35 41 -62t12 -108q4 -80 12 -116.5t26 -49.5q11 -9 39 -16.5t51 -7.5 q33 0 33 -27q0 -17 -10 -23.5t-35 -6.5q-3 0 -10 0.5t-11 0.5q-66 4 -103 38q-27 24 -36 57.5t-13 122.5q-2 62 -5.5 82.5t-13.5 40.5q-15 27 -40 47q-33 25 -42 34.5t-9 20.5q0 22 46 47q27 15 37 26t10 31q0 18 -4 38q-7 39 -7 87q0 46 7 74z"
     id="glyph97" /><glyph
     glyph-name="bar"
     unicode="|"
     horiz-adv-x="133"
     d="M45 792q11 11 25 11q10 0 18 -8q9 -11 9 -653q0 -339 -5 -344q-4 -7 -20 -7q-18 0 -24 8q-6 7 -10 495q-2 330 -2 346q0 142 9 152z"
     id="glyph98" /><glyph
     glyph-name="braceright"
     unicode="}"
     horiz-adv-x="399"
     d="M46 717q6 12 26 12q19 0 58 -12q72 -21 101 -88q10 -21 12 -41t2 -88v-99l16 -16q16 -16 54 -45q41 -31 41 -49q0 -10 -14 -22q-18 -12 -26 -12q-9 0 -31 -18q-37 -33 -37 -134q0 -155 -55 -197q-17 -13 -57.5 -27.5t-58.5 -14.5q-29 0 -29 22q0 6 3 14q7 15 56 34 q36 14 45 20t17 24q12 27 16 114q5 84 13.5 117t35.5 63q23 26 23 30q0 3 -7 8q-21 16 -41.5 39t-24.5 36q-4 16 -4 28q0 5 4 47q4 28 4 61q0 83 -31 115q-15 17 -81 33q-34 8 -34 32q0 4 4 14z"
     id="glyph99" /><glyph
     glyph-name="asciitilde"
     unicode="~"
     horiz-adv-x="510"
     d="M129 460q8 2 27 2h14q34 -3 92 -31q68 -34 96 -34q26 0 49 32q20 27 36 27q7 0 14 -4q15 -8 15 -27q0 -12 -7 -22q-35 -55 -83 -65q-22 -4 -31 -4q-42 0 -121 46q-40 24 -67 24q-38 0 -66 -56q-15 -28 -28 -28q-32 0 -32 20q0 17 18 50q28 51 74 70z"
     id="glyph100" /><glyph
     glyph-name="uni00A0"
     unicode=" "
     id="glyph101" /><glyph
     glyph-name="exclamdown"
     unicode="¡"
     horiz-adv-x="153"
     d="M57 555q14 7 16 7q6 0 19.5 -15.5t13.5 -22.5q0 -9 -12 -20t-22 -11q-11 0 -23 11.5t-12 21.5q0 18 20 29zM45 369q9 14 24 14q13 0 22 -12q7 -11 10 -60.5t8 -240.5q3 -84 6 -161v-15q0 -49 -18 -55q-6 -2 -10 -2q-22 0 -31 19q-7 15 -10 197q-4 189 -7 243q-1 15 -1 35 q0 27 7 38z"
     id="glyph102" /><glyph
     glyph-name="cent"
     unicode="¢"
     horiz-adv-x="437"
     d="M228 725q9 10 19 10q12 0 20.5 -16.5t8.5 -42.5v-32l36 -6q74 -12 83 -33q2 -6 2 -10q0 -27 -15 -32l-2 -1h-3q-17 0 -44 8q-32 8 -57 8q-38 0 -75 -17q-49 -22 -74.5 -66t-25.5 -96q0 -58 30.5 -109.5t86.5 -79.5q27 -13 41 -16t55 -3q55 0 65 -5q7 -7 7 -21 q0 -17 -15 -25.5t-50 -12.5l-39 -4v-29q0 -50 -29 -50q-13 0 -21 16t-8 43v32l-32 17q-30 15 -61.5 42.5t-49.5 55.5q-42 66 -42 145q0 72 34 130q14 25 46.5 53.5t60.5 41.5l32 14l4 40q3 41 12 51z"
     id="glyph103" /><glyph
     glyph-name="sterling"
     unicode="£"
     horiz-adv-x="497"
     d="M253 737q21 8 51 8q31 0 52 -8q35 -12 67 -47.5t32 -60.5q0 -9 -4 -13q-8 -9 -16 -9q-15 0 -41 30q-42 50 -93 50q-27 0 -47 -16q-50 -39 -50 -208v-68h18q21 0 98 7q38 3 58 3q24 0 31.5 -5.5t7.5 -19.5q0 -16 -17.5 -23t-60.5 -10q-66 -5 -90 -7l-39 -4v-30 q-2 -115 -67 -192q-16 -19 -16 -27q0 -2 1 -3q4 -4 148 -8q142 -3 151 -10q7 -6 7 -17q0 -17 -14 -26q-12 -8 -78 -8q-51 0 -88 1q-148 2 -175 14q-37 15 -37 39q0 25 35 63q39 44 54 80.5t15 87.5v35l-27 8q-18 5 -22.5 10t-6.5 18v6q0 12 7 15.5t29 4.5l18 1l-2 49v19 q0 98 22 167q11 34 37 64.5t52 39.5z"
     id="glyph104" /><glyph
     glyph-name="currency"
     unicode="¤"
     horiz-adv-x="494"
     d="M362 431q-25 90 -111 90q-50 0 -82 -38t-32 -88q0 -59 43 -96q29 -25 63 -25q12 0 19 1q44 4 74 40.5t30 83.5q0 19 -4 32zM203 577q19 6 43 6q65 0 112 -34q4 -3 7 -3q5 0 25 17q24 21 38 21q8 0 14 -6q7 -7 7 -16q0 -17 -23 -42l-22 -24l11 -32q10 -27 10 -62 q0 -48 -19 -88l-16 -31l32 -29q32 -29 32 -44q0 -8 -7 -15t-16 -7q-15 0 -49 26l-32 27l-30 -13q-32 -15 -74 -15q-39 0 -67 14l-25 13l-31 -30q-30 -27 -43 -27h-4q-10 1 -13 5t-5 17v7q0 14 22 32q27 22 27 37q0 8 -6 17q-24 38 -24 98q0 42 13 75q6 15 6 20q0 6 -11 14 q-45 36 -45 52q0 8 7 15t17 7q17 0 43 -20q19 -16 31 -16h2q41 27 63 34z"
     id="glyph105" /><glyph
     glyph-name="yen"
     unicode="¥"
     horiz-adv-x="532"
     d="M439 750q8 12 21 12q16 0 27 -17q3 -5 3 -11q0 -13 -20 -60t-101 -231q-31 -71 -31 -76q0 -7 33 -7q27 0 37 -5t10 -20q0 -17 -14 -24.5t-49 -8.5l-43 -2v-86l37 -2q38 -2 51 -5.5t18 -13.5q6 -11 -3 -26q-6 -10 -13.5 -12t-34.5 -2h-12q-33 0 -39.5 -8t-6.5 -50v-13 q0 -52 -5 -65t-24 -13t-24 13t-5 65q0 65 -5 68t-53 9q-62 7 -62 27q0 4 3 12l6 16l51 -2q5 0 12.5 -0.5t10.5 -0.5q26 0 31.5 7t5.5 35q0 34 -8 42t-42 8q-78 0 -85 26q-1 4 -1 10q0 12 12.5 16.5t46.5 4.5q49 0 49 4l-94 179q-88 166 -88 185q0 4 1 6q6 17 28 17 q14 0 21 -9q6 -6 95 -173q88 -166 92 -167q5 -2 22 37q28 67 80.5 184t58.5 127z"
     id="glyph106" /><glyph
     glyph-name="brokenbar"
     unicode="¦"
     horiz-adv-x="138"
     d="M48 785q9 12 22 12q15 0 24 -14q7 -11 7 -56q0 -3 -2 -131q-3 -125 -5.5 -150.5t-11.5 -30.5q-9 -6 -17 -6q-19 0 -26 18q-3 7 -3 89q0 58 1 90q3 165 11 179zM49 176q9 6 18 6q11 0 20 -9q6 -5 7.5 -39t1.5 -154v-183l-14 -7q-15 -6 -29 1l-14 7v186q0 132 1.5 160 t8.5 32z"
     id="glyph107" /><glyph
     glyph-name="section"
     unicode="§"
     horiz-adv-x="432"
     d="M276 435q-8 5 -80 45q-47 25 -54 25q-6 0 -10 -6q-18 -20 -18 -54q0 -8 1 -12q8 -39 100 -91q49 -27 69 -27q17 0 31 17q14 15 14 34q0 34 -53 69zM200 786q36 11 60 11t55 -9t54.5 -30t23.5 -40q0 -29 -19 -29q-15 0 -33 19q-27 30 -75 30q-46 0 -88 -27 q-25 -15 -34.5 -29t-9.5 -34q0 -2 0.5 -5.5t0.5 -5.5q4 -37 27.5 -60t104.5 -67q126 -70 126 -143q0 -39 -37 -81l-22 -23l23 -26q24 -26 30.5 -40.5t6.5 -42.5v-7q0 -28 -8 -44t-32 -43q-47 -50 -108 -60q-2 0 -5.5 -0.5t-4.5 -0.5q-48 0 -121 43t-73 72q0 27 22 27 q17 0 45 -20q24 -19 66 -39.5t56 -20.5q15 0 37 10.5t35 23.5q31 30 31 58q0 7 -1 10q-4 19 -42.5 53t-96.5 69q-79 48 -106.5 81t-27.5 79v13q2 39 22 67l19 28l-12 25q-16 32 -16 65q0 47 33.5 85.5t93.5 57.5z"
     id="glyph108" /><glyph
     glyph-name="dieresis"
     unicode="¨"
     horiz-adv-x="319"
     d="M54 744q14 6 24 3q19 -5 19 -31q0 -8 -3 -14q-7 -15 -28 -15q-19 0 -25 13q-4 7 -4 16q0 20 17 28zM239 742q7 5 24 3q11 -2 14.5 -5t4.5 -16v-6q0 -30 -28 -30q-12 0 -19.5 9t-7.5 21q0 15 12 24z"
     id="glyph109" /><glyph
     glyph-name="copyright"
     unicode="©"
     horiz-adv-x="828"
     d="M478 696q-38 8 -69 8q-67 0 -136 -34q-55 -26 -97 -73t-63 -105q-15 -42 -15 -110q0 -42 7 -69q20 -80 74.5 -139t132.5 -87q50 -16 98 -16q83 0 155 39q47 24 88.5 74t58.5 102q12 37 12 103q0 72 -14 109q-30 76 -92 128.5t-140 69.5zM323 753q35 8 91 8q52 0 87 -8 q93 -21 169 -95q53 -52 79 -101.5t36 -119.5q4 -24 4 -52q0 -77 -41 -165q-22 -48 -70 -96q-112 -112 -260 -112h-20q-76 3 -136 30t-117 84q-45 45 -68 95q-23 48 -30.5 81.5t-7.5 88.5q0 163 124 277q27 25 76 51t84 34zM360 577q21 11 43 11q24 0 51 -14q26 -13 42.5 -33 t16.5 -37q0 -11 -7 -18t-16 -7q-15 0 -40 23q-23 23 -46 23q-41 0 -65 -53q-14 -30 -14 -91q0 -92 41 -134q24 -26 48 -26q35 0 64 59q13 27 19.5 33.5t19.5 8.5q2 0 4.5 0.5t3.5 0.5q11 0 17 -14q3 -6 3 -13q0 -29 -29 -72t-59 -55q-19 -8 -40 -8q-57 0 -96 45 q-59 67 -59 180q0 89 41 144q15 20 25.5 28.5t31.5 18.5z"
     id="glyph110" /><glyph
     glyph-name="ordfeminine"
     unicode="ª"
     horiz-adv-x="335"
     d="M230 556q-8 10 -36 13q-2 0 -5.5 0.5t-5.5 0.5q-34 0 -59 -18.5t-25 -44.5q0 -24 27 -24q15 0 47 8q46 13 50 16q11 6 11 31q0 13 -4 18zM129 753q28 7 49 7q20 0 45 -7q25 -8 45.5 -26.5t26.5 -40.5q3 -9 3 -42q0 -54 -5.5 -126t-10.5 -78q-6 -7 -18 -7t-22 6 q-3 2 -10 2q-10 0 -42 -9q-31 -10 -59 -10q-50 0 -81 41q-11 16 -11 45q0 26 9 44q9 17 31 36t42 28q19 9 79 9q24 0 31 -2h1q8 0 8 21q0 32 -12 44q-15 15 -48 15q-23 0 -55 -10q-24 -8 -34 -8q-21 0 -21 24q0 28 59 44z"
     id="glyph111" /><glyph
     glyph-name="guillemotleft"
     unicode="«"
     horiz-adv-x="468"
     d="M314 421q79 75 84 75q8 0 19 -11t11 -18q0 -11 -73 -86l-73 -75l16 -24q16 -23 24 -27q3 -2 48 -43q41 -38 41 -53q0 -8 -9 -17t-19 -9q-20 0 -74 53q-88 85 -88 123q0 10 7 24q6 11 86 88zM168 458q22 26 37 26h6q21 -2 21 -16q0 -32 -98 -130q-35 -33 -35 -40 q0 -23 81 -92q33 -28 42.5 -40t9.5 -23q0 -12 -7.5 -19t-18.5 -7q-8 0 -15 3q-14 6 -68 57t-67 71q-18 31 -18 46q0 16 12.5 35t44.5 52q37 38 73 77z"
     id="glyph112" /><glyph
     glyph-name="logicalnot"
     unicode="¬"
     horiz-adv-x="541"
     d="M231 426q81 3 130 3q71 0 98.5 -7t34.5 -26q4 -16 8 -105q2 -62 2 -66q0 -28 -9 -37q-10 -8 -20 -8q-18 0 -25 16q-8 14 -8 81q0 64 -4 80l-3 14l-190 -4q-114 -2 -129 -2q-54 0 -66 4.5t-12 20.5q0 21 29 26t164 10z"
     id="glyph113" /><glyph
     glyph-name="registered"
     unicode="®"
     horiz-adv-x="850"
     d="M525 699q-47 15 -120 15q-24 0 -31 -2q-124 -24 -200 -115.5t-76 -208.5q0 -75 36 -150q28 -58 86 -103.5t123 -62.5q32 -9 84 -9q110 0 197.5 68t116.5 175q8 28 8 82t-8 82q-21 79 -80.5 142t-135.5 87zM350 768q28 5 66 5q61 0 105 -11q126 -32 208 -138t82 -235 q0 -21 -1 -31q-12 -135 -102.5 -232t-223.5 -119q-26 -5 -63 -5q-156 0 -269 112t-113 273q0 140 91 250q40 48 100 83.5t120 47.5zM495 504q0 31 -23.5 52t-58.5 21q-27 0 -39 -24t-16 -88l-3 -51l32 3q48 4 78 29t30 58zM383 637q12 3 26 3q38 0 74.5 -20.5t55.5 -51.5 q16 -27 16 -63q0 -27 -38.5 -65.5t-38.5 -56.5q0 -6 28 -34q61 -65 68 -140q0 -3 0.5 -7.5t0.5 -6.5q0 -32 -22 -32h-7q-11 2 -19 15.5t-17 47.5q-25 88 -113 123l-35 14l1 -91v-27q0 -68 -3 -71q-5 -7 -21 -7q-18 0 -22 13q-7 16 -12 143q-3 63 -3 107q0 107 19 149 q9 19 27.5 36.5t34.5 21.5z"
     id="glyph114" /><glyph
     glyph-name="macron"
     unicode="¯"
     horiz-adv-x="590"
     d="M62 850q13 2 243 4h103q90 0 111.5 -2t27.5 -9q7 -8 7 -19q0 -22 -21 -28q-13 -3 -247 -5h-86q-65 0 -96 0.5t-47.5 5t-18.5 9t-2 16.5q0 21 26 28z"
     id="glyph115" /><glyph
     glyph-name="degree"
     unicode="°"
     horiz-adv-x="364"
     d="M220 677q-20 9 -39 9q-31 0 -53 -20.5t-26 -53.5q0 -3 -0.5 -7.5t-0.5 -6.5q0 -16 13 -38q26 -38 69 -38q36 0 62 29q17 19 17 51q0 56 -42 75zM150 745q6 2 26 2q42 0 63 -9q20 -7 40.5 -27.5t31.5 -42.5q15 -30 15 -68q0 -30 -11 -55q-10 -21 -33 -43.5t-44 -31.5 q-21 -8 -55 -8q-29 0 -48 6q-35 12 -62 44.5t-33 69.5q-2 14 -2 20q0 49 32 90t80 53z"
     id="glyph116" /><glyph
     glyph-name="plusminus"
     unicode="±"
     horiz-adv-x="370"
     d="M169 599q8 8 25 6l17 -2l3 -86q4 -88 8 -94q4 -7 44 -7q32 0 42 -6.5t10 -24.5q0 -16 -14 -21.5t-50 -5.5h-34v-90q0 -61 -1.5 -75.5t-9.5 -19.5q-12 -5 -16 -5q-8 0 -19 11q-8 8 -10 23t-2 68q0 80 -7 87t-32 7q-57 0 -57 31q0 8 4 15t12 9t33 2q40 0 44 10q3 7 3 85 q0 76 7 83zM208 81q70 5 83 5q18 0 28 -5q11 -6 11 -23q0 -18 -12 -24q-13 -7 -130 -12q-60 -4 -93 -4q-30 0 -40 7q-14 9 -14 25q0 11 7 18q5 5 56 7q32 1 104 6z"
     id="glyph117" /><glyph
     glyph-name="uni00B2"
     unicode="²"
     horiz-adv-x="337"
     d="M131 765q20 14 57 14q39 0 61 -16q49 -37 49 -108q0 -25 -6 -52q-9 -44 -28.5 -78t-64.5 -85q-41 -48 -41 -55q0 -4 59 -4q44 0 56.5 -5t12.5 -22q0 -20 -18 -25t-98 -9q-66 -2 -70 -2q-30 0 -44 9q-17 12 -17 23q0 17 64 81q73 72 105.5 121t32.5 90q0 7 -2 21 q-10 54 -47 57h-4q-45 0 -66 -43q-2 -6 -8.5 -19l-8.5 -17q-7 -15 -24 -15q-16 0 -22 15q-2 5 -2 15q0 26 21 57t53 52z"
     id="glyph118" /><glyph
     glyph-name="uni00B3"
     unicode="³"
     horiz-adv-x="338"
     d="M124 750q21 6 41 6q50 0 84 -34q15 -15 18.5 -23.5t3.5 -31.5q0 -55 -34 -86q-12 -10 -12 -15q0 -4 26 -23q47 -34 47 -91q0 -37 -21.5 -71t-60.5 -54q-25 -13 -61 -13t-66.5 12t-35.5 30q-2 8 -2 12q0 20 28 20q17 0 51 -8q15 -4 29 -4q28 0 55 27q22 22 22 47 q0 29 -20 43t-71 21q-32 5 -42.5 11.5t-10.5 23.5q0 11 7 17.5t36 19.5q37 18 58 39t21 39q0 17 -18 26q-13 8 -35 8q-39 0 -71 -27q-15 -12 -28 -12q-22 0 -22 29q0 18 23.5 35.5t60.5 26.5z"
     id="glyph119" /><glyph
     glyph-name="acute"
     unicode="´"
     horiz-adv-x="184"
     d="M103 807q3 7 17 7q13 0 20 -7t7 -19q0 -24 -28 -74q-38 -71 -60 -71q-5 0 -10 3q-12 6 -12 21q0 8 25 61t41 79z"
     id="glyph120" /><glyph
     glyph-name="mu"
     unicode="µ"
     horiz-adv-x="454"
     d="M39 563q6 16 24 16q7 0 11 -1q17 -5 20 -33t3 -164v-177l15 -30q22 -44 63 -71t81 -27q37 0 60 23q25 25 31 45q8 30 10 205v9q1 156 5.5 187.5t23.5 31.5q15 0 19 -12q7 -22 11 -240v-22v-1q2 -172 2 -184q0 -78 -7 -88q-7 -12 -22 -12q-17 0 -26 18q-5 12 -9 12t-14 -7 q-37 -25 -82 -25q-64 0 -128 49q-22 17 -29 17h-1q-3 -3 -3 -140q0 -136 -7 -143t-21 -7q-19 0 -23 10q-4 6 -7 213.5t-3 384.5q0 156 3 163z"
     id="glyph121" /><glyph
     glyph-name="mu"
     unicode="Μ"
     horiz-adv-x="454"
     d="M39 563q6 16 24 16q7 0 11 -1q17 -5 20 -33t3 -164v-177l15 -30q22 -44 63 -71t81 -27q37 0 60 23q25 25 31 45q8 30 10 205v9q1 156 5.5 187.5t23.5 31.5q15 0 19 -12q7 -22 11 -240v-22v-1q2 -172 2 -184q0 -78 -7 -88q-7 -12 -22 -12q-17 0 -26 18q-5 12 -9 12t-14 -7 q-37 -25 -82 -25q-64 0 -128 49q-22 17 -29 17h-1q-3 -3 -3 -140q0 -136 -7 -143t-21 -7q-19 0 -23 10q-4 6 -7 213.5t-3 384.5q0 156 3 163z"
     id="glyph122" /><glyph
     glyph-name="paragraph"
     unicode="¶"
     horiz-adv-x="548"
     d="M463 808q4 6 14 6q16 0 26 -13q6 -9 8 -88t2 -359v-435l-15 -9q-10 -7 -14 -7q-5 0 -15 7l-14 9l-1 412l-2 411l-32 2l-33 1l-3 -235q-5 -322 -5 -374q-2 -156 -4 -177q-2 -26 -5.5 -32t-15.5 -11q-8 -3 -12 -3q-7 0 -15 11q-9 12 -9 64q0 8 2 124l4 174l-52 6 q-143 19 -208 151q-14 30 -18.5 46t-5.5 51v16q0 153 131 222q54 29 133 29q14 0 62 -2q50 -2 59 -2q36 0 38 5z"
     id="glyph123" /><glyph
     glyph-name="periodcentered"
     unicode="·"
     horiz-adv-x="161"
     d="M58 424q11 8 17 8q4 0 21 -6q27 -9 27 -37q0 -26 -27 -38q-8 -3 -16 -3q-23 0 -38 23q-5 6 -5 17q0 21 21 36z"
     id="glyph124" /><glyph
     glyph-name="uni00B9"
     unicode="¹"
     horiz-adv-x="250"
     d="M53 672q11 14 62 60.5t63 46.5q21 0 25.5 -32t6.5 -199l3 -212l-15 -7q-15 -6 -27 2q-10 6 -12 28t-5 144q-4 164 -8 168h-1q-7 0 -34 -25q-31 -28 -47 -28q-9 0 -16 7q-6 6 -6 17q0 14 11 30z"
     id="glyph125" /><glyph
     glyph-name="ordmasculine"
     unicode="º"
     horiz-adv-x="373"
     d="M233 673q-19 14 -51 14q-18 0 -28 -6q-15 -9 -32 -29q-12 -15 -14.5 -25t-4.5 -38v-9q0 -68 45 -98q18 -12 41 -12q31 0 49 18q35 32 35 92q0 63 -40 93zM153 746q12 4 30 4q10 0 15 -1q39 -3 72 -28t52 -67q13 -31 13 -75q0 -47 -14 -78q-20 -44 -56 -68t-77 -24 q-40 0 -75 22.5t-56 65.5q-17 33 -17 84q0 47 14 76q32 68 99 89z"
     id="glyph126" /><glyph
     glyph-name="guillemotright"
     unicode="»"
     horiz-adv-x="451"
     d="M246 503q14 7 26 -1q17 -11 78.5 -94t61.5 -95q0 -15 -60 -93q-56 -74 -71 -90.5t-28 -16.5q-10 0 -18.5 10t-8.5 21q0 5 1 7q3 10 60 85l57 74l-11 16q-7 13 -57 78q-47 60 -47 78q0 13 17 21zM46 486q7 7 22 7q10 0 25.5 -15.5t59.5 -67.5q70 -84 70 -97 q0 -17 -69 -108q-44 -60 -59 -76t-26 -16q-16 0 -23 7t-7 16q0 20 57 96q54 73 54 83q0 2 -8 11.5t-23.5 28.5t-26.5 32q-53 64 -53 83q0 9 7 16z"
     id="glyph127" /><glyph
     glyph-name="onequarter"
     unicode="¼"
     horiz-adv-x="695"
     d="M160 746q12 5 18 5q9 0 20 -11q6 -6 8 -17.5t2 -53.5q0 -72 -1 -136q-3 -179 -9 -199q-7 -14 -24 -14t-22.5 13t-5.5 64q0 15 2 103q2 84 2 111q0 45 -2 49q0 1 -1 1q-5 0 -36 -22q-32 -25 -47 -25q-10 0 -16 8t-6 14q0 18 54 63q51 41 64 47zM552 739q15 13 18 13 q8 0 19 -11t11 -19q0 -7 -207 -342.5t-223 -353.5q-9 -11 -21 -11q-11 0 -19 8.5t-8 21.5t206 345t224 349zM602 287q1 16 1 45q0 56 -3 59h-1q-6 0 -46.5 -51t-70.5 -96q-20 -32 -20 -39q0 -9 14.5 -12t54.5 -4l67 -2zM613 474q11 13 21 13q8 0 11.5 -2t6.5 -13.5t4 -33 t1 -62.5q0 -13 -0.5 -52.5t-0.5 -66.5q-2 -153 -3.5 -184t-8.5 -40q-11 -11 -21 -11q-9 0 -19 9t-10 53v43l-64 2q-58 2 -82.5 7.5t-36.5 20.5q-11 12 -11 32q0 43 65 128q101 133 123 139q12 3 25 18z"
     id="glyph128" /><glyph
     glyph-name="onehalf"
     unicode="½"
     horiz-adv-x="735"
     d="M538 719q21 27 33 27q26 0 26 -23q0 -16 -13 -35q-255 -440 -346 -593q-33 -54 -44 -67t-21 -13q-30 0 -30 28q0 13 48 92q35 58 119.5 202t150.5 255t77 127zM94 707q47 32 70 32q27 0 37 -48q6 -30 11 -195q3 -97 3 -129q0 -39 -10 -48q-11 -9 -16 -9t-18 10 q-10 8 -12 28t-4 147q-3 164 -9 170q-2 2 -5 2q-10 0 -27 -13q-24 -17 -47 -17q-17 0 -22 11q-3 6 -3 11q0 8 10.5 17.5t41.5 30.5zM552 474q21 7 43 7q45 0 72 -32t28 -87q0 -105 -122 -228q-47 -47 -47 -55q0 -3 70 -5q67 -2 75 -8q7 -6 7 -21q0 -16 -8 -24q-6 -6 -61 -6 q-29 0 -48 1q-69 2 -87.5 4t-29.5 10q-18 14 -18 31t70 83q61 60 83.5 88t41.5 68q17 37 17 56q0 2 -0.5 6t-0.5 7q-4 54 -39 54q-2 0 -5 -0.5t-5 -0.5q-50 -5 -66 -52q-5 -15 -9 -20t-14 -6h-3q-12 0 -20 9.5t-8 24.5q0 8 1 12q4 19 33 48t50 36z"
     id="glyph129" /><glyph
     glyph-name="threequarters"
     unicode="¾"
     horiz-adv-x="742"
     d="M596 750q12 13 27 13q23 0 23 -23q0 -19 -146 -246q-22 -35 -253 -410q-29 -47 -46.5 -66.5t-30.5 -19.5q-8 0 -20 10q-10 10 -10 19q0 13 16 30q17 19 84 131q88 147 247 394q75 116 84 132q10 18 25 36zM119 749q22 7 60 7q33 0 47 -5q30 -11 49.5 -36t19.5 -55 q0 -45 -41 -89q-19 -20 -19 -25q0 -4 7 -7q18 -10 29.5 -33t11.5 -50q0 -35 -8 -49q-9 -17 -35 -39t-48 -32q-21 -10 -59 -10q-47 0 -67 15q-19 15 -19 31q0 9 7 15.5t19 6.5q1 0 4 -0.5t4 -0.5q51 -8 61 -8q13 0 37 12q45 23 45 59q0 7 -1 10q-7 29 -64 39q-53 11 -53 36 q0 14 8.5 20t59.5 28q40 19 51 38t11 33q0 19 -16 30t-42 11q-32 0 -70 -18q-34 -17 -46 -17q-7 0 -13 6q-8 8 -8 17q0 34 78 60zM646 297q0 98 -3 98q-2 0 -43 -59q-33 -52 -65 -93q-24 -29 -24 -37q0 -7 69 -7h66v98zM663 503q6 7 18 7q16 0 20 -10q3 -6 3 -121 q0 -82 -1 -128l-3 -239l-15 -5q-17 -6 -28 5q-7 7 -9 19t-2 52v59l-89 -1q-24 -1 -54 -1q-25 0 -33 2.5t-16 10.5q-15 15 -15 34q0 15 11.5 35t53.5 75q25 32 67 94q29 42 39 53.5t22 12.5q11 2 15.5 5.5t6.5 14.5q3 17 9 26z"
     id="glyph130" /><glyph
     glyph-name="questiondown"
     unicode="¿"
     horiz-adv-x="443"
     d="M222 555q9 13 33 13q21 0 27 -11q5 -12 5 -19q0 -15 -12 -30q-11 -15 -28 -15q-14 0 -24 11t-10 26q0 12 9 25zM223 379q9 10 18 10q14 0 23.5 -20t9.5 -50v-11q-2 -37 -18 -66t-63 -82q-85 -95 -89 -145v-9q0 -59 36 -85q41 -32 98 -32q29 0 54 11q19 9 28 22t30 66 q7 16 23 16q29 0 29 -28q0 -16 -9 -46q-10 -33 -37 -60t-61 -37q-25 -8 -58 -8q-79 0 -138 50.5t-59 122.5q0 45 21.5 86t77.5 102q51 56 63 76.5t12 52.5v10v11q0 32 9 43z"
     id="glyph131" /><glyph
     glyph-name="multiply"
     unicode="×"
     horiz-adv-x="482"
     d="M39 567q0 9 9.5 21t18.5 12q10 0 91 -85l81 -85l82 77q81 76 91 76q13 0 22 -8t9 -20q0 -17 -79 -92l-80 -76l77 -75q47 -46 61.5 -64t14.5 -29q0 -13 -8.5 -21t-22.5 -8q-9 0 -86 75q-75 75 -83 75q-7 0 -81 -78q-73 -78 -83 -78t-18.5 10t-8.5 22q0 1 0.5 3t0.5 3 q3 14 77 90l73 75l-17 19q-141 152 -141 161z"
     id="glyph132" /><glyph
     glyph-name="divide"
     unicode="÷"
     horiz-adv-x="568"
     d="M252 565q12 13 26 13q20 0 31 -22q4 -7 4 -16q0 -14 -10.5 -23t-27.5 -9q-10 0 -22.5 12.5t-12.5 22.5q0 8 12 22zM48 415q8 5 168 5h70l228 -2l9 -15q6 -11 6 -14q0 -5 -10 -15t-39 -11.5t-194 -3.5q-54 -1 -127 -1q-95 0 -107 8q-15 10 -15 28q0 15 11 21zM264 256 q13 9 24 9t22 -12t11 -25t-11 -25.5t-22 -12.5q-16 0 -26.5 12.5t-10.5 27.5q0 17 13 26z"
     id="glyph133" /><glyph
     glyph-name="dotaccent"
     unicode="˙"
     horiz-adv-x="150"
     d="M46 732q9 13 30 13q20 0 28.5 -8.5t8.5 -28.5q0 -17 -11 -27t-26 -10q-17 0 -28 14t-11 25q0 10 9 22z"
     id="glyph134" /><glyph
     glyph-name="ring"
     unicode="˚"
     horiz-adv-x="285"
     d="M168 780q-12 11 -27 11t-26.5 -12.5t-13.5 -32.5v-8q0 -23 12.5 -37.5t29.5 -14.5q18 0 31 17q11 14 11 34q0 29 -17 43zM104 845q17 8 37 8q21 0 42 -10q30 -14 47 -43t17 -62q0 -44 -29 -78q-32 -36 -75 -36q-21 0 -45 11q-61 31 -61 102q0 30 15 60q16 32 52 48z"
     id="glyph135" /><glyph
     glyph-name="ogonek"
     unicode="˛"
     horiz-adv-x="224"
     d="M75 16q15 18 28 18q1 0 3.5 -0.5t4.5 -0.5q24 -1 24 -20q0 -15 -18 -37q-19 -23 -19 -51q0 -25 6.5 -35t22.5 -10q9 0 14 1q14 2 17 2q12 0 20 -8t8 -18q0 -15 -18 -27t-44 -12q-40 0 -63.5 28.5t-23.5 70.5q0 55 38 99z"
     id="glyph136" /><glyph
     glyph-name="tilde"
     unicode="˜"
     horiz-adv-x="416"
     d="M338 761q9 6 16 6t17 -7q8 -5 8 -17q0 -8 -1 -13q-7 -48 -21 -69q-26 -41 -66 -41q-46 0 -111 50q-30 23 -45 23q-14 0 -26 -12t-16 -29q-6 -28 -26 -28q-1 0 -3 0.5t-3 0.5q-24 3 -24 34q0 9 3 18q6 22 28 44.5t43 28.5q12 3 23 3q31 0 86 -36q51 -34 65 -34q5 0 12 5 q8 7 19.5 28.5t11.5 30.5t10 14z"
     id="glyph137" /><glyph
     glyph-name="hungarumlaut"
     unicode="˝"
     horiz-adv-x="338"
     d="M58 694q52 103 82 103q9 0 16 -7q6 -6 6 -16q0 -20 -30 -69q-36 -63 -38 -67q-11 -20 -27 -20q-14 0 -23 14q-6 9 -6 15q0 10 20 47zM247 777q8 14 26 14q17 0 23 -14q2 -4 2 -11q0 -13 -13 -42q-16 -39 -27 -74q-15 -47 -37 -47q-5 0 -11 3q-13 7 -13 30q0 2 0.5 7.5 t0.5 8.5q1 13 20 61.5t29 63.5z"
     id="glyph138" /><glyph
     glyph-name="endash"
     unicode="–"
     horiz-adv-x="496"
     d="M279 334q106 4 115 4q45 0 56 -9q8 -6 8 -22t-8 -24q-6 -5 -120 -10t-205 -5q-76 0 -80 4q-8 8 -8 21q0 12 8 20q7 7 46 10.5t188 10.5z"
     id="glyph139" /><glyph
     glyph-name="emdash"
     unicode="—"
     horiz-adv-x="1004"
     d="M300 329q407 5 493 5q152 0 163 -9q10 -9 10 -23q0 -12 -9 -20q-7 -6 -114.5 -7.5t-533.5 -3.5h-87q-170 0 -177 6q-8 8 -8 24t7 20q6 4 256 8z"
     id="glyph140" /><glyph
     glyph-name="quoteleft"
     unicode="‘"
     horiz-adv-x="224"
     d="M118 763q8 5 17 5q15 0 22 -13q2 -6 2 -11q0 -16 -20 -72q-5 -14 -12 -34.5t-10.5 -31.5t-4.5 -13q-1 -7 2 -8.5t17 -1.5q24 0 39 -12t15 -28q0 -18 -17 -32q-25 -20 -59 -20q-29 0 -49.5 14t-20.5 39q0 28 33 119.5t46 99.5z"
     id="glyph141" /><glyph
     glyph-name="quoteright"
     unicode="’"
     horiz-adv-x="236"
     d="M79 756q14 4 41 4h11q24 -2 32.5 -4.5t17.5 -12.5q17 -20 17 -48q0 -25 -12 -79q-13 -66 -25 -91q-7 -13 -12 -16.5t-17 -3.5q-15 0 -21 4t-6 17q0 17 14 73q18 72 18 78q0 3 -26 3h-11h-5q-56 0 -56 33q0 11 12 23.5t28 19.5z"
     id="glyph142" /><glyph
     glyph-name="quotesinglbase"
     unicode="‚"
     horiz-adv-x="176"
     d="M84 135q11 8 17 8t16 -10q22 -22 22 -68q0 -11 -1 -16q-6 -39 -22.5 -83t-31.5 -60q-9 -10 -22 -10q-12 0 -19 8q-5 7 -5 15q0 15 22 77q16 47 16 68q0 13 -1 22q-2 24 -2 27q0 14 11 22z"
     id="glyph143" /><glyph
     glyph-name="quotedblleft"
     unicode="“"
     horiz-adv-x="405"
     d="M104 746q14 21 27 21h6q21 -1 21 -20q0 -21 -25 -72q-26 -53 -26 -69q0 -9 9 -9q4 0 7 1q1 0 3.5 0.5t3.5 0.5q19 0 33.5 -13t14.5 -30q0 -6 -1 -9q-4 -15 -26.5 -26t-47.5 -11q-20 0 -33 7q-32 15 -32 54q0 12 1 18q2 23 24 75.5t41 81.5zM269 747q10 14 23 14 q10 0 20 -11q8 -8 8 -14q0 -4 -5 -16q-35 -90 -35 -104q0 -4 28 -4q26 0 42.5 -11t16.5 -29q0 -20 -25.5 -36.5t-56.5 -16.5q-23 0 -42.5 18.5t-20.5 40.5v7q0 42 13.5 90t33.5 72z"
     id="glyph144" /><glyph
     glyph-name="quotedblright"
     unicode="”"
     horiz-adv-x="398"
     d="M43 696q-4 10 -4 15q0 19 21 32t48 13q18 0 27 -3.5t21 -15.5q12 -13 15.5 -21.5t3.5 -27.5q0 -24 -16.5 -75.5t-30.5 -71.5q-10 -14 -25 -14q-16 0 -25 16q-4 7 -4 14q0 9 14 43q18 42 20 57q1 10 -2 12.5t-14 4.5q-24 2 -33.5 6t-15.5 16zM274 752q10 2 15 2 q42 0 63 -30q8 -12 8 -40q0 -48 -22 -101q-19 -44 -28.5 -56.5t-23.5 -12.5q-29 0 -29 21q0 17 20 62t20 53q0 6 -22 10q-25 4 -39 16.5t-14 30.5q0 13 3.5 18.5t15.5 11.5q19 12 33 15z"
     id="glyph145" /><glyph
     glyph-name="quotedblbase"
     unicode="„"
     horiz-adv-x="302"
     d="M64 125q10 7 15 7t17 -6q24 -13 24 -53q0 -6 -2 -20q-19 -100 -55 -100q-24 0 -24 24q0 18 10 51q9 28 9 48q0 11 -1 16q-2 14 -2 16q0 11 9 17zM210 118q8 9 22 9q12 0 18 -7q15 -18 15 -83q0 -25 -2 -37q-5 -40 -16 -56t-31 -16q-28 0 -28 20q0 7 7 28q9 26 9 55 q0 3 -0.5 11.5t-0.5 13.5v17q0 37 7 45z"
     id="glyph146" /><glyph
     glyph-name="bullet"
     unicode="•"
     horiz-adv-x="251"
     d="M88 481q22 11 37 11q14 0 36 -11q40 -20 49 -58q3 -11 3 -21q0 -38 -28 -68.5t-65 -30.5q-18 0 -39 14t-32 33t-11 38q0 10 1 16q6 53 49 77z"
     id="glyph147" /><glyph
     glyph-name="ellipsis"
     unicode="…"
     horiz-adv-x="935"
     d="M853 658q6 6 17 6q17 0 25 -11q3 -5 3 -10q0 -8 -6 -15t-16 -8h-4q-11 0 -18.5 7t-7.5 16q0 8 7 15zM57 86q10 3 14 3q6 0 16 -10q11 -11 11 -23q0 -10 -10 -21.5t-19 -11.5h-3q-10 4 -14 4q-6 0 -11 12q-3 6 -3 13q0 12 5.5 22.5t13.5 11.5zM308 73q11 11 23 11 q14 0 22 -9t8 -22q0 -20 -17 -27q-6 -3 -12 -3q-13 0 -22 9.5t-9 21.5q0 11 7 19zM577 66q7 7 19 7q26 0 26 -30q0 -12 -7.5 -19.5t-18.5 -7.5q-4 0 -14 4q-12 6 -12 26q0 13 7 20z"
     id="glyph148" /><glyph
     glyph-name="perthousand"
     unicode="‰"
     horiz-adv-x="1135"
     d="M553 736q9 10 23 10q19 0 25 -14q2 -4 2 -8q0 -18 -81 -162q-96 -170 -168 -299q-93 -167 -117.5 -206t-35.5 -41h-5q-28 0 -28 26q0 13 77 150q22 38 188 335q105 191 120 209zM194 671q-19 11 -24 11q-4 0 -16 -5q-26 -10 -43 -51.5t-17 -91.5q0 -21 5 -48 q10 -50 31 -79t45 -29q17 0 31 14q42 42 42 135q0 48 -14.5 88.5t-39.5 55.5zM124 730q20 10 48 10q27 0 42 -9q19 -10 42 -38t33 -53q22 -59 22 -119q0 -77 -33 -133.5t-88 -69.5q-8 -2 -14 -2q-34 0 -69.5 30.5t-53.5 74.5q-9 23 -11.5 42t-2.5 70q0 52 2 71t11 39 q11 28 31.5 52.5t40.5 34.5zM635 402q-16 14 -27 14q-12 0 -24 -14q-39 -44 -39 -139q0 -55 14.5 -102.5t41.5 -66.5q12 -9 18 -9q3 0 13 5q22 12 36 56t14 96q0 27 -2 40q-5 37 -18.5 73.5t-26.5 46.5zM565 465q19 11 42 11q52 0 91 -60.5t44 -154.5q1 -9 1 -27 q0 -93 -35 -150t-93 -57q-39 0 -71 38.5t-48 105.5q-10 41 -10 75q0 20 1 33q4 63 12 91q9 30 28 57.5t38 37.5zM976 400q-15 12 -30 12q-22 0 -39.5 -27t-25.5 -76q-3 -18 -3 -38q0 -53 18 -103t44 -66q17 -11 26 -11q10 0 28 18q38 38 38 125q0 54 -15.5 100t-40.5 66z M924 470q7 2 21 2q53 0 87 -42q62 -74 62 -199q0 -95 -41 -148q-40 -51 -87 -51q-64 0 -105 66.5t-41 168.5v19q3 78 30 125.5t74 58.5z"
     id="glyph149" /><glyph
     glyph-name="guilsinglleft"
     unicode="‹"
     horiz-adv-x="284"
     d="M165 369q0 -1 -26 -33t-26 -33q0 -4 52 -63q32 -37 41 -51t9 -26q0 -15 -4 -20t-19 -6h-7q-11 0 -20 8.5t-46 50.5q-80 91 -80 109q0 1 0.5 2.5t0.5 2.5q4 15 53 69t49 60t29 35q30 31 49 31q10 0 18 -8q7 -7 7 -15q0 -19 -40 -63q-40 -45 -40 -50z"
     id="glyph150" /><glyph
     glyph-name="guilsinglright"
     unicode="›"
     horiz-adv-x="266"
     d="M55 508q14 7 25 1q12 -7 79 -90q43 -54 55.5 -72.5t12.5 -33.5q0 -10 -7 -29q-5 -15 -57.5 -80t-65.5 -73q-8 -5 -25 0q-17 6 -17 18q0 20 53 86q51 62 51 74q0 9 -61 85q-60 74 -60 94q0 12 17 20z"
     id="glyph151" /><glyph
     glyph-name="fraction"
     unicode="⁄"
     horiz-adv-x="529"
     d="M441 739q9 6 19 6q12 0 20 -6.5t8 -17.5q0 -13 -40 -84t-40 -74q0 -2 -11 -17q-8 -13 -127.5 -220t-154.5 -270q-24 -44 -47 -44q-3 0 -11 2q-16 5 -16 25q0 13 7 27q6 14 104 182q25 44 93 161t93 161q95 163 103 169z"
     id="glyph152" /><glyph
     glyph-name="Euro"
     unicode="€"
     horiz-adv-x="606"
     d="M307 735q24 9 58 9q43 0 74 -14q24 -10 51.5 -35t27.5 -36q0 -10 -11 -22t-20 -12q-7 0 -35 22q-41 35 -90 35q-29 0 -57 -14q-33 -16 -69.5 -70.5t-43.5 -96.5l-3 -20h87q87 0 99 -6q12 -7 12 -25q0 -14 -8 -20q-9 -5 -106 -7l-97 -2l-2 -31v-14q0 -22 2 -32l4 -14l85 3 q50 2 56 2q31 0 41 -7q13 -10 13 -25q0 -10 -7 -16q-9 -6 -93 -10l-86 -5l3 -19q5 -25 24 -61.5t39 -58.5q22 -24 51 -39t54 -15q74 0 141 99q19 27 35 27q10 0 19 -9q8 -8 8 -17q0 -14 -26 -53q-74 -110 -174 -110q-89 0 -160 90q-38 48 -62 119l-13 40l-30 2q-51 3 -51 30 q0 21 41 28l25 4v86l-28 4q-44 7 -44 30q0 15 10 20.5t34 5.5q25 0 32.5 6t12.5 28q16 74 67 139.5t110 86.5z"
     id="glyph153" /><glyph
     glyph-name="trademark"
     unicode="™"
     horiz-adv-x="755"
     d="M354 743q14 14 26 14q9 0 19 -7q11 -9 69 -123t63 -114q6 0 56 111q48 107 61 122q9 10 22 10q14 0 23 -10q7 -8 10.5 -38.5t8.5 -134.5q6 -99 6 -156q0 -17 -1 -19q-5 -20 -29 -20q-17 0 -23 15q-4 9 -9 104q-5 100 -12 100q-1 0 -2 -1t-38 -80q-8 -17 -19 -40.5 t-17.5 -38t-8.5 -18.5q-12 -24 -32 -24q-21 0 -27 26q-4 18 -49 106l-46 89l-1 -104q-1 -70 -3.5 -88.5t-10.5 -25.5q-11 -11 -27 -5q-12 4 -14.5 13t-4.5 58q-1 26 -4 166v42q0 41 2 51.5t12 19.5zM53 740q13 6 118 6q125 0 132 -7t7 -23q0 -15 -7 -20q-9 -4 -53 -8l-46 -3 v-138q0 -137 -5 -145t-21 -8q-22 0 -29 12q-5 12 -5 114q0 99 -4 133l-4 30h-33q-36 0 -49.5 6.5t-13.5 25.5q0 20 13 25z"
     id="glyph154" /><glyph
     glyph-name="minus"
     unicode="−"
     horiz-adv-x="512"
     d="M191 412q48 1 127 1q140 0 149 -8q7 -6 7 -20q0 -18 -10 -25q-13 -11 -272 -11q-140 0 -147 6q-8 6 -8 21q0 17 10 25t144 11z"
     id="glyph155" /></font>
</defs>
</svg>
