<svg xmlns="http://www.w3.org/2000/svg">
<defs>
<font
       id="Shojumaru-Regular"
       horiz-adv-x="82">
      <font-face
         font-family="Shojumaru"
         font-weight="400"
         font-stretch="normal"
         units-per-em="100"
         panose-1="3 2 5 5 0 0 0 2 0 4"
         ascent="80"
         descent="-20"
         x-height="57"
         cap-height="73"
         bbox="-7 -34 148.684 99"
         underline-thickness="4.98047"
         underline-position="-10.0098"
         unicode-range="U+0020-FB02"
         id="font-face1" />
      <missing-glyph
         id="missing-glyph1" />
      <glyph
         glyph-name="comma"
         unicode=","
         horiz-adv-x="29"
         d="M28 10q-3 -2 -5.5 -4t-5 -5l-5 -6t-3.5 -7q-2 2 -5 3t-7 2q4 5 6.5 11t4.5 12l4 -2t5 -2t5.5 -1.5t5.5 -0.5z"
         id="glyph1" />
      <glyph
         glyph-name="hyphen"
         unicode="-"
         horiz-adv-x="47"
         d="M43 26h-5.5t-6.5 0.5t-6.5 0.5h-7t-6.5 -0.5t-6 -1.5q0 2 0.5 4t0.5 4.5t-0.5 5t-0.5 4.5q9 -3 18.5 -3t19.5 3q-1 -2 -1 -4v-4.5t0.5 -4.5t0.5 -4z"
         id="glyph2" />
      <glyph
         glyph-name="period"
         unicode="."
         horiz-adv-x="31"
         d="M29 8q0 -4 -3.5 -6t-9.5 -2q-3 0 -5.5 0.5t-4 1.5t-2.5 2t-1 3t1 3.5t2.5 2.5t4 1.5t5.5 0.5t5.5 -0.5t4 -1.5t2.5 -2t1 -3z"
         id="glyph3" />
      <glyph
         glyph-name="slash"
         unicode="/"
         horiz-adv-x="64"
         d="M62 69q-6 -12 -13 -23.5t-14.5 -21t-16 -17.5t-16.5 -14q8 11 14 21.5t10 20.5t7 20t5 20q2 -2 5 -3l6 -2t6.5 -1h6.5z"
         id="glyph4" />
      <glyph
         glyph-name="quotedbl"
         unicode="&quot;"
         horiz-adv-x="45"
         d="M23 70q-1 -4 -2 -7t-1 -6t-0.5 -6t-0.5 -7h-1h-2h-1.5h-1.5h-1.5h-1.5h-2h-1q0 4 -0.5 7l-1 6t-1.5 5.5t-2 5.5h1.5h1.5q2 0 4 0.5t5 0.5t5 0.5t4 0.5zM43 69q-1 -3 -1.5 -6.5t-1 -6.5t-0.5 -6v-6h-1h-2h-2h-1h-1.5h-1.5t-2 -0.5t-2 -0.5q0 4 -0.5 7l-1 6t-1 5.5 t-1.5 5.5h1.5h0.5h4.5t5 0.5l5 1t3.5 0.5z"
         id="glyph5" />
      <glyph
         glyph-name="quotesingle"
         unicode="'"
         horiz-adv-x="25"
         d="M23 70q-1 -4 -2 -7t-1 -6t-0.5 -6t-0.5 -7h-1h-2h-1.5h-1.5h-1.5h-1.5h-2h-1q0 4 -0.5 7l-1 6t-1.5 5.5t-2 5.5h1.5h1.5q2 0 4 0.5t5 0.5t5 0.5t4 0.5z"
         id="glyph6" />
      <glyph
         glyph-name="colon"
         unicode=":"
         horiz-adv-x="36"
         d="M31 8q0 -4 -3.5 -6t-8.5 -2q-3 0 -5.5 0.5t-4.5 1.5t-3 2t-1 3t1 3.5t3 2.5t4.5 1.5t5.5 0.5t5 -0.5t3.5 -1.5t2.5 -2t1 -3zM31 38q0 -2 -1 -3t-2.5 -2t-4 -1.5t-4.5 -0.5q-3 0 -5.5 0.5t-4.5 1t-3 2t-1 3.5t1 3t3 2.5t4.5 2t5.5 0.5t5 -0.5t3.5 -1.5t2.5 -2.5t1 -3.5z "
         id="glyph7" />
      <glyph
         glyph-name="semicolon"
         unicode=";"
         horiz-adv-x="35"
         d="M32 38q0 -2 -1 -3t-2.5 -2t-4 -1.5t-5.5 -0.5t-5.5 0.5t-4 1t-2.5 2t-1 3.5t1 3t3 2.5t4.5 2t4.5 0.5q3 0 5.5 -0.5t4 -1.5t2.5 -2.5t1 -3.5zM30 10l-6 -4t-5.5 -5t-4.5 -6t-4 -7q-2 2 -4.5 3t-6.5 2q4 5 6.5 11t3.5 12q2 -1 4.5 -2l5 -2t5.5 -1.5t6 -0.5z"
         id="glyph8" />
      <glyph
         glyph-name="equal"
         unicode="="
         horiz-adv-x="48"
         d="M43 37h-5.5t-6.5 0.5t-6.5 0.5t-7 -0.5t-6.5 -1t-6 -1.5q0 2 0.5 4.5t0.5 5v5t-1 4.5q9 -3 18.5 -3t19.5 3q-1 -2 -1 -4v-4.5t0.5 -4.5t0.5 -4zM43 14q-2 0 -5.5 0.5t-6.5 0.5h-6.5h-7t-6.5 -0.5t-6 -1.5q0 2 0.5 4t0.5 4.5v5t-1 4.5q9 -3 18.5 -3t19.5 4q-1 -2 -1 -4.5 v-4.5t0.5 -4.5t0.5 -4.5z"
         id="glyph9" />
      <glyph
         glyph-name="bracketleft"
         unicode="["
         horiz-adv-x="45"
         d="M44 5q-1 -2 -1 -4t-0.5 -4.5t-0.5 -5v-3.5q-4 1 -8.5 2t-10 1h-10.5t-10 -1q1 6 2 13t1.5 15l1 16t0 16t-0.5 15.5t-1 13.5q4 0 9 0.5l10 1t9.5 1t9.5 1.5q-1 -2 -1 -4v-5v-5.5t1 -3.5q-2 1 -4.5 1t-4.5 1h-4q-1 -7 -1.5 -13t-0.5 -11t-0.5 -9.5t-0.5 -9v-9.5v-11h8t8 1z "
         id="glyph10" />
      <glyph
         glyph-name="backslash"
         unicode="\"
         horiz-adv-x="64"
         d="M2 69h6.5t7 1t6.5 2t5 3q2 -10 4.5 -20t7 -20t10.5 -20.5t14 -21.5q-9 6 -17.5 14t-16 17.5t-14.5 21t-13 23.5z"
         id="glyph11" />
      <glyph
         glyph-name="bracketright"
         unicode="]"
         horiz-adv-x="45"
         d="M2 5q4 -1 8 -1.5t8 0.5v11v9.5t-0.5 9t-0.5 9.5t-1 11t-2 13h-4t-4 -1t-4 -1q1 2 1 4v5v5.5t-1 3.5q4 -1 9 -1.5l10 -1l10 -1t9 -0.5q-1 -7 -1.5 -14t-0.5 -15t0.5 -16l1 -16t1 -15t1.5 -13q-4 0 -9 0.5t-10.5 0.5t-10.5 -1t-9 -2v4v4.5v4.5t-1 4z"
         id="glyph12" />
      <glyph
         glyph-name="asciicircum"
         unicode="^"
         horiz-adv-x="50"
         d="M50 31h-1.5h-1.5h-4t-4 -0.5l-4 -1t-3 -0.5q-1 3 -2 5.5t-1.5 4.5t-1.5 4.5t-3 5.5q-1 -3 -2 -5.5t-1.5 -5t-1 -5.5t-1.5 -6q-1 0 -2 0.5t-2.5 1t-3.5 0.5h-3h-4h-3q2 4 4 7t4 7.5t3 10t1 12.5q2 0 4.5 -0.5t4.5 -0.5h4.5t4.5 0.5t3.5 0.5h3.5q0 -5 1 -9.5t2.5 -8.5 t4 -8.5t5.5 -8.5z"
         id="glyph13" />
      <glyph
         glyph-name="underscore"
         unicode="_"
         horiz-adv-x="62"
         d="M55 -20h-6t-8.5 0.5t-9 0.5h-9t-8 -0.5t-6.5 -1.5q0 2 0.5 4t0.5 4.5t-0.5 5t-0.5 4.5q3 -1 6.5 -2t8 -1h8.5t8 0.5l8 1t8 1.5q-1 -2 -1 -4v-4.5t0.5 -4.5t0.5 -4z"
         id="glyph14" />
      <glyph
         glyph-name="grave"
         unicode="`"
         horiz-adv-x="22"
         d="M16 50q-3 3 -7 6t-9 5q1 1 2.5 2t3 2.5l3 3l2.5 2.5q2 -4 5 -7l7 -7z"
         id="glyph15" />
      <glyph
         glyph-name="braceleft"
         unicode="{"
         horiz-adv-x="47"
         d="M48 81q-4 -1 -7.5 -3.5t-6 -5.5t-3.5 -6t-1 -6q0 -2 1 -4t1.5 -4t1.5 -4.5t1 -3.5t-0.5 -2.5t-1.5 -3t-2.5 -2.5t-4.5 -1q1 0 3 -1t3 -2t2 -2.5t1 -3.5t-0.5 -3.5t-1.5 -3t-1.5 -3.5t-0.5 -3q0 -3 0.5 -6t1.5 -5t2.5 -3.5t3.5 -3t4.5 -3t4.5 -3.5q-4 -1 -8 -1.5t-8.5 0.5 t-9 2.5t-7.5 3.5t-5 5.5t-2 7.5q0 2 0.5 4.5t1 4.5t1.5 3.5t1 3.5t-1 3.5t-2 2.5t-2 1.5t-2.5 1.5t-3 1.5t-2.5 0.5q2 0 4.5 1t4 2.5t2.5 3.5t1 4t-0.5 3.5t-1 3.5l-1 4t-0.5 4q0 3 1 6t3 5.5t5.5 4.5t8 3.5t10 2t12.5 -0.5z"
         id="glyph16" />
      <glyph
         glyph-name="bar"
         unicode="|"
         horiz-adv-x="31"
         d="M27 -6h-5t-6 -0.5t-6 -1.5t-5 -3q1 6 1.5 13.5t0.5 16t0.5 17t0 16.5t-1.5 15.5t-2 14.5q2 0 5.5 -0.5t6.5 0t6.5 2t6.5 3.5q-1 -7 -2.5 -14.5t-2 -16t-0.5 -17v-16.5t1 -15.5t2 -13.5z"
         id="glyph17" />
      <glyph
         glyph-name="braceright"
         unicode="}"
         horiz-adv-x="47"
         d="M-1 81q7 1 12.5 0.5t10 -2t8 -3.5t5.5 -4.5t3 -5.5t1 -6q0 -2 -0.5 -4l-1 -4t-1 -3.5t-0.5 -3.5t1 -4t2.5 -3.5t3.5 -2t5 -1.5q-1 -1 -2.5 -1t-3 -1t-2.5 -1.5t-2 -1.5t-2 -2.5t-1 -3.5q0 -1 1 -3t1.5 -4l1 -4t0.5 -5q0 -4 -2 -7.5t-5 -5.5t-7.5 -3.5t-9 -2.5t-9 -0.5 t-7.5 1.5q3 2 5 3.5l4 3t3.5 3t2.5 3.5t1 4.5v6.5v3.5t-1 3t-1.5 3.5t-0.5 3q0 2 1 3.5t2 2.5t2.5 2t3.5 1q-3 0 -4.5 1t-2.5 2.5t-1.5 3t-0.5 2.5q0 2 1 4t1.5 4t1.5 4t1 4q0 3 -1 6t-3.5 6t-6 5.5t-7.5 3.5z"
         id="glyph18" />
      <glyph
         glyph-name="asciitilde"
         unicode="~"
         horiz-adv-x="52"
         d="M45 49q1 -1 2 -3q1 -1 1 -3.5v-5.5t-0.5 -5.5t-2 -4t-3.5 -2t-5 -0.5t-4.5 1l-3 2t-2.5 2.5t-2 2.5l-2 2t-2 1t-2 -1t-1 -2q0 -2 0.5 -3.5t1.5 -2.5h-2.5h-3.5h-4t-4 -1q-1 1 -1 3q0 1 -0.5 3.5t-0.5 5.5t1 5t3 3t4 1.5t4 0.5q3 0 4.5 -0.5t3 -2t2.5 -3l2 -3t2 -2.5t2 -1 q2 0 2.5 1t0.5 3q0 1 -0.5 2l-1 2l-1 2t-1.5 2h5h4t5 1z"
         id="glyph19" />
      <glyph
         glyph-name="acute"
         unicode="´"
         horiz-adv-x="22"
         d="M23 61q-2 -1 -4.5 -2t-4.5 -2.5l-4 -3t-4 -3.5l-6 7q3 3 6 6.5t6 7.5q1 -1 2 -2.5t2.5 -3t3.5 -2.5t3 -2z"
         id="glyph20" />
      <glyph
         glyph-name="dieresis"
         unicode="¨"
         horiz-adv-x="31"
         d="M13 61q0 -1 -0.5 -2.5t-1 -2.5t-2 -1.5t-2.5 -0.5t-2.5 0.5t-2.5 1.5t-1.5 2t-0.5 3q0 1 0.5 2t1.5 2t2 1.5t3 0.5q1 0 2.5 -0.5t2 -1.5l1 -2t0.5 -2zM31 61q0 -1 -0.5 -2.5t-1.5 -2.5t-2 -1.5t-2 -0.5t-2.5 0.5t-2.5 1.5t-1.5 2t-0.5 3q0 1 0.5 2t1.5 2t2 1.5t3 0.5 q1 0 2 -0.5t2 -1.5t1.5 -2t0.5 -2z"
         id="glyph21" />
      <glyph
         glyph-name="guillemotleft"
         unicode="«"
         horiz-adv-x="67"
         d="M63 43h-1.5h-1.5q-2 0 -4 -1l-4 -2t-4 -3l-3 -3q3 -3 7 -5t8 -2h0.5h1.5q-2 -5 -2.5 -10t-1.5 -11q-3 4 -6 7.5t-6.5 7t-7.5 6.5t-8 7q4 3 7.5 6.5l7 7t7 7.5t7.5 8v-3v-4.5t0.5 -4.5t1.5 -4zM35 27q-2 -4 -3 -8.5t-1 -8.5v-2v-2q-7 7 -14 14.5t-15 14.5q4 3 7.5 6.5 t7 6.5t7 6.5t6.5 8.5q0 -2 0.5 -5t0.5 -5t1 -5t1 -5q-5 0 -9 -2t-7 -6q1 -2 2.5 -3.5t3.5 -2.5l4 -2t5 -1q1 0 1.5 0.5t1.5 0.5z"
         id="glyph22" />
      <glyph
         glyph-name="guillemotright"
         unicode="»"
         horiz-adv-x="67"
         d="M65 35q-4 -3 -7.5 -6.5l-7 -7t-7 -7.5t-7.5 -8q0 5 -0.5 10t-2.5 11q1 0 1.5 -0.5l0.5 -0.5q2 0 4.5 1t4.5 2t3.5 3t3.5 3q-3 3 -7.5 5.5t-9.5 2.5q1 2 1.5 4.5t0.5 5t0.5 5t0.5 5.5q3 -4 6 -7.5t6.5 -7t7.5 -6.5t8 -7zM37 34q-4 -3 -7.5 -6.5t-7 -6.5t-7 -7t-6.5 -8 q0 3 -0.5 5.5t-0.5 5t-1 5t-1 5.5h4.5t4.5 1t4 2.5t4 3.5q-3 4 -7.5 6.5t-9.5 2.5h-2q2 4 3 8t1 9v3q3 -4 6.5 -7.5l7 -7t7.5 -7t8 -7.5z"
         id="glyph23" />
      <glyph
         glyph-name="divide"
         unicode="÷"
         horiz-adv-x="43"
         d="M41 26q-2 1 -5.5 1.5t-6.5 0.5h-6.5t-7 -0.5t-6.5 -1t-6 -1.5q0 2 0.5 4.5t0.5 5v5t-1 3.5q5 -2 9.5 -2.5t9.5 -0.5t9.5 1t9.5 3q-1 -2 -1 -4v-4.5t0.5 -5t0.5 -4.5zM32 52q0 -4 -2.5 -6t-7.5 -2q-2 0 -4 0.5t-3.5 1.5t-2 2.5t-0.5 2.5q0 2 0.5 3.5t2 2.5t3.5 1.5t4 0.5 t4 -0.5t3.5 -1.5t2 -2t0.5 -3zM32 17q0 -4 -2.5 -5.5t-7.5 -1.5q-2 0 -4 0.5t-3.5 1t-2 2t-0.5 3.5t0.5 3t2 2.5t3.5 2t4 0.5t4 -0.5t3.5 -1.5t2 -2.5t0.5 -3.5z"
         id="glyph24" />
      <glyph
         glyph-name="numbersign"
         unicode="#"
         horiz-adv-x="62"
         d="M60 53q-1 -1 -1.5 -3.5t-1 -4.5t-0.5 -4.5v-3.5q-1 0 -2.5 0.5t-2.5 0.5h-3q-1 -2 -1.5 -4t-0.5 -4q1 0 2 1h2.5h2.5q0 -1 -1 -3t-1 -4t-0.5 -4t-0.5 -3h-2h-2t-3 1v-3v-3v-3h-4.5h-5h-5t-3.5 -1q1 2 1.5 3.5t1.5 3.5l2 4h-1.5h-2.5h-2v-3q0 -1 -0.5 -2.5t0.5 -2.5 q-1 0 -3.5 0.5t-5 0.5t-4.5 -0.5t-4 -0.5q0 1 1 2t1 2t1 3q-1 0 -3 -1h-2.5t-2.5 -1q0 1 0.5 3t1 4.5t1 4.5t0.5 4q1 0 2.5 -0.5t3.5 -0.5t3 -1q1 2 1 4t1 4q-1 0 -3 -1q-1 0 -3 -0.5t-3 -0.5q0 1 0.5 2.5t1 4l1 5t0.5 4.5q1 0 2.5 -0.5t2.5 -1.5h3v4.5v4.5h4.5t5 -0.5 t5 -0.5h4.5l-2 -2t-2 -3t-1 -3h3.5h2.5q1 3 1 6v7q2 0 4.5 -0.5t5 -0.5h5h4.5q-1 -2 -2 -3.5t-2 -3.5l-2 -4q1 0 3 1q1 0 2 0.5t2 0.5zM37 39h-2.5h-4.5q0 -1 -0.5 -2t-1 -2.5t-1 -2.5t-0.5 -2h3.5h3.5q1 2 2 4.5t1 4.5z"
         id="glyph25" />
      <glyph
         glyph-name="brokenbar"
         unicode="¦"
         horiz-adv-x="32"
         d="M24 47h-1h-2h-2h-5t-6 -1q0 10 -1 19t-3 17q1 0 2.5 -0.5t2.5 -0.5q2 0 5 0.5t5.5 1t5 2t4.5 2.5q-2 -9 -3.5 -19t-1.5 -21zM8 33h4h3h4h3h2q0 -11 1 -21t3 -18h-2h-3t-4.5 -0.5l-5 -1t-4.5 -1.5l-4 -2q1 5 1.5 10t0.5 10.5t0.5 11.5t0.5 12z"
         id="glyph26" />
      <glyph
         glyph-name="exclam"
         unicode="!"
         horiz-adv-x="33"
         d="M31 75q-1 -4 -2 -9t-2 -10.5t-1.5 -11t-0.5 -11.5q0 -4 0.5 -7t0.5 -6h-1.5h-1.5h-2h-2h-2.5h-3t-3 -0.5t-2.5 -0.5q1 2 1 5v6v6.5t-0.5 7.5t-1.5 7.5t-1.5 6.5t-1.5 6t-2 4h1h1q2 0 4 0.5t4.5 0.5t5 0.5t5 1.5t4.5 2zM31 8q0 -4 -3.5 -6t-9.5 -2q-3 0 -5.5 0.5t-4.5 1.5 t-3 2t-1 3t1 3.5t3 2.5t4.5 1.5t5.5 0.5t5 -0.5t4 -1.5t3 -2t1 -3z"
         id="glyph27" />
      <glyph
         glyph-name="degree"
         unicode="°"
         horiz-adv-x="35"
         d="M33 54q0 -4 -1 -7t-3 -5.5t-5 -4t-6 -1.5t-6 1.5t-5 4t-3.5 5.5t-1.5 7t1.5 7t3.5 5.5t5 3.5t6 1t6 -1t5 -3.5t3 -5.5t1 -7zM27 54q0 1 -1 2.5t-2 2.5t-2.5 1.5t-3.5 0.5t-3.5 -0.5t-2.5 -1.5t-1.5 -2t-0.5 -3q0 -1 0.5 -2.5t1.5 -2t3 -1t3 -0.5q2 0 3.5 0.5t2.5 1t2 2 t1 2.5z"
         id="glyph28" />
      <glyph
         glyph-name="multiply"
         unicode="×"
         horiz-adv-x="46"
         d="M16 53q1 -2 3 -4.5t4 -5.5q2 2 4 5t3 6q1 -2 2.5 -3.5t3 -3.5t3.5 -3.5t4 -2.5q-2 -1 -4.5 -3t-5.5 -4q3 -2 5.5 -4t4.5 -3q-1 -1 -3 -2.5t-3.5 -3t-3 -3.5t-2.5 -4q-1 3 -3 5.5t-4 5.5q-2 -3 -4 -5.5t-3 -5.5q-1 1 -2.5 3t-3.5 4t-4 3.5t-3 2.5q6 3 11 7q-3 2 -6 3.5 t-6 3.5q2 1 3.5 2t3.5 3l3.5 3.5t2.5 3.5z"
         id="glyph29" />
      <glyph
         glyph-name="Thorn"
         unicode="Þ"
         horiz-adv-x="84"
         d="M37 77v-6v-6q7 0 11.5 -0.5t7.5 -1.5q4 -1 6 -1q4 -1 7.5 -3t6 -4t4 -4.5t1.5 -4.5v0q1 1 2.5 1.5t2.5 1.5q-1 -6 -2.5 -11t-3.5 -9t-5 -7l-5 -5q-6 -5 -14 -8q-5 -2 -10 -2t-9 1v-10q-7 1 -14.5 -0.5t-16.5 -4.5q2 5 3.5 11.5t2.5 12.5q-3 2 -5 4.5t-3 3.5q5 -1 9 -2 q1 4 1.5 8t0.5 9q-3 -1 -5.5 -2t-5.5 -3q2 7 1.5 14t-3.5 13q3 1 6 1h6q0 2 -0.5 4t-0.5 4q12 -1 24 6zM37 45v0h-1v-24q4 0 7.5 1.5t6 3.5t4 5t2.5 8q2 0 4 0.5t4 0.5v0l-3.5 3.5t-4.5 2t-7.5 0.5t-11.5 -1z"
         id="glyph30" />
      <glyph
         glyph-name="A"
         unicode="A"
         horiz-adv-x="90"
         d="M88 23q-2 -1 -4.5 -2.5t-5.5 -1.5l6 -10l6 -10q-8 0 -15.5 -1.5t-14.5 -4.5v2.5v2.5q0 3 -0.5 6.5t-1.5 7.5h-5.5h-4.5q-4 0 -8 0.5t-8 1.5q-1 -5 -2 -9t-1 -9q-2 1 -6 2q-3 1 -6.5 2t-7.5 1t-8 -1l-8 -2q4 4 7.5 8t6 8t4.5 7.5t4 5.5q-1 2 -2.5 4.5t-2.5 5.5l4 -2l4 -2 v0q3 5 5.5 10.5t5.5 10.5q-1 2 -1.5 3.5t-2 4t-2.5 5t-3 4.5l10 -2t11 -2q3 3 6 5.5t6 3.5l-2 -4t-3 -5q3 0 6 0.5t6 1.5q2 -8 4.5 -16t5.5 -16q2 1 4.5 3t5.5 3q2 -6 4 -11t4 -9zM52 30q-4 10 -10 21q-2 -5 -3.5 -10.5t-3.5 -11.5q1 0 2.5 -0.5t2.5 -0.5q3 0 6 0.5t6 1.5z "
         id="glyph31" />
      <glyph
         glyph-name="B"
         unicode="B"
         horiz-adv-x="83"
         d="M79 13q0 -4 -1.5 -7.5t-4.5 -6t-6.5 -4t-8 -2.5t-9 -1.5t-9.5 -0.5h-8t-7.5 0.5t-7 1.5t-5.5 2l1 2q-2 0 -3.5 -1t-3.5 -1q3 9 5 17.5t3 17.5q-4 2 -6.5 4.5t-4.5 5.5l6 -2t6 -1v6v6v1q-3 -1 -5.5 -2t-5.5 -2q1 3 1 5.5v4.5q0 4 -1 8t-3 8q6 1 10.5 1.5t8.5 1t7.5 0.5 h7.5h7t8 -0.5t8 -1.5t7.5 -2.5t6.5 -4t4 -6.5q1 1 2.5 2t2.5 1v-2v-3q0 -4 -1 -7.5t-2.5 -7t-4 -6.5t-4.5 -5q3 -2 4.5 -4t2.5 -4l2 -4t1 -3.5v-2v-1.5zM43 21q-4 0 -7 1v-5.5v-4.5q2 -1 4.5 -1.5t4.5 -0.5q3 0 5.5 1t5 2.5t4 3.5t1.5 5v2v2q-4 -2 -8.5 -3.5t-9.5 -1.5z M36 55v-9.5v-9.5q4 1 6.5 2t4.5 3t3.5 5t1.5 7l5 1q-2 1 -4.5 1.5t-6.5 0.5h-2h-2t-2 -0.5t-3 -0.5h-1z"
         id="glyph32" />
      <glyph
         glyph-name="C"
         unicode="C"
         horiz-adv-x="81"
         d="M80 24q-1 -6 -3 -10.5t-5 -7.5t-6.5 -5t-7 -3.5t-7.5 -2t-7 -0.5q-9 0 -16 2.5t-12.5 7.5t-9.5 12.5t-6 17.5q1 0 2.5 -0.5t2.5 -0.5q1 10 5.5 17.5t11.5 12.5t16 7.5t19 2.5q5 0 10.5 -0.5t11.5 -1.5q-1 -4 -2 -8.5t-1 -9.5t1 -9q-3 2 -6 3.5t-6 2.5t-5.5 1h-4.5 q-4 0 -9 -1t-9.5 -3.5t-8 -6t-4.5 -7.5q2 0 3.5 0.5t3.5 0.5v-4q0 -5 1.5 -8t4.5 -5.5t6.5 -4t8.5 -1.5q2 0 5.5 0.5t7 2t7.5 3.5t8 6z"
         id="glyph33" />
      <glyph
         glyph-name="D"
         unicode="D"
         horiz-adv-x="85"
         d="M84 40q1 -6 -0.5 -11.5t-4.5 -10t-7 -9t-9 -7.5t-11 -4.5t-12 -1.5q-4 0 -8.5 1t-8.5 4q-4 -1 -8.5 -2t-9.5 -3q4 13 6.5 26.5t2.5 26.5q-2 -1 -3.5 -1.5t-3.5 -2.5q0 1 0.5 2.5t0.5 2.5q0 6 -2 11.5t-5 10.5q2 1 4 1t5 0.5l6 1t6 0.5h5h4q7 0 13.5 -1t12 -3.5t9.5 -5.5 t7 -6.5t4.5 -8t1.5 -8.5v-1.5v-1.5q1 0 2.5 0.5t2.5 0.5zM61 36q-1 3 -2.5 5.5t-3.5 4.5t-5 3t-5.5 2t-5 1.5t-4.5 0.5v-24v-21q5 1 9 3.5t7 6t4.5 8.5t0.5 10h2.5h2.5z"
         id="glyph34" />
      <glyph
         glyph-name="E"
         unicode="E"
         horiz-adv-x="75"
         d="M34 0h-8h-8t-7.5 -0.5t-7.5 -1.5q3 11 5 22.5t2 22.5q0 5 -0.5 10t-1.5 10l-7 1q2 1 3.5 1.5t3.5 0.5q0 1 -0.5 2.5t-0.5 3.5l6 -2t6 -1q9 2 18.5 3t18.5 1q4 0 8.5 -0.5t8.5 -0.5q-2 -9 -2 -19v-7q-18 8 -38 13q0 -4 -0.5 -8.5t-0.5 -8.5q5 1 10 1.5t10 0.5q-1 -5 -1 -9 v-4v-3q-5 2 -9.5 3.5t-9.5 3.5v-10.5t1 -11.5q19 3 38 9q-1 -4 -1 -7v-7v-6.5t1 -6.5q-9 2 -18.5 4t-18.5 3v-0.5v-1.5z"
         id="glyph35" />
      <glyph
         glyph-name="F"
         unicode="F"
         horiz-adv-x="74"
         d="M32 0q-7 0 -14 -1.5t-15 -3.5q4 16 5.5 32.5t1.5 32.5l-8 1q2 1 4 1.5t4 1.5v4v4q3 0 7 -0.5t7 -0.5h4h4v-2q6 1 11.5 1.5t10.5 0.5h10t10 -1q-1 -8 -2 -15q0 -3 0.5 -6t0.5 -6q-10 4 -20.5 7t-21.5 6v-5.5v-5.5v-5q4 1 8 1h9h2h2l-2 -12q0 -2 0.5 -4.5t0.5 -5.5 q-5 3 -9.5 6.5t-10.5 5.5q0 -8 1 -15.5t2 -15.5h-2z"
         id="glyph36" />
      <glyph
         glyph-name="G"
         unicode="G"
         d="M80 24q-1 -5 -2.5 -8.5t-2.5 -6.5v-3.5v-3v-3v-3.5l-11 -1l-2 4q-4 -2 -9 -3t-9 -1q-9 0 -16 2.5t-12.5 7.5t-9.5 12.5t-6 17.5q1 0 2.5 -0.5t2.5 -0.5q1 10 5.5 17.5t11.5 12.5t16 7.5t19 2.5q5 0 10.5 -0.5t11.5 -1.5q-1 -4 -2 -8.5t-1 -9.5t1 -9q-3 2 -6 3.5t-6 2.5 t-5.5 1h-4.5q-5 0 -9.5 -1t-9 -3.5t-7.5 -6t-5 -7.5q2 0 3.5 0.5t3.5 0.5v-4q0 -5 1.5 -8.5t4.5 -5.5t7 -3.5t9 -1.5h1.5h1.5q-2 5 -3.5 11t-2.5 12q2 0 4.5 -0.5t5.5 -0.5q5 0 9 1t9 3q-2 -9 -3 -18q1 1 2.5 2t2.5 2z"
         id="glyph37" />
      <glyph
         glyph-name="H"
         unicode="H"
         horiz-adv-x="88"
         d="M33 -2q-4 1 -8 1.5t-8 0.5t-7.5 -0.5t-7.5 -1.5q4 11 6 22t2 22q0 7 -0.5 14.5t-2.5 14.5q3 -1 6 -1.5t6.5 -1t6.5 -1t7 -0.5v-16v-15q5 0 9.5 0.5t9.5 1.5l2 18t4 18q3 -1 5.5 -2t5 -1.5t5.5 -0.5h6h1.5h1.5q-3 -7 -5.5 -14t-2.5 -14q2 1 4.5 1.5t5.5 1.5q-1 -4 -1 -7 v-7v-6.5t1 -7.5q-3 0 -5.5 0.5t-4.5 0.5q1 -5 1.5 -9.5t2.5 -8.5h-3.5h-3.5q-3 0 -5 -0.5t-4.5 -0.5t-5 -1t-4.5 -1q-1 6 -1 12v13q-5 1 -9.5 2.5t-9.5 3.5v-15v-15z"
         id="glyph38" />
      <glyph
         glyph-name="I"
         unicode="I"
         horiz-adv-x="36"
         d="M32 73q-2 -10 -2.5 -20.5t-0.5 -21.5q0 -8 0.5 -16t1.5 -15h-4h-4q-5 0 -9.5 -0.5t-9.5 -1.5q2 9 3 17.5t1 18.5q0 8 -1 15.5t-2 15.5q3 0 6.5 1t6.5 2t6.5 2t7.5 3z"
         id="glyph39" />
      <glyph
         glyph-name="J"
         unicode="J"
         horiz-adv-x="65"
         d="M65 26q-8 -15 -23.5 -23t-39.5 -9v7v6t-1 6.5t-3 7.5q7 -2 13.5 -3.5t13.5 -1.5q3 0 6.5 0.5t6.5 0.5q-1 7 -2 15t-2 15t-2.5 14.5t-3.5 14.5q7 -3 14.5 -5t14.5 -2h1.5h1.5q-2 -9 -2.5 -17.5t-0.5 -17.5v-5v-6q2 1 4 1.5t4 1.5z"
         id="glyph40" />
      <glyph
         glyph-name="K"
         unicode="K"
         horiz-adv-x="83"
         d="M33 70q-1 -8 -1.5 -16.5t-0.5 -16.5q9 7 16.5 16.5t13.5 20.5q5 -5 11 -9.5t13 -7.5q-7 -6 -15 -11.5t-17 -9.5q5 -9 12.5 -16.5t16.5 -15.5q-15 -3 -28 -10q-4 10 -9.5 19t-13.5 16v-14.5t1 -14.5q-4 0 -7.5 -0.5t-7.5 -1.5t-7.5 -2t-7.5 -2q8 26 8 52q0 13 -2 26 q5 -2 9 -2.5t9 -0.5q2 0 3.5 0.5t3.5 0.5z"
         id="glyph41" />
      <glyph
         glyph-name="L"
         unicode="L"
         horiz-adv-x="70"
         d="M71 -0q-8 1 -16.5 1.5t-16.5 0.5q-9 0 -19 -0.5t-19 -2.5q2 2 4.5 3.5t5.5 3.5q1 7 1.5 13t0.5 13q0 10 -1 19t-3 19h2h2q6 0 12 0.5t12 2.5q0 -14 -1.5 -28t-4.5 -28q9 4 18.5 6.5t20.5 4.5q-1 -5 -1 -10t0.5 -9t2.5 -9z"
         id="glyph42" />
      <glyph
         glyph-name="M"
         unicode="M"
         horiz-adv-x="107"
         d="M100 70q-2 -5 -3.5 -9.5t-2 -8.5t-1 -7.5t-0.5 -7.5q0 -6 1 -11.5t3.5 -10t5 -8t5.5 -6.5h-4h-4h-5t-4.5 -0.5t-4.5 -1.5t-5 -2q-3 8 -4.5 16t-1.5 16q-4 -7 -6 -14.5t-3 -16.5h-3h-5t-6 -0.5t-6 -1.5q-1 9 -3.5 17t-5.5 16q-1 -17 -7 -32q-10 5 -22 4h-4h-4 q9 9 13.5 20.5t4.5 25.5v7q-4 4 -9 8.5t-10 8.5q1 0 2.5 -0.5l3 -1t4 -0.5h4.5q5 0 10.5 1t12.5 4q4 -7 7 -15q2 -3 3.5 -7t3 -8.5t3 -9.5t3.5 -11q3 8 5.5 15t4.5 13l4 12t3 12q3 -2 7 -3t8 -1.5t7 -0.5h5z"
         id="glyph43" />
      <glyph
         glyph-name="N"
         unicode="N"
         horiz-adv-x="89"
         d="M91 67q-7 -9 -10.5 -18.5t-3.5 -21.5q0 -6 1 -12t3 -13q-4 0 -8 -1t-8.5 -2t-8.5 -3q-1 4 -3 8t-3.5 7.5t-3.5 6.5t-3 5q-4 6 -8 11h-1v0v1v-9q0 -15 -4 -29q-8 3 -17 3q-3 0 -6 -0.5t-6 -0.5q7 9 10.5 18.5t3.5 21.5v8t-1 8q-3 3 -7 5.5t-8 5.5q5 -1 9 -0.5t8 1.5 t8.5 2.5t8.5 3.5l26 -47q-1 4 -1 8.5v8.5q0 9 1.5 17.5t5.5 16.5q12 -9 26 -10z"
         id="glyph44" />
      <glyph
         glyph-name="O"
         unicode="O"
         horiz-adv-x="91"
         d="M71 71q-2 -2 -4 -3.5t-3 -4.5q5 -1 9.5 -3t8 -6t5.5 -8.5t2 -10.5q0 -7 -2 -12.5t-5.5 -10t-8.5 -7.5t-10.5 -5t-11.5 -3t-13 -1q-2 0 -4.5 0.5t-4.5 0.5t-4 0.5t-3 0.5q2 1 3 2.5t3 3.5q-5 1 -10 3t-8.5 5.5t-5.5 8t-2 11.5t2.5 12.5t6.5 10t9.5 7.5t11.5 5.5t13 3 t14 0.5h6h6zM67 39q0 3 -1 5l-2 4t-2.5 3t-3.5 2q-1 -2 -1.5 -3.5t-1.5 -3.5q-3 1 -5.5 1.5t-4.5 0.5q-4 0 -7.5 -1.5t-6.5 -4t-5 -6t-2 -7.5q0 -2 1 -4l2 -4t2.5 -3.5l3.5 -3.5q1 2 1.5 4t0.5 4q3 -2 6 -2.5t5 -0.5q4 0 7.5 1.5t6.5 4t5 6.5t2 8z"
         id="glyph45" />
      <glyph
         glyph-name="P"
         unicode="P"
         horiz-adv-x="83"
         d="M86 59q-1 -5 -3 -10t-5 -10t-7 -9t-9 -7t-10 -4.5t-11 -1.5h-5v-9.5t1 -9.5h-3h-3q-6 0 -12 -1t-13 -4q3 8 5 16.5t3 16.5q-4 3 -6.5 5.5l-4.5 4.5l6 -2t6 -1v7.5v6.5v3q-3 -1 -5.5 -2t-5.5 -2q1 3 1 5.5v4.5q0 4 -1 8t-3 8q11 2 20.5 2.5t16.5 0.5q3 0 7.5 -0.5l9 -1 t8.5 -1.5t8 -3t6.5 -5t3.5 -8v0q1 1 2.5 1.5t2.5 1.5zM50 56h-6t-7 -1q0 -6 -0.5 -11.5t-0.5 -11.5q4 0 7 1.5t6 3.5t4.5 5t1.5 7q2 0 4.5 0.5t4.5 0.5v0l-2.5 2.5t-3 2t-3.5 1t-5 0.5z"
         id="glyph46" />
      <glyph
         glyph-name="Q"
         unicode="Q"
         horiz-adv-x="91"
         d="M71 71q-2 -2 -4 -3.5t-3 -4.5q5 -1 9.5 -3t8 -6t5.5 -8.5t2 -10.5q0 -7 -2 -12.5t-6 -10t-9 -7.5t-10 -5q6 -2 11.5 -3t11.5 -2l-1 -0.5q-1 -0.5 -2.5 -1.5t-3.5 -2t-4 -3.5l-4 -5t-4 -6.5q-3 2 -6 6l-6.5 6.5t-6.5 8.5q-2 0 -4 -0.5t-5 -0.5q-2 0 -4.5 0.5t-4.5 0.5 t-4 0.5t-3 0.5q2 1 3 2.5t3 3.5q-5 1 -10 3t-8.5 5.5t-5.5 8t-2 11.5t2.5 12.5t6.5 10t9.5 7.5t11.5 5.5t13 3t14 0.5h6h6zM67 39q0 2 -0.5 4t-2 4t-3 3.5t-3.5 2.5q-1 -2 -1.5 -3.5t-1.5 -3.5q-3 1 -5.5 1.5t-4.5 0.5q-4 0 -7.5 -1.5t-6.5 -4t-5 -6t-2 -7.5q0 -2 1 -4l2 -4 t2.5 -3.5l3.5 -3.5q1 2 1.5 4t0.5 4q3 -2 6 -2.5t5 -0.5q4 0 7.5 1.5t6.5 4t5 6.5t2 8z"
         id="glyph47" />
      <glyph
         glyph-name="R"
         unicode="R"
         horiz-adv-x="86"
         d="M86 3q-8 -1 -15 -3t-14 -6q-1 6 -2.5 12t-3.5 12q-5 -1 -10 -1h-5v-9.5t1 -9.5h-3h-3q-6 0 -12 -1t-13 -4q3 8 5 16.5t3 16.5q-4 3 -6.5 5.5l-4.5 4.5l6 -2t6 -1v7.5v6.5v3q-3 -1 -5.5 -2t-5.5 -2q1 3 1 5.5v4.5q0 4 -1 8t-3 8q11 2 20.5 2.5t16.5 0.5q3 0 7.5 -0.5l9 -1 t8.5 -1.5t8 -3t6.5 -5t3.5 -8v0q1 1 2 1.5l3 1.5q-1 -4 -2.5 -8.5t-4 -8.5t-5 -7.5t-6.5 -7.5q7 -13 18 -24zM50 56h-6t-7 -1q0 -6 -0.5 -11.5t-0.5 -11.5q4 0 7 1.5t6 3.5t4.5 5t1.5 7q2 0 4.5 0.5t4.5 0.5v0l-2.5 2.5t-3 2t-3.5 1t-5 0.5z"
         id="glyph48" />
      <glyph
         glyph-name="S"
         unicode="S"
         horiz-adv-x="81"
         d="M79 33q0 -1 0.5 -2t0.5 -2q0 -5 -1.5 -9.5t-4.5 -8t-7 -6.5t-8.5 -5t-9 -3.5t-9.5 -1.5t-9 0.5t-8 0.5q-3 0 -5.5 -0.5t-4.5 -1.5q-2 7 -4 12.5t-4 9.5l-4 8q6 -3 12 -5t11 -3t9.5 -1h7.5h6t7 1l-2 2l-2 2l-1 1q-1 1 -3.5 1.5t-5.5 1t-6.5 1.5t-7 2.5t-6.5 3t-5 3.5 t-3 3.5t-2 3.5t-1 4v4q-2 -1 -3.5 -1.5t-2.5 -1.5l-2 -1q2 5 5 9.5t7 7.5t8.5 5t8.5 3q10 3 23 4h8t8 0.5t10 1.5q-2 -2 -3 -5t-1.5 -5.5t-0.5 -5.5v-5v-3v-2v-2q-9 4 -17 5.5t-15 1.5h-5h-5l2 -4t3 -3t3 -1q4 -1 8.5 -3t9 -4.5t8.5 -6t7 -7.5q2 2 3 3.5t3 3.5z"
         id="glyph49" />
      <glyph
         glyph-name="T"
         unicode="T"
         horiz-adv-x="68"
         d="M52 0h-2h-2q-6 0 -12.5 -0.5t-12.5 -2.5v2.5v2.5q0 14 2 27t6 25q-8 -1 -16 -3t-15 -5q2 8 2 15q0 3 -0.5 6.5t-1.5 7.5q9 -2 18.5 -3.5t19.5 -1.5q1 3 2.5 5.5t3.5 4.5q0 -5 -1 -10h2q6 0 12 0.5t13 1.5q-1 -2 -2 -4.5t-1 -6.5q0 -2 0.5 -4t1.5 -5l-12 2t-13 1h-1 q0 -14 2.5 -27.5t6.5 -27.5z"
         id="glyph50" />
      <glyph
         glyph-name="U"
         unicode="U"
         horiz-adv-x="87"
         d="M85 68q0 -17 -3.5 -30.5t-9.5 -22.5t-15.5 -13.5t-21.5 -4.5q-3 0 -6.5 0.5t-6.5 0.5q1 0 1 1q1 0 2 1l2 2q-6 2 -10.5 6.5t-7.5 11t-4.5 14.5t-1.5 18q0 2 0.5 3.5t0.5 3.5v4t1 5q5 0 10 -1q2 0 4.5 0.5t5.5 1t5.5 1t5.5 1.5q-2 -5 -3.5 -9.5t-2.5 -8l-2 -7t-1 -7.5 q0 -7 2 -13t6 -11q0 1 0.5 2t0.5 2q1 0 2.5 -0.5t2.5 -0.5q4 0 6.5 1.5t4.5 3.5t3.5 5t2.5 6.5t1 6.5v6q0 2 -0.5 5.5t-1.5 6.5t-2 7t-3 7q2 -1 4.5 -1.5l5 -1t5.5 -0.5h6q4 0 6.5 0.5t5.5 1.5v-4z"
         id="glyph51" />
      <glyph
         glyph-name="V"
         unicode="V"
         horiz-adv-x="79"
         d="M83 69q-5 -8 -10 -15.5t-8.5 -16.5t-6 -18t-4.5 -18q-5 1 -9 1q-5 0 -9.5 -1t-9.5 -2q-2 8 -4.5 17t-6.5 18t-8.5 17.5t-9.5 15.5q5 -1 11 0q6 0 11.5 1t10.5 3q1 -6 1.5 -12t1.5 -11.5t2.5 -11.5t4.5 -11q5 11 7.5 22t2.5 23q9 -2 18 -2q4 0 7.5 0.5t7.5 0.5z"
         id="glyph52" />
      <glyph
         glyph-name="W"
         unicode="W"
         horiz-adv-x="102"
         d="M103 67q-4 -8 -6.5 -15.5t-4.5 -16t-3 -17t-1 -16.5q-7 -1 -13 -2.5t-13 -3.5q-2 8 -4.5 15t-7.5 14l-2 -6t-2 -6.5t-2 -7.5t-2 -7q-5 2 -10.5 3t-11.5 1h-6q0 4 1 9q0 15 -4 29t-13 27q7 0 14 1.5t14 3.5q2 -6 3.5 -11.5t2.5 -11l2 -11t1 -12.5q1 4 2.5 7.5t2 6t1.5 5 t1 5t0.5 4.5t0.5 5v2v2q2 0 4.5 -0.5t4.5 -0.5h4t4 1q0 -6 0.5 -10.5t1.5 -9t2.5 -8t3.5 -7.5q2 5 3 10.5t1.5 11t1 11.5t0.5 12q13 -6 29 -6z"
         id="glyph53" />
      <glyph
         glyph-name="X"
         unicode="X"
         horiz-adv-x="87"
         d="M90 68q-8 -8 -16.5 -16t-16.5 -17q7 -8 14.5 -15.5l15.5 -15.5q-9 0 -16 -1.5t-13 -3.5q-3 5 -7 10t-7 10l-8 -10l-8 -10q-3 0 -6.5 0.5t-6.5 0.5q-4 0 -8.5 -0.5t-9.5 -0.5l17.5 17.5t16.5 18.5q-8 9 -15.5 16.5t-16.5 15.5q8 0 16 1t15 4q7 -11 14 -21q4 5 7 9t7 9 q4 -1 8.5 -1.5t8.5 -0.5t7.5 0.5t7.5 0.5z"
         id="glyph54" />
      <glyph
         glyph-name="Y"
         unicode="Y"
         horiz-adv-x="88"
         d="M95 71q-12 -10 -22 -21t-18 -23v-1.5v-1.5q0 -7 1.5 -13t4.5 -12q-6 2 -11.5 2.5t-11.5 0.5q-8 0 -15 -1q3 7 5 14t3 14q-6 12 -14 21.5t-19 18.5q4 -1 8 -1.5t8 -0.5q5 0 9 1l8 2q2 -7 5.5 -13t8.5 -11q5 5 8.5 11t5.5 13q4 -1 8 -1h8q5 0 10 0.5t10 1.5z"
         id="glyph55" />
      <glyph
         glyph-name="Z"
         unicode="Z"
         horiz-adv-x="79"
         d="M76 -2h-3.5h-3.5q-10 0 -19 0.5t-17.5 1.5t-16.5 2.5t-17 3.5q3 0 5.5 0.5t5.5 1.5l10 12t10 12.5t9.5 13.5t7.5 14q-11 -3 -21.5 -7.5t-21.5 -9.5q1 5 1.5 9t0.5 8v6t-1 5q7 1 13.5 1.5t12.5 0.5q13 0 25.5 -2t24.5 -5q-2 0 -4.5 -0.5t-4.5 -0.5q-2 -6 -5 -12.5t-7 -13 t-8.5 -12.5t-8.5 -11q8 2 15.5 5t15.5 7q-1 -3 -1 -6v-5q-1 -10 3 -19z"
         id="glyph56" />
      <glyph
         glyph-name="zero"
         unicode="0"
         d="M80 42q0 -2 0.5 -4t0.5 -4q0 -8 -2.5 -15t-7.5 -12.5t-12 -8.5t-15 -3t-14.5 2.5t-10.5 7t-6 10t-2 11.5v4q-2 -1 -4 -1.5t-4 -1.5q0 2 -0.5 4t-0.5 4q0 5 1 10t3.5 9.5t5.5 8t7 6t9 4t11 1.5q8 0 14.5 -2.5t10.5 -7t6 -10t2 -11.5q0 -2 -1 -3q2 0 4.5 0.5t4.5 1.5z M19 31q1 -4 3 -6.5t4 -4.5t4 -3t3.5 -2t3 -1h2.5q4 0 6.5 2t4.5 5t3 6.5t1 7.5v2.5v2.5q3 -1 5 -1h5q-1 4 -3 6.5t-4 4.5t-4 3t-3.5 1.5t-3 0.5h-2.5q-4 0 -6.5 -1.5t-4.5 -4.5t-3 -6.5t-1 -7.5v-2.5v-3.5q-2 1 -4.5 1.5t-4.5 0.5h-1z"
         id="glyph57" />
      <glyph
         glyph-name="one"
         unicode="1"
         horiz-adv-x="45"
         d="M42 72q-2 -11 -3 -21.5t-1 -21.5q0 -7 0.5 -14.5t1.5 -14.5q-8 0 -17 -2t-17 -4q2 6 4 11.5t3.5 12t2 13t0.5 13.5v3q-3 -2 -6 -4.5t-5 -6.5v5.5v5.5q0 6 -0.5 11t-2.5 10h5.5h5.5q7 0 14.5 1t14.5 3z"
         id="glyph58" />
      <glyph
         glyph-name="two"
         unicode="2"
         horiz-adv-x="80"
         d="M79 24q-2 -4 -3 -7l-2 -6t-1 -6.5v-7.5q-4 -1 -8 -1.5t-7.5 -1t-7.5 -1t-7 -0.5q-13 0 -23.5 4.5t-18.5 13.5q4 -1 7 -1q2 5 5 8.5t6.5 6t6.5 4.5t6 3.5t6 3.5t5 4t3 5t1 7v3q-5 0 -10 -1.5l-10 -3t-9.5 -4.5t-8.5 -6q0 8 -1.5 14.5t-5.5 12.5q3 1 6.5 2.5t6.5 2t6.5 1 t6.5 1t5.5 0.5h4.5q6 0 12 -1.5t11 -4t9 -7t8 -10.5q-4 1 -8 3q0 -1 0.5 -1.5l0.5 -0.5q0 -5 -1.5 -9t-3 -7t-4 -5t-5.5 -4l-6 -4t-6 -3.5t-5.5 -4t-4.5 -5.5q6 1 11.5 2t11 3l11 4t10.5 5z"
         id="glyph59" />
      <glyph
         glyph-name="three"
         unicode="3"
         horiz-adv-x="76"
         d="M74 21q-6 -12 -17 -18.5t-27 -6.5h-5.5t-7 0.5l-7 1t-6.5 0.5q3 6 4 11.5t1 12.5q4 -2 9 -3.5t9.5 -2.5t9 -1.5t8.5 -0.5v0.5v0.5q0 3 -1 5t-3 3.5t-4 2.5t-3.5 1.5t-3 0.5t-0.5 0l-1 11q4 0 7 0.5t5 2t3 3t1.5 3.5t1 3.5t0.5 2.5v1v1q-5 0 -10 -1t-9.5 -2.5t-9 -3.5 t-8.5 -5q-1 6 -3.5 12t-6.5 12q3 1 8 2.5t9.5 2t8.5 1t8 0.5q7 0 13.5 -1.5t12 -4.5t10 -7.5t6.5 -9.5l-7 2q0 -2 -0.5 -4t-1.5 -4t-2 -3.5t-3 -2.5q-3 -3 -6 -5l6 -4q1 -1 2 -2.5l2 -3t1.5 -3t0.5 -3.5l3 1.5z"
         id="glyph60" />
      <glyph
         glyph-name="four"
         unicode="4"
         horiz-adv-x="76"
         d="M73 3h-1.5h-1.5q-4 0 -7.5 -0.5t-7.5 -1.5t-7.5 -2t-6.5 -3q1 3 2 6.5t1.5 6.5t1.5 6.5t2 7.5h-7h-7h-8.5t-9 -0.5l-9 -1t-8.5 -1.5q7 12 11.5 25t6.5 27q2 -1 4.5 -1t5 -0.5t5 -0.5h4.5h6t5 1q-6 -7 -10.5 -15t-8.5 -18h3.5h3.5h6.5t6.5 1q0 8 -2 18q1 0 2.5 -0.5 t2.5 -0.5q2 0 4.5 0.5t5.5 1l6 1t5 1.5q-1 -6 -1 -12.5v-12.5q0 -8 0.5 -16t1.5 -16z"
         id="glyph61" />
      <glyph
         glyph-name="thorn"
         unicode="þ"
         horiz-adv-x="77"
         d="M36 62q0 -2 -0.5 -5t-0.5 -5v0q3 0 6.5 -0.5t8 -1t8.5 -1t7 -2.5t5.5 -4.5t3.5 -5.5q1 1 2.5 1.5t2.5 0.5q-1 -7 -4.5 -13t-9 -10.5t-12.5 -7t-14 -2.5h-2h-2v-8q-2 0 -3 0.5t-3 0.5q-5 0 -10.5 -1.5t-12.5 -3.5q2 4 3.5 9.5t2.5 10.5q-3 2 -5 3.5t-3 3.5q2 -1 4.5 -1.5 t4.5 -0.5q1 3 1 6v6l-10 -4q1 2 1.5 4.5t0.5 5.5q0 4 -1 6.5t-2 5.5q3 0 5.5 0.5t5.5 0.5q0 2 -0.5 3.5t-1.5 3.5q6 0 12 1t12 4zM46 37q-5 0 -11 -1v-8v-11q3 0 5.5 1.5t4.5 3t3.5 4t1.5 5.5q4 0 8 1q-2 2 -5 3.5t-7 1.5z"
         id="glyph62" />
      <glyph
         glyph-name="question"
         unicode="?"
         horiz-adv-x="80"
         d="M78 51q-4 1 -7 3v-1.5v-0.5q0 -4 -1 -7t-3 -5t-4.5 -4t-5 -3.5l-5 -3t-4.5 -3t-3 -3.5t-1 -4q-4 1 -8 1h-6q-3 0 -6 -1q0 3 1 5.5t2.5 4.5t4 3.5t4.5 3l4 3t4 3.5t3 4.5t1 5.5q0 2 -1 3q-5 0 -10 -1.5l-10 -3t-9.5 -4.5t-7.5 -6q0 8 -2 14.5t-5 12.5q4 2 9 3.5t10 2.5 t9.5 1h7.5q6 0 11.5 -1.5t10.5 -4t9.5 -7t7.5 -10.5zM47 8q0 -4 -3.5 -6t-9.5 -2q-3 0 -5.5 0.5t-4 1.5t-2.5 2t-1 3t1 3.5t3 2.5t4.5 1.5t5.5 0.5t5 -0.5t3.5 -1.5t2.5 -2t1 -3z"
         id="glyph63" />
      <glyph
         glyph-name="at"
         unicode="@"
         horiz-adv-x="101"
         d="M79 23q-1 -1 -2.5 -1.5t-2.5 -1.5q1 -2 2 -3t1 -3q4 3 6.5 8t2.5 11q0 4 -2 8t-6 7t-10 4.5t-14 1.5q-2 0 -5 -0.5t-6 -1.5q0 1 -0.5 2.5t-1.5 2.5q-5 -2 -9.5 -4.5t-7.5 -6t-5 -8.5t-2 -11q0 -3 1 -6t2.5 -6t4 -5.5t5.5 -5t6.5 -3.5t8.5 -1q2 0 5 0.5t6 1.5q0 -1 1 -3 l2 -4l2 -4t2 -3q-2 -1 -5 -1q-2 0 -5 -0.5t-7 -0.5q-8 0 -14 1.5t-11 4.5t-8 7t-5.5 8.5t-3 9t-0.5 9.5t2 9.5t4.5 8.5t5.5 7t7 5t8 3l8 2q-1 2 -2 3l-2 2q2 1 5 1q2 0 5.5 0.5t7.5 0.5q11 0 19.5 -2.5t14.5 -7t8.5 -10.5t2.5 -12t-1.5 -11.5t-5 -9t-7.5 -6t-9 -3.5 t-9.5 -0.5t-9.5 2.5h3.5h3.5v1v1q0 3 -1 7h-6q-4 0 -8 1q-1 -2 -1.5 -4.5t-0.5 -5.5l-4 2t-3.5 1h-4.5q-2 0 -4 -0.5t-5 -0.5l4 4t3.5 4t2.5 4t2 3q-1 1 -1.5 2.5t-1.5 2.5q1 -1 2.5 -1.5t2.5 -0.5q1 3 2.5 5.5t3.5 4.5q0 1 -0.5 2t-1.5 2.5t-1.5 2.5t-1.5 2q6 -2 12 -2 q3 3 8 5q-1 -1 -1.5 -2l-1.5 -3q2 0 3.5 0.5t3.5 0.5q1 -4 2.5 -8t2.5 -8q1 1 2.5 2t3.5 1q1 -3 2 -5.5t2 -4.5zM58 26q-1 2 -2.5 4.5t-2.5 5.5q-1 -2 -2 -5t-1 -6h1h1q2 0 3 0.5t3 0.5z"
         id="glyph64" />
      <glyph
         glyph-name="pi"
         unicode="π"
         horiz-adv-x="65"
         d="M32 -1q-3 0 -5.5 -0.5t-5 -0.5t-5 -1t-6.5 -2q-1 11 0.5 22.5t5.5 23.5q-4 -1 -7 -2t-7 -3q2 7 2 13q0 5 -2 11q5 -1 11 -2t11 -1q1 2 2.5 4t3.5 4l-1 -9h6.5h6.5h1q1 3 2.5 5.5t3.5 5.5v-5.5v-5.5q4 0 8 0.5t9 0.5q-1 -2 -2 -3.5t-1 -4.5q0 -2 0.5 -3.5l1.5 -4.5 q-4 1 -8 1.5t-7 0.5q1 -12 3 -23.5t5 -22.5q-3 1 -5.5 2t-5 1.5t-5.5 0.5h-7q-1 11 0 21.5t4 21.5q-3 0 -5.5 -0.5t-5.5 -0.5q0 -5 -0.5 -11t0 -11.5t1.5 -10.5t3 -11z"
         id="glyph65" />
      <glyph
         glyph-name="ae"
         unicode="æ"
         horiz-adv-x="116"
         d="M72 0h-5.5h-5.5t-6 -0.5t-6 -1.5l2 6t1 7q-7 -1 -12 -2q-2 0 -4 0.5t-4 0.5q-3 -7 -5 -14q-2 1 -6 2q-3 1 -6 1.5t-7 0.5q-3 0 -6.5 -0.5t-7.5 -1.5q3 2 5 4.5l4 5t4.5 5l4.5 4.5l1 2l-4.5 4.5t-4.5 6.5q4 -2 7.5 -3t6.5 -2q3 3 6 6.5t6.5 6.5t7.5 6l8 6l-14 1v0 q4 2 9.5 3t11.5 2l-0.5 0.5q-0.5 0.5 -0.5 1.5q1 0 2 -0.5t3 -0.5h3l6 2l6 2q-1 -1 -2 -1.5t-1 -1.5q6 0 11.5 0.5t10.5 0.5q2 0 5 -0.5t6 -0.5h5.5h5.5q-2 -7 -2 -15v-3v-3q-7 3 -15.5 5t-18.5 3q0 -3 -0.5 -6t-0.5 -6q4 1 8.5 1.5t9.5 0.5q-1 -2 -1 -3.5v-3.5v-3.5t1 -3.5 q-4 2 -8.5 3.5t-9.5 2.5q0 -4 0.5 -8t0.5 -8q8 1 16.5 3t17.5 4q-1 -3 -1 -6v-6v-5t1 -5q-8 2 -16.5 3t-16.5 2v-1h-6zM39 23l8 2t8 3v3.5v2.5v4.5t-1 5.5q-4 -4 -7.5 -9.5t-7.5 -11.5z"
         id="glyph66" />
      <glyph
         glyph-name="oslash"
         unicode="ø"
         horiz-adv-x="83"
         d="M81 28q0 -5 -2 -9.5t-5 -8t-7.5 -6t-9.5 -4t-10.5 -2.5t-11.5 -1h-3.5h-3t-3 0.5t-2.5 0.5q-2 -2 -5 -3.5t-5 -3.5q2 3 4.5 6.5t4.5 6.5q-4 1 -7.5 3t-6 4.5t-4 6t-1.5 7.5q0 5 1.5 9.5t4.5 8t7.5 6t9 4t10 3t11.5 1.5q1 2 1 4.5t1 5.5q2 -2 5 -3.5t6 -2l6 -1t6 -0.5 q-2 -3 -3.5 -5.5t-3.5 -6.5q3 -1 6 -3t5 -4.5t3.5 -5.5t1.5 -7zM28 14q4 6 7 12t5 12q-3 0 -6 -1t-5 -3t-3.5 -4.5t-1.5 -6.5q0 -3 1 -5t3 -4zM58 37q-4 -6 -8 -11t-9 -10h1q3 0 6.5 1t5.5 3t3.5 4.5t1.5 6.5v3.5t-1 2.5z"
         id="glyph67" />
      <glyph
         glyph-name="AE"
         unicode="Æ"
         horiz-adv-x="127"
         d="M86 0h-7.5h-7.5t-8 -0.5t-8 -1.5l2 8t2 7q-4 -1 -8 -1h-7h-5h-5q-2 -4 -3.5 -8t-2.5 -8q-2 1 -5 2t-6.5 2t-8.5 1q-4 0 -7.5 -1t-7.5 -2l5.5 5.5t5 6l5 7t5.5 6.5q-5 5 -9 14q4 -2 7.5 -3.5t6.5 -2.5q3 4 7 8t8 8.5t8 8q4 2.5 9 6.5q-4 1 -8 1.5t-7 0.5q5 2 11 3.5 t13 2.5l-1 2q1 0 2 -0.5t2 -0.5h2q7 3 14 5l-2 -2l-2 -2q7 1 14 1h13h5.5h6.5t6 -0.5t5 -0.5q-2 -9 -2 -19v-7q-8 3 -17.5 6t-20.5 5q0 -4 -0.5 -8t-0.5 -7q10 2 20 2q-1 -2 -1 -4.5v-4.5v-4t1 -3q-5 2 -10 3.5t-10 3.5q0 -5 0.5 -10.5t0.5 -11.5q19 3 38 9q-1 -4 -1 -7v-7 q0 -3 0.5 -6.5t0.5 -6.5l-18 4t-19 3v-0.5v-1.5zM42 29q10 1 20 6v4v4v7t-1 7q-5 -6 -9.5 -12.5t-9.5 -15.5z"
         id="glyph68" />
      <glyph
         glyph-name="Oslash"
         unicode="Ø"
         horiz-adv-x="91"
         d="M89 35q0 -7 -2 -12.5t-5.5 -10t-8.5 -7.5t-10.5 -5t-11.5 -3t-13 -1h-3.5t-3.5 0.5t-3.5 0.5h-2.5q-3 -2 -5.5 -4t-5.5 -4q3 4 5.5 8t4.5 8q-5 1 -8.5 3t-6.5 5.5t-5 8t-2 10.5q0 7 2 12t5.5 9.5t8.5 7.5t10.5 5t11.5 3.5t13 1.5q1 3 1 5.5t1 5.5q2 -2 5 -3.5t6.5 -2 t6.5 -1t6 -0.5l-3.5 -7l-3.5 -7q4 -2 7 -4.5t5 -6t3.5 -7t1.5 -8.5zM31 16q4 8 7.5 16t6.5 16v0q-4 0 -7.5 -1.5t-6.5 -4t-5 -6t-2 -7.5t2 -7t5 -6zM64 48q-5 -7 -9.5 -14.5t-9.5 -14.5h0.5h0.5q4 0 7.5 1.5t6.5 4t5 6t2 8.5q0 3 -1 5z"
         id="glyph69" />
      <glyph
         glyph-name="approxequal"
         unicode="≈"
         horiz-adv-x="54"
         d="M45.9766 57.3984q1 -1 2 -3q1 -1 1 -3.5v-5.5t-0.5 -5.5t-2 -4t-3.5 -2t-5 -0.5t-4.5 1l-3 2t-2.5 2.5t-2 2.5l-2 2t-2 1t-2 -1t-1 -2q0 -2 0.5 -3.5t1.5 -2.5h-2.5h-3.5h-4t-4 -1q-1 1 -1 3q0 1 -0.5 3.5t-0.5 5.5t1 5t3 3t4 1.5t4 0.5q3 0 4.5 -0.5t3 -2t2.5 -3l2 -3 t2 -2.5t2 -1q2 0 2.5 1t0.5 3q0 1 -0.5 2l-1 2l-1 2t-1.5 2h5h4t5 1zM45.9766 32.8379q1 -1 2 -3q1 -1 1 -3.5v-5.5t-0.5 -5.5t-2 -4t-3.5 -2t-5 -0.5t-4.5 1l-3 2t-2.5 2.5t-2 2.5l-2 2t-2 1t-2 -1t-1 -2q0 -2 0.5 -3.5t1.5 -2.5h-2.5h-3.5h-4t-4 -1q-1 1 -1 3 q0 1 -0.5 3.5t-0.5 5.5t1 5t3 3t4 1.5t4 0.5q3 0 4.5 -0.5t3 -2t2.5 -3l2 -3t2 -2.5t2 -1q2 0 2.5 1t0.5 3q0 1 -0.5 2l-1 2l-1 2t-1.5 2h5h4t5 1z"
         id="glyph70" />
      <glyph
         glyph-name="Euro"
         unicode="€"
         horiz-adv-x="77"
         d="M73 27q-1 -4 -2 -7t-3 -5.5t-4.5 -4t-5 -2l-5 -1t-5.5 -0.5q-9 0 -15 3.5t-10 10.5h-5h-5.5t-5 -0.5t-5.5 -1.5q1 1 1.5 3t1.5 3.5t1.5 3.5t0.5 3q6 -2 12 -2q0 1 -0.5 2.5t-0.5 2.5q1 0 2 -0.5l1 -0.5q0 1 0.5 1.5t0.5 1.5q-4 0 -7.5 -0.5t-6.5 -1.5q1 1 1.5 3t1 3.5 t1 3.5t0.5 3q6 -2 13 -2q2 4 5.5 7t7.5 5t9 3t11 1h6.5t8.5 -1q-1 -3 -1.5 -6.5t-0.5 -6.5v-3.5v-2.5q-4 3 -8 4t-7 1t-6.5 -1t-6.5 -2.5t-5.5 -4t-3.5 -5.5q1 0 2.5 0.5t3.5 0.5q0 -1 -0.5 -1.5t-0.5 -1.5q0 -3 1.5 -5.5t3.5 -4t4.5 -2.5t5.5 -1q2 0 4 0.5t4.5 1t5 2 t5.5 4.5z"
         id="glyph71" />
      <glyph
         glyph-name="sterling"
         unicode="£"
         horiz-adv-x="56"
         d="M52 8q-5 2 -10.5 3t-12 1h-12.5t-13 -2l3.5 3.5l3.5 3.5q1 4 1.5 7.5t0.5 6.5h-4.5t-3.5 -1q0 1 0.5 3t0 3.5t-0.5 3v3.5l8 -2q0 1 -0.5 2t-0.5 2v2v3q-3 -1 -5 -2t-3 -2q1 5 4 8.5t6.5 6t7.5 4t8.5 2t9.5 1t9 0.5q-1 -2 -1.5 -4.5t-1 -4.5t-0.5 -4.5v-4.5q-4 2 -8.5 3 t-9.5 0v-6v-6q2 0 4 0.5t4 1.5q0 -1 -0.5 -2.5t-0.5 -3.5t0.5 -3.5t0.5 -2.5h-9q0 -2 -0.5 -4.5t-1.5 -4.5q6 1 13 1.5t15 1.5q0 -1 -0.5 -3t-1 -4.5t0 -5t0.5 -4.5z"
         id="glyph72" />
      <glyph
         glyph-name="germandbls"
         unicode="ß"
         horiz-adv-x="151"
         d="M73 27v-2v-2q0 -4 -1.5 -7.5t-4 -6.5t-6 -5.5t-7.5 -4t-8.5 -2.5t-8.5 -1q-3 0 -6.5 0.5t-6.5 0.5t-6 -0.5t-6 -1.5l-3.5 10.5t-3.5 7.5q-2 4 -4 7q6 -3 11.5 -4.5t10 -2.5t8.5 -1h6h5t5 1q-2 2 -4.5 3t-5.5 2l-6 2l-6 2t-5.5 2t-5.5 3t-4 5l-2 6q-2 -1 -3 -1t-2 -1 q-1 0 -1 -1q2 4 4.5 8t6 6.5t7.5 4t8 2.5q9 3 20 3h7q3 0 7.5 0.5t9.5 1.5l-2 -4t-1.5 -4.5t-1 -4.5t-0.5 -4q0 -1 0.5 -2t0.5 -2v-2q-8 3 -15.5 4.5t-14.5 1.5h-3.5h-3.5q0 -2 1.5 -3.5t2.5 -1.5q1 -1 3 -2q3 -1 7 -2t7.5 -3t7.5 -4.5t6 -6.5q2 1 3.5 2.5zM148.684 27v-2 v-2q0 -4 -1.5 -7.5t-4 -6.5t-6 -5.5t-7.5 -4t-8.5 -2.5t-8.5 -1q-3 0 -6.5 0.5t-6.5 0.5t-6 -0.5t-6 -1.5l-3.5 10.5t-3.5 7.5q-2 4 -4 7q6 -3 11.5 -4.5t10 -2.5t8.5 -1h6h5t5 1q-2 2 -4.5 3t-5.5 2l-6 2l-6 2t-5.5 2t-5.5 3t-4 5l-2 6q-2 -1 -3 -1t-2 -1q-1 0 -1 -1 q2 4 4.5 8t6 6.5t7.5 4t8 2.5q9 3 20 3h7q3 0 7.5 0.5t9.5 1.5l-2 -4t-1.5 -4.5t-1 -4.5t-0.5 -4q0 -1 0.5 -2t0.5 -2v-2q-8 3 -15.5 4.5t-14.5 1.5h-3.5h-3.5q0 -2 1.5 -3.5t2.5 -1.5q1 -1 3 -2q3 -1 7 -2t7.5 -3t7.5 -4.5t6 -6.5q2 1 3.5 2.5z"
         id="glyph73" />
      <glyph
         glyph-name="registered"
         unicode="®"
         horiz-adv-x="78"
         d="M22 13q-4 1 -7 3t-5.5 4.5t-4 6.5t-1.5 8t1 7.5t2.5 7t4.5 6t7.5 4.5t9.5 3.5t11 1.5q4 0 7.5 -0.5t5.5 -1.5q3 -1 5 -1l-0.5 -0.5l-1.5 -1.5q4 -1 7.5 -2.5t6 -4.5t4 -6.5t1.5 -8.5q0 -4 -1 -7.5t-3 -6.5t-5 -6t-7 -5t-9 -3t-12 -1q-4 0 -7 0.5t-6 0.5q-3 1 -5 1zM15 33 q0 -6 3 -9.5t8 -6.5q1 2 2 5q3 -1 6 -1.5t5 -0.5q6 0 10.5 1t7.5 3.5t5 6.5t2 9q0 6 -3 10t-8 6q-1 -1 -1.5 -2t-0.5 -2q-3 1 -6 1.5t-5 0.5q-6 0 -10.5 -1.5t-7.5 -4t-5 -6.5t-2 -9zM58 27q-3 0 -6 -1t-6 -3q0 2 -0.5 4.5t-1.5 3.5h-2h-1h-0.5h-1.5q0 -3 1 -6h-2h-1 q-2 0 -4.5 -0.5t-5.5 -1.5l2 6t1 5l-2 2l-2 2q1 0 2 -0.5t3 -0.5v5v0q-1 0 -2.5 -0.5t-2.5 -0.5q1 2 1 3t-0.5 2.5t-0.5 3.5q4 1 7.5 1h6.5h2.5t3 -0.5t3.5 -1t3 -1t2 -1.5t2 -3l0.5 0.5l1.5 1.5q-1 -3 -2.5 -6t-4.5 -5q2 -2 3.5 -4t3.5 -4zM44 44h-5v-4v-4q2 0 4 1.5t3 4.5 h1.5h1.5v0v0l-0.5 1q-0.5 1 -1.5 1h-1.5h-1.5z"
         id="glyph74" />
      <glyph
         glyph-name="copyright"
         unicode="©"
         horiz-adv-x="78"
         d="M22 13q-4 1 -7 3t-5.5 4.5t-4 6.5t-1.5 8t1 7.5t2.5 7t4.5 6t7.5 4.5t9.5 3.5t11 1.5q4 0 7.5 -0.5t5.5 -1.5q3 -1 5 -1l-0.5 -0.5l-1.5 -1.5q4 -1 7.5 -2.5t6 -4.5t4 -6.5t1.5 -8.5q0 -4 -1 -7.5t-3 -6.5t-5 -6t-7 -5t-9 -3t-12 -1q-4 0 -7 0.5t-6 0.5q-3 1 -5 1zM15 33 q0 -6 3 -9.5t8 -6.5q1 2 2 5q3 -1 6 -1.5t5 -0.5q6 0 10.5 1t7.5 3.5t5 6.5t2 9q0 6 -3 10t-8 6q-1 -1 -1.5 -2t-0.5 -2q-3 1 -6 1.5t-5 0.5q-6 0 -10.5 -1.5t-7.5 -4t-5 -6.5t-2 -9zM53 34q0 -2 -1.5 -4.5t-3.5 -3.5t-4 -1.5t-4 -0.5q-7 0 -11.5 3.5t-5.5 10.5l0.5 -0.5 q0.5 -0.5 1.5 -0.5q0 3 2 5.5t4.5 4.5t6 2.5t6.5 0.5h4h5q-1 -1 -1 -3v-3v-2v-2q-3 2 -5 2.5t-3 0.5q-2 0 -3.5 -0.5l-3 -1t-3 -2t-1.5 -2.5l2 1v-1v-1q0 -3 2 -4.5t5 -1.5h2.5t2.5 0.5t2.5 1.5t3.5 2z"
         id="glyph75" />
      <glyph
         glyph-name="five"
         unicode="5"
         horiz-adv-x="76"
         d="M71 14q-1 -5 -4 -9t-7 -6.5t-10 -4t-13.5 -1.5t-16.5 2t-19 7l8 25l4.5 -4.5t5.5 -4t6.5 -3t6.5 -2.5t6 -1t5.5 1t3.5 2.5t2 4.5q0 2 -1 4t-3.5 4t-5.5 3.5t-6.5 2.5l-7 2t-7 1.5t-7 0.5t-5.5 -1q2 3 6 4l1 22l-4 4t-3 5q8 -1 16.5 -1.5t17.5 0t18 1.5t18 4 q-2 -6 -3.5 -12t-1.5 -12q-11 0 -20.5 0.5t-17.5 2.5l-1 -11h6t5 -1q3 0 5 -1q5 -1 9 -3t6.5 -4t4.5 -5t2.5 -5.5t1 -5.5t-0.5 -5z"
         id="glyph76" />
      <glyph
         glyph-name="six"
         unicode="6"
         horiz-adv-x="76"
         d="M43 -7q-5 0 -10 1t-9.5 3t-8.5 4.5t-8 4.5q2 1 3.5 1.5t3.5 1.5q-6 5 -9 11t-3 13q0 6 2 12.5t6.5 12t11 10.5t14.5 9l5 -5t6.5 -5.5t7.5 -5t8 -3.5q-6 0 -11.5 -2t-10 -4t-8 -5t-6 -7t-4 -7.5t-1.5 -8.5q0 -2 0.5 -3.5t1.5 -3.5q2 2 3.5 4.5t2.5 5.5q2 -2 3.5 -4 t3.5 -3.5t3.5 -2t4.5 -0.5q2 0 4 0.5t3.5 2t2.5 3.5t1 4q0 3 -1 5t-3 3.5t-4.5 2t-5.5 0.5t-5 -1l-4 -2q1 3 3 5t4.5 3.5t5.5 2.5t6 1q5 0 9 -2t7.5 -5t5.5 -7t2 -10q0 -5 -1.5 -8.5t-3.5 -7t-5 -6t-7 -4.5t-8 -3t-8 -1z"
         id="glyph77" />
      <glyph
         glyph-name="seven"
         unicode="7"
         horiz-adv-x="71"
         d="M74 72q-5 -8 -9 -17.5t-7 -20t-5.5 -21t-3.5 -21.5q-4 2 -8.5 3.5t-9.5 2.5t-10 1h-9q5 6 9.5 13t8.5 14t7 14t5 14q-5 -1 -10.5 -2.5t-10.5 -3t-10 -3.5t-9 -4q5 17 -2 31q6 -1 12 -1t12.5 -0.5t13 -0.5t12.5 0.5t12 0.5t12 1z"
         id="glyph78" />
      <glyph
         glyph-name="nine"
         unicode="9"
         horiz-adv-x="76"
         d="M34 75q5 0 10 -1t9.5 -2.5t8.5 -4t7 -5.5q-3 -1 -6 -3q6 -5 8.5 -11t2.5 -13q0 -6 -2 -12t-6 -11.5t-10.5 -11t-15.5 -9.5q-3 3 -6 5.5t-7 4.5l-8 4l-8 4q7 0 12.5 2t10.5 4.5t8.5 5.5t6 7t4 8t1.5 8q0 3 -1 7q-2 -2 -3.5 -4.5t-2.5 -4.5q-2 2 -3.5 4t-3.5 3l-4 2t-4 1 t-4 -1t-3.5 -2t-2.5 -3t-1 -5t1 -4.5t3 -3t4.5 -2t4.5 -0.5q3 0 5.5 0.5t3.5 2.5q-1 -3 -2.5 -5.5t-4 -4t-5.5 -2t-6 -0.5q-5 0 -9.5 1.5t-7.5 4.5t-5 7.5t-2 9.5q0 7 2.5 12.5t7 9.5t11 6t12.5 2z"
         id="glyph79" />
      <glyph
         glyph-name="eight"
         unicode="8"
         horiz-adv-x="83"
         d="M10 19q1 4 3.5 7t6.5 6q-2 2 -4 3.5t-3.5 4t-2 5.5t-0.5 7v1v1q-2 0 -4 -1l-4 -2q3 6 7.5 10.5t9.5 7t11 4t12 1.5h5t6.5 -0.5l7 -1t7.5 -1t7.5 -1.5t6.5 -3q-4 -6 -5.5 -12.5t-1.5 -14.5q-1 1 -2.5 2t-3.5 2q-1 -2 -2.5 -4t-4 -4t-4.5 -3l-4 -2q3 -2 5.5 -3.5t5 -4 t4.5 -5.5t3 -7q3 0 5.5 0.5t4.5 1.5q-4 -6 -8.5 -10t-9.5 -6.5t-11 -3.5t-12 -1q-8 0 -14.5 1t-10.5 2q-5 1 -8 2q0 4 -0.5 7.5t-1.5 6.5l-2 6t-3 7zM33 55v-3q0 -4 1 -6.5t3 -4.5l4 2t3.5 2.5t2.5 3.5t1 4q-4 1 -7.5 1.5t-7.5 0.5zM37 22q-2 -2 -3 -4.5t-1 -5.5v-1.5v-0.5 q3 -1 7 -1h8q0 2 -1 4t-2.5 3.5t-3.5 3t-4 2.5z"
         id="glyph80" />
      <glyph
         glyph-name="a"
         unicode="a"
         d="M79 18q-2 -1 -4 -1.5t-4 -1.5q4 -8 10 -15q-8 0 -15 -1.5t-14 -5.5q1 1 1 2.5v3.5t-0.5 5t-1.5 6q-2 0 -4 -0.5t-4 -0.5q-3 0 -6.5 0.5t-6.5 1.5q-1 -4 -1.5 -7.5t-1.5 -7.5q-2 1 -5 2t-6.5 1.5t-6.5 0.5t-7 -0.5t-8 -1.5q3 3 6 6.5t5.5 7t4.5 6t3 4.5q-1 2 -2.5 4 t-2.5 4l4 -2t4 -1q2 4 4.5 8t5.5 7q-1 1 -2 3.5t-2 4t-2 3.5l-2 4q5 -1 9.5 -2t9.5 -1q3 2 5.5 4t5.5 3q-1 -2 -1.5 -3.5t-1.5 -3.5q2 0 4.5 0.5t5.5 0.5q2 -7 4 -13l4 -12q2 1 4.5 2.5t4.5 2.5q2 -5 3.5 -9.5t3.5 -7.5zM46 24q-2 4 -4 7.5t-4 7.5q-3 -8 -5 -16h1.5h1.5h5 t5 1z"
         id="glyph81" />
      <glyph
         glyph-name="b"
         unicode="b"
         horiz-adv-x="77"
         d="M73 10q0 -3 -1.5 -5.5t-4 -4.5t-6 -3.5t-7.5 -2.5t-8.5 -1h-8.5h-6.5t-7 0.5t-6.5 1t-5 1.5v1q-2 0 -3 -0.5l-3 -1.5q3 7 5 14.5t3 15.5q-3 2 -6 3.5t-4 3.5q2 -1 4.5 -1.5t5.5 -0.5q0 2 0.5 4.5t0.5 4.5v1q-3 -1 -5.5 -2t-5.5 -2q1 2 1.5 4.5t0.5 4.5q0 3 -1 6.5t-3 5.5 q5 1 9.5 1.5t8 1t7 0.5h6.5h6t7 -0.5t7.5 -1.5t6.5 -2t6 -3t4 -4l4 2v-2v-2q0 -3 -0.5 -6t-2 -6t-4 -5.5l-4.5 -4.5q2 -1 4 -2.5t3 -3t1.5 -3.5t1 -3t0.5 -1.5v-1.5zM40 17h-5v-4v-4q2 -1 3.5 -1h3.5t4 0.5t4 2t3.5 3t1.5 4.5q0 1 -1 2q-3 -2 -6.5 -2.5t-7.5 -0.5zM43 45h-4 t-4 -1v-7.5v-7.5q5 1 8 4t4 9l4 1q-2 1 -4 1.5t-4 0.5z"
         id="glyph82" />
      <glyph
         glyph-name="c"
         unicode="c"
         horiz-adv-x="76"
         d="M73 19q-1 -4 -2.5 -7t-4 -5.5t-5.5 -4.5t-6.5 -3.5t-7 -2t-6.5 -0.5q-8 0 -14.5 2t-11.5 6t-8.5 10.5t-4.5 14.5q1 0 2 -0.5t2 -1.5q1 8 5 14t10 10t14 6t17 2q4 0 9 -0.5t11 -0.5q-1 -4 -1.5 -7.5t-0.5 -7.5v-4t1 -4q-3 2 -6 3t-5.5 2t-5 1.5t-4.5 0.5q-4 0 -7.5 -1 t-7 -3t-6.5 -4.5t-5 -6.5q2 0 3.5 0.5t3.5 1.5v-2v-2q0 -4 1 -6.5t3.5 -4.5t5.5 -3t7 -1h4.5t6 1.5l7 3t7.5 4.5z"
         id="glyph83" />
      <glyph
         glyph-name="d"
         unicode="d"
         horiz-adv-x="78"
         d="M76 32q0 -1 0.5 -1.5t0.5 -1.5q0 -4 -1.5 -8t-4.5 -8t-6.5 -6.5t-8 -5t-9.5 -3.5t-10 -1q-4 0 -8 0.5t-7 3.5q-4 0 -8.5 -1.5t-8.5 -2.5q4 10 6 20.5t2 21.5q-3 -1 -6 -4v3v2q0 10 -5 17q2 0 4 0.5t4.5 1l5 1t5 0.5h5h3.5q10 0 18 -2t13.5 -5.5t9 -8.5t3.5 -11v-1v-1 q1 0 3 1zM55 29q-1 4 -3.5 6.5t-5.5 4t-6.5 2t-6.5 0.5v-19v-8v-9q4 1 7.5 3.5t5.5 5t3.5 6.5t0.5 8h2.5h2.5z"
         id="glyph84" />
      <glyph
         glyph-name="e"
         unicode="e"
         horiz-adv-x="70"
         d="M33 0h-9h-7.5t-6.5 -0.5t-6 -1.5q3 9 4.5 18t1.5 18q0 8 -2 17h-6v0l6 2l-1 5q3 -1 5.5 -1.5t5.5 -1.5q8 2 16.5 2.5t17.5 0.5h7.5h7.5q-1 -4 -1.5 -7.5t-0.5 -7.5v-3t1 -3q-8 3 -16.5 5.5t-17.5 4.5q0 -3 -0.5 -6.5t-0.5 -7.5q4 1 8.5 1.5t8.5 0.5q0 -2 -0.5 -3.5 t-0.5 -3.5q0 -3 1 -7q-4 2 -8.5 3.5t-8.5 2.5v-8t1 -8q8 1 16.5 3t17.5 4q-1 -3 -1.5 -6t-0.5 -6q0 -5 1 -10q-8 2 -16 3l-16 2v-1z"
         id="glyph85" />
      <glyph
         glyph-name="f"
         unicode="f"
         horiz-adv-x="69"
         d="M33 0q-4 0 -8 -0.5t-7.5 -1t-7 -1.5t-6.5 -2q2 6 3 13t1.5 13.5l1 13t0.5 13.5l-7 1v0q2 1 3.5 1.5t3.5 0.5v7q3 0 6.5 -0.5t6.5 -0.5h4h4v-0.5v-0.5q5 1 9.5 1h9.5q4 0 8.5 -0.5t9.5 -0.5q-1 -3 -1 -6v-6v-5v-5q-9 3 -18 5.5t-19 4.5v-4v-4v-4q3 0 6.5 0.5t7.5 0.5v0 h0.5h1.5h2q-1 -2 -1 -4.5v-5.5q0 -2 0.5 -4t0.5 -5q-4 3 -8.5 5.5t-8.5 4.5q0 -6 0.5 -12t1.5 -12z"
         id="glyph86" />
      <glyph
         glyph-name="g"
         unicode="g"
         horiz-adv-x="77"
         d="M73 19q-1 -4 -1.5 -6.5t-2.5 -5.5v-5v-5l-11 -1l-2 2q-4 -1 -8 -1.5t-7 -0.5q-8 0 -14.5 2t-11.5 6t-8.5 10.5t-4.5 14.5q1 0 2 -0.5t2 -1.5q1 8 5 14t10 10t14 6t17 2q4 0 9 -0.5t11 -0.5q-1 -4 -1.5 -7.5t-0.5 -7.5v-4t1 -4q-3 2 -6 3t-5.5 2t-5 1.5t-4.5 0.5 q-4 0 -7.5 -1t-7.5 -3t-6.5 -4.5t-4.5 -6.5q2 0 3.5 0.5t3.5 1.5v-2v-2q0 -4 1 -6.5t3.5 -4.5t6 -3t7.5 -1h2q-2 4 -3.5 8.5t-1.5 9.5q3 0 5 -0.5t4 -0.5q4 0 8 1t9 3q-1 -4 -1.5 -7.5t-1.5 -6.5z"
         id="glyph87" />
      <glyph
         glyph-name="h"
         unicode="h"
         horiz-adv-x="81"
         d="M31 -1q-4 1 -7.5 1h-6.5q-6 0 -15 -2q4 8 6 17t2 19q0 6 -1 11.5t-2 11.5q3 -1 6 -1.5l6 -1t6 -0.5h6q0 -12 1 -25q4 0 7.5 0.5t7.5 0.5q1 7 1.5 14.5t3.5 15.5q3 -1 5 -2t4.5 -1.5t5 -0.5h5.5h4q-3 -5 -5 -10.5t-3 -11.5q2 0 4.5 1t4.5 1q-1 -5 -1 -11q0 -3 0.5 -5.5 t0.5 -5.5h-4h-5q1 -4 2 -7.5t2 -6.5h-2h-2h-1.5h-1.5q-4 0 -8.5 -1t-9.5 -2q-1 5 -1 10v10q-4 1 -7 2t-7 2q0 -6 -0.5 -11t-0.5 -11z"
         id="glyph88" />
      <glyph
         glyph-name="i"
         unicode="i"
         horiz-adv-x="35"
         d="M31 58q-1 -8 -2 -16.5t-1 -16.5q0 -6 0.5 -12.5t1.5 -12.5h-4h-4q-4 0 -8 -0.5t-9 -1.5q1 7 2 14.5t1 14.5q0 6 -1 12.5t-2 12.5q3 0 6 0.5t6.5 1.5t6.5 2t7 2z"
         id="glyph89" />
      <glyph
         glyph-name="j"
         unicode="j"
         horiz-adv-x="60"
         d="M60 21q-4 -6 -9.5 -10.5t-12.5 -7.5t-16 -5t-19 -3q0 3 -0.5 6t-0.5 5.5t-1 5t-3 5.5q7 -2 13.5 -3t11.5 -1q3 0 5.5 0.5t5.5 0.5q-1 12 -3 24t-6 23l14 -4t13 -2h3q-1 -3 -1.5 -7t-0.5 -7.5t-0.5 -7.5t-0.5 -8v-3.5v-2.5q2 1 4 1t4 1z"
         id="glyph90" />
      <glyph
         glyph-name="k"
         unicode="k"
         horiz-adv-x="76"
         d="M32 56q-2 -12 -2 -25q7 6 13.5 13t11.5 16q5 -5 10.5 -8.5t11.5 -6.5v0q-6 -5 -13 -9t-14 -7q5 -7 11 -13.5t13 -12.5v0q-13 -2 -25 -8q-3 8 -8 14.5t-11 12.5v-11t1 -11q-4 0 -7.5 -0.5l-7 -1t-7 -1.5t-7.5 -2q7 21 8 42q0 5 -0.5 10.5t-1.5 10.5q5 -1 9 -2t7 -1 q2 0 3.5 0.5t4.5 0.5z"
         id="glyph91" />
      <glyph
         glyph-name="l"
         unicode="l"
         horiz-adv-x="64"
         d="M65 -0q-8 1 -15.5 1.5t-14.5 0.5q-8 0 -16.5 -1t-18.5 -2q2 1 4.5 2.5t4.5 2.5q1 5 1.5 10.5t0.5 10.5q0 8 -1 15.5t-3 15.5h5q5 0 10.5 0.5t11.5 1.5q0 -11 -1 -22t-4 -22q8 3 16.5 5t17.5 4v-4v-4q0 -4 0.5 -7.5t1.5 -7.5z"
         id="glyph92" />
      <glyph
         glyph-name="m"
         unicode="m"
         horiz-adv-x="98"
         d="M92 56q-2 -4 -3 -7.5l-2 -7t-1.5 -6.5t-0.5 -5q0 -5 1.5 -9.5t3 -8t4 -6.5t4.5 -5h-3.5h-3.5t-4 -0.5l-4 -1t-4.5 -1t-4.5 -1.5q-2 6 -3.5 11.5t-2.5 11.5l-4 -10t-2 -11q-1 0 -3 -0.5t-4.5 -0.5t-6 -0.5t-6.5 -1.5q-1 7 -2.5 12.5t-3.5 10.5q-1 -6 -2.5 -11.5 t-3.5 -10.5q-10 4 -20 4h-4t-4 -1q8 7 12 16.5t4 20.5v3t-1 3q-4 3 -7.5 6.5t-8.5 7.5q2 0 5.5 -1t8.5 -1q4 0 9 1t11 3q3 -4 6 -10q3 -5 6 -12t5 -16l4 9q2 4 3 8t2.5 7.5t2.5 7.5l2 8q4 -2 7.5 -3t7 -1.5t6.5 -0.5h5z"
         id="glyph93" />
      <glyph
         glyph-name="n"
         unicode="n"
         d="M83 54q-6 -7 -9 -15t-3 -17q0 -5 0.5 -10t2.5 -10q-4 0 -8 -1q-3 -1 -7 -2t-8 -3q-3 8 -7.5 15.5t-10.5 14.5q1 -14 -4 -29q-9 3 -16 3q-2 0 -5 -0.5t-6 -0.5q6 7 9 15t3 17v6.5t-1 6.5q-3 2 -6 4.5t-7 4.5h8.5t8 0.5t7 2t7.5 3.5l21 -34v4.5v4.5q0 7 1.5 14t5.5 14 q6 -4 11.5 -6t12.5 -2z"
         id="glyph94" />
      <glyph
         glyph-name="o"
         unicode="o"
         horiz-adv-x="83"
         d="M65 57q-2 -1 -3.5 -3t-3.5 -3q5 -1 9 -3t7 -5t5 -7t2 -8q0 -5 -2 -9.5t-5 -8t-7.5 -6t-9.5 -4t-10.5 -2.5t-10.5 -1h-4.5t-4.5 0.5t-3.5 0.5h-2.5q1 1 2 2.5t2 2.5q-5 1 -8.5 2.5t-6.5 4.5t-5 6.5t-2 8.5q0 6 2 10.5t5.5 8t8.5 6t10.5 4.5t12 2.5t12.5 0.5h4.5h5.5h1z M60 31q0 4 -2 6.5t-5 4.5q-1 -1 -1 -2.5t-1 -2.5q-3 1 -5.5 1h-3.5q-3 0 -6.5 -1t-6 -3t-4 -4.5t-1.5 -6.5q0 -3 2 -5.5t4 -5.5q0 2 0.5 3.5t0.5 3.5q4 -2 6.5 -2.5t5.5 -0.5t6 1t5.5 3t4 4.5t1.5 6.5z"
         id="glyph95" />
      <glyph
         glyph-name="p"
         unicode="p"
         horiz-adv-x="77"
         d="M79 48q-1 -4 -3 -8.5t-4.5 -8.5t-6.5 -7t-8 -5.5t-9 -4t-10 -1.5h-1.5h-1.5v-15q-2 0 -3 0.5t-3 0.5q-5 0 -10.5 -1.5t-12.5 -3.5q2 7 4 13.5t3 13.5q-3 2 -5.5 4t-3.5 4q2 -1 5 -1.5t5 -0.5q1 6 1 11v2q-3 -1 -5.5 -2t-5.5 -2q2 5 2 9q0 3 -1 6.5t-3 5.5q10 1 18.5 2 t14.5 1h7t8 -0.5t8 -1.5t7.5 -2.5t5.5 -4t3 -6.5q1 1 2.5 1.5t2.5 1.5zM46 45h-5.5t-5.5 -1v-9.5v-8.5q3 0 5.5 1t4.5 2.5t3 4t2 5.5q2 0 4 0.5t4 0.5h-1v0h1q-1 1 -2.5 2t-2.5 1.5t-3 1t-4 0.5z"
         id="glyph96" />
      <glyph
         glyph-name="q"
         unicode="q"
         horiz-adv-x="83"
         d="M65 57q-2 -1 -3.5 -3t-3.5 -3q5 -1 9 -3t7 -5t5 -7t2 -8q0 -5 -2 -10t-5 -8.5t-7.5 -5.5t-9.5 -4q5 -1 10 -2.5t10 -1.5v0q-1 0 -3 -1t-4 -3l-5 -5t-4 -7q-3 2 -6 5q-3 2 -6 5t-6 8q-2 0 -4 -0.5t-3 -0.5h-4.5t-4.5 0.5t-3.5 0.5h-2.5q1 1 2 2.5t2 2.5q-5 1 -8.5 2.5 t-6.5 4.5t-5 6.5t-2 8.5q0 6 2 10.5t5.5 8t8.5 6t10.5 4.5t12 2.5t12.5 0.5h5h6zM60 31q0 3 -2 6t-5 5q-1 -1 -1 -2.5t-1 -2.5q-3 1 -5.5 1h-3.5q-3 0 -6.5 -1t-6 -3t-4 -4.5t-1.5 -6.5q0 -3 2 -5.5t4 -5.5q0 2 0.5 3.5t0.5 3.5q4 -2 6.5 -2.5t5.5 -0.5t6 1t5.5 3t4 4.5 t1.5 6.5zM77 -4v0v0v0z"
         id="glyph97" />
      <glyph
         glyph-name="r"
         unicode="r"
         horiz-adv-x="80"
         d="M79 3q-7 -1 -14 -3t-14 -5q-1 10 -5 19q-2 0 -4 -0.5t-4 -0.5h-1.5h-1.5v-15q-2 0 -3 0.5t-3 0.5q-5 0 -10.5 -1.5t-12.5 -3.5q2 7 4 13.5t3 13.5q-3 2 -5.5 4t-3.5 4q2 -1 5 -1.5t5 -0.5q1 6 1 11v2q-3 -1 -5.5 -2t-5.5 -2q2 5 2 9q0 3 -1 6.5t-3 5.5q10 1 18.5 2 t14.5 1h7t8 -0.5t8 -1.5t7.5 -2.5t5.5 -4t3 -6.5q1 1 2 1.5l3 1.5q-1 -4 -2.5 -7.5t-3.5 -7t-4.5 -6l-5.5 -5.5q7 -11 16 -19zM46 45q-2 0 -5 -0.5t-6 -0.5v-9.5v-8.5q3 0 5.5 1t4.5 2.5t3 4t2 5.5q2 0 4 0.5t4 0.5h-1v0h1q-1 1 -2.5 2t-2.5 1.5t-3 1t-4 0.5z"
         id="glyph98" />
      <glyph
         glyph-name="s"
         unicode="s"
         horiz-adv-x="75"
         d="M73 27v-2v-2q0 -4 -1.5 -7.5t-4 -6.5t-6 -5.5t-7.5 -4t-8.5 -2.5t-8.5 -1q-3 0 -6.5 0.5t-6.5 0.5t-6 -0.5t-6 -1.5l-3.5 10.5t-3.5 7.5q-2 4 -4 7q6 -3 11.5 -4.5t10 -2.5t8.5 -1h6h5t5 1q-2 2 -4.5 3t-5.5 2l-6 2l-6 2t-5.5 2t-5.5 3t-4 5l-2 6q-2 -1 -3 -1t-2 -1 q-1 0 -1 -1q2 4 4.5 8t6 6.5t7.5 4t8 2.5q9 3 20 3h7q3 0 7.5 0.5t9.5 1.5l-2 -4t-1.5 -4.5t-1 -4.5t-0.5 -4q0 -1 0.5 -2t0.5 -2v-2q-8 3 -15.5 4.5t-14.5 1.5h-3.5h-3.5q0 -2 1.5 -3.5t2.5 -1.5q1 -1 3 -2q3 -1 7 -2t7.5 -3t7.5 -4.5t6 -6.5q2 1 3.5 2.5z"
         id="glyph99" />
      <glyph
         glyph-name="t"
         unicode="t"
         horiz-adv-x="65"
         d="M49 0h-2h-1.5h-0.5v0q-5 0 -11 -0.5t-12 -2.5v2.5v2.5q0 11 2 21t6 20q-7 -1 -14.5 -2.5t-14.5 -4.5q1 4 1.5 7t0.5 6t-0.5 5.5t-0.5 5.5q8 -2 17 -3t17 -1q1 2 2.5 4t3.5 4v-4v-4v0h11t12 1q-1 -2 -1.5 -3.5t-0.5 -4.5v-3.5t1 -4.5q-5 1 -11 2t-12 1q0 -11 2 -22t6 -22z "
         id="glyph100" />
      <glyph
         glyph-name="u"
         unicode="u"
         horiz-adv-x="80"
         d="M77 58q0 -15 -2.5 -26.5t-8.5 -19t-14 -11.5t-19 -4q-3 0 -6 0.5t-6 1.5h1q1 0 1.5 1t1.5 2q-5 2 -9 5t-6.5 8.5t-4 12t-1.5 13.5v3.5v3t0.5 3t0.5 3.5h3h2.5h2.5h4.5t5.5 0.5t5.5 1t5.5 1.5q-2 -4 -3 -7.5t-2 -6.5t-1.5 -6t-0.5 -6q0 -5 1.5 -9t3.5 -8v1q3 -1 6 0 q3 0 5 1t4 2.5t3 4l2 5t1 5v5.5t-0.5 4.5l-1 5t-2 5.5t-2.5 6q2 -1 4.5 -1.5l5 -1t5 -0.5h4.5q3 0 5.5 0.5t5.5 1.5z"
         id="glyph101" />
      <glyph
         glyph-name="v"
         unicode="v"
         horiz-adv-x="74"
         d="M76 55q-9 -12 -15.5 -25.5t-9.5 -28.5h-5h-4q-4 0 -8.5 -0.5t-8.5 -1.5q-2 7 -4.5 14t-6 14.5t-7.5 14t-9 12.5q3 0 6 -0.5t5 -0.5q5 0 10.5 1t10.5 4q0 -5 0.5 -10t1.5 -9.5t2.5 -8.5t2.5 -8q2 4 3.5 8t2.5 8.5t1.5 9t0.5 8.5q5 -1 9 -1h8h6.5h7.5z"
         id="glyph102" />
      <glyph
         glyph-name="w"
         unicode="w"
         horiz-adv-x="93"
         d="M94 54q-7 -13 -10.5 -25.5t-3.5 -27.5l-12 -2l-12 -2q-2 6 -4.5 11.5t-5.5 10.5q-1 -2 -1.5 -5t-1.5 -5.5l-2 -5t-1 -5.5q-5 2 -10.5 3t-10.5 1q-1 0 -1.5 -0.5t-1 -0.5h-1.5h-2q0 2 0.5 4t0.5 3q0 12 -3.5 23.5t-11.5 22.5q13 1 27 4q1 -5 2.5 -9t2.5 -7.5t1.5 -7.5 t1.5 -9q1 4 2 7.5t1.5 6.5t1 5.5t-0.5 6.5q3 0 5.5 -0.5t4.5 -0.5h3.5h4.5v-7.5t1 -6.5l2 -6t3 -5q1 4 1.5 8l1 8t1 8.5t0.5 9.5q7 -2 14 -3.5t14 -1.5z"
         id="glyph103" />
      <glyph
         glyph-name="x"
         unicode="x"
         d="M82 55q-7 -6 -14 -13l-14 -14l12.5 -12.5t13.5 -12.5q-8 0 -14.5 -1t-12.5 -3l-6 8t-6 7q-3 -4 -6.5 -7.5t-6.5 -7.5q-4 0 -7 0.5t-6 0.5q-4 0 -7.5 -0.5t-8.5 -0.5q8 7 15.5 14t14.5 15q-7 7 -13.5 13t-14.5 12q7 0 14.5 1t14.5 4q3 -4 6 -8.5t6 -7.5q3 3 5.5 6.5 t4.5 7.5q4 -1 8.5 -1.5t8.5 -0.5q3 0 6 0.5t7 0.5z"
         id="glyph104" />
      <glyph
         glyph-name="y"
         unicode="y"
         horiz-adv-x="83"
         d="M87 57q-10 -8 -18.5 -16.5t-16.5 -18.5v0v-6t1 -6l2 -6l2 -6q-6 2 -11 3t-10 1q-3 0 -6.5 -0.5t-7.5 -1.5q3 6 4.5 11.5t2.5 11.5v0q-5 9 -12 17t-17 15h1q4 -1 7.5 -1h6.5q8 0 16 2q4 -11 11 -19q4 4 7 9t5 10q4 -1 7.5 -1h7.5t8.5 0.5t9.5 1.5z"
         id="glyph105" />
      <glyph
         glyph-name="z"
         unicode="z"
         horiz-adv-x="73"
         d="M70 -2h-1.5h-1.5h-2h-2q-9 0 -17 0.5t-16 1.5t-15 2t-14 3v0l9 1q4 4 8.5 9t9 10.5t8.5 11t6 11.5q-10 -2 -19 -6t-19 -9q1 4 1.5 8t0.5 7v4.5t-1 4.5q6 1 12.5 1h11.5q12 0 22.5 -1.5t21.5 -3.5v0l-7 -1q-2 -5 -4.5 -10t-6 -10t-7 -9.5t-7.5 -9.5q7 2 13.5 4.5t13.5 5.5 q-1 -3 -1 -5.5v-4.5q0 -4 0.5 -7.5t2.5 -7.5z"
         id="glyph106" />
      <glyph
         glyph-name="dotlessi"
         unicode="ı"
         horiz-adv-x="35"
         d="M31 58q-1 -8 -2 -16.5t-1 -16.5q0 -6 0.5 -12.5t1.5 -12.5h-4h-4q-4 0 -8 -0.5t-9 -1.5q1 7 2 14.5t1 14.5q0 6 -1 12.5t-2 12.5q3 0 6 0.5t6.5 1.5t6.5 2t7 2z"
         id="glyph107" />
      <glyph
         glyph-name="dollar"
         unicode="$"
         horiz-adv-x="60"
         d="M58 33v-1.5v-1.5q0 -4 -1.5 -7.5t-4.5 -6.5t-6.5 -5t-7.5 -3q0 -5 0.5 -10.5t1.5 -9.5h-1.5h-1.5h-3.5t-3 -0.5l-3 -1t-3.5 -1.5q1 5 1.5 10.5t0.5 11.5h-4h-4h-4t-3 -1q-1 5 -2.5 8.5t-2.5 6.5t-3 5q4 -2 8 -3t7.5 -1.5t6.5 -1t5 -0.5q5 0 10 1l-1.5 1.5l-1.5 1.5h-1 q-1 0 -2.5 1t-3.5 1.5t-4.5 1t-5 1.5t-4.5 2l-4 2q-1 1 -2 2.5t-1.5 3t-0.5 3v2.5q-1 -1 -2 -1t-2 -1h-1q1 4 3.5 7t6 5t7 3.5t6.5 2.5q0 5 -0.5 9t-1.5 8h1.5h1.5h4t3.5 0.5t3.5 1.5t3 2q-1 -4 -1.5 -9t-1.5 -10h1h5t5.5 0.5t7.5 0.5q-1 -2 -1.5 -3.5t-1 -3.5t-0.5 -4v-4 v-3v-1q-6 3 -12 4t-11 1q-2 0 -3.5 -0.5t-2.5 -0.5q0 -2 1 -3t2 -1l2 -2l6 -2t6 -2.5t6 -4t5 -5.5q1 1 2.5 2t2.5 3z"
         id="glyph108" />
      <glyph
         glyph-name="OE"
         unicode="Œ"
         horiz-adv-x="132"
         d="M92 0h-8h-8t-8 -0.5t-8 -1.5l1 2q-5 -2 -11 -3t-12 -1q-2 0 -4.5 0.5t-4.5 0.5t-4 0.5t-3 0.5q2 1 3 2.5t3 3.5q-5 1 -10 3t-8.5 5.5t-5.5 8t-2 11.5t2.5 12.5t6.5 10t9.5 7.5t11.5 5.5t13 3t14 0.5h2.5h2.5v0v1q1 0 2 -0.5l2 -1t3 -1t5 -0.5q9 2 18.5 3t19.5 1 q4 0 8 -0.5t9 -0.5q-2 -9 -3 -19q0 -4 1 -7q-19 8 -39 13q0 -4 -0.5 -8.5t-0.5 -8.5q10 2 20 2q-1 -2 -1 -4.5v-4.5v-4t1 -3q-5 2 -10 3.5t-10 3.5q0 -5 0.5 -10.5t0.5 -11.5q10 1 19.5 3.5t19.5 5.5q-1 -4 -1.5 -7t-0.5 -7q0 -3 0.5 -6.5t1.5 -6.5q-9 2 -18.5 4t-19.5 3 v-0.5zM67 39q0 5 -2.5 8.5t-5.5 5.5q-1 -2 -2 -3.5t-2 -3.5q-3 1 -5.5 1.5t-4.5 0.5q-4 0 -7.5 -1.5t-6.5 -4t-5 -6t-2 -7.5q0 -2 1 -4l2 -4t2.5 -3.5l3.5 -3.5q1 2 1.5 4t0.5 4q3 -2 6 -2.5t5 -0.5q4 0 7.5 1.5t6.5 4t5 6.5t2 8z"
         id="glyph109" />
      <glyph
         glyph-name="oe"
         unicode="œ"
         horiz-adv-x="121"
         d="M77 0h-5.5h-5.5t-6 -0.5t-6 -1.5v0.5v0.5q-9 -2 -18 -2h-4.5t-4.5 0.5t-3.5 0.5h-2.5q1 1 2 2.5t2 2.5q-5 1 -8.5 2.5t-6.5 4.5t-5 6.5t-2 8.5q0 6 2 10.5t5.5 8t8.5 6t10.5 4.5t12 2.5t12.5 0.5h4l-0.5 0.5l-0.5 0.5q1 0 2.5 -0.5t2.5 -1t3 -0.5t4 -1q8 2 16.5 2.5 t16.5 0.5h7.5h8.5q-2 -7 -2 -15v-3v-3q-8 3 -16.5 5.5t-17.5 4.5v-6.5t-1 -7.5q4 1 8.5 1.5t9.5 0.5q0 -2 -0.5 -3.5t-0.5 -3.5v-3.5t1 -3.5q-4 2 -8.5 3.5t-9.5 2.5q0 -4 0.5 -8t0.5 -8q8 1 16.5 3t17.5 4q-1 -3 -1 -6v-6q0 -5 1 -10q-8 2 -16 3t-17 2v-1h-6zM60 31 q0 4 -1.5 6.5t-4.5 4.5l-3 -5q-3 1 -5.5 1h-3.5q-3 0 -6.5 -1t-6 -3t-4 -4.5t-1.5 -6.5q0 -3 2 -5.5t4 -5.5q0 2 0.5 3.5t0.5 3.5q4 -2 6.5 -2.5t5.5 -0.5t6 1t5.5 3t4 4.5t1.5 6.5z"
         id="glyph110" />
      <glyph
         glyph-name="Eth"
         unicode="Ð"
         horiz-adv-x="85"
         d="M84 40q1 -6 -0.5 -11.5t-4.5 -10t-7 -9t-9 -7.5t-11 -4.5t-12 -1.5q-4 0 -8.5 1t-8.5 4q-4 -1 -8.5 -2t-9.5 -3l4 14t3 13q-3 0 -5.5 -0.5t-4.5 -0.5q0 2 0.5 4t0.5 4.5t-0.5 5t-0.5 4.5q5 -2 12 -3q1 6 0 12q-2 -1 -3.5 -1.5t-3.5 -2.5q0 3 1 5q0 12 -7 22q2 1 4.5 1 t5 0.5t5.5 1t6 0.5h5.5h3.5q7 0 13.5 -1t12 -3.5t10 -5.5t7 -6.5t4.5 -8t2 -8.5v-1.5t-1 -1.5q1 0 2.5 0.5t2.5 0.5zM44 23h-4.5h-4.5v-7.5v-7.5q5 1 9 3.5t7 6t4.5 8.5t0.5 10h2.5h3.5q-1 3 -3 5.5t-4 4.5t-4.5 3t-5.5 2t-5.5 1.5t-4.5 0.5v-15q2 0 4.5 0.5t4.5 1.5 q-1 -2 -1 -4v-4.5t0.5 -4.5t0.5 -4z"
         id="glyph111" />
      <glyph
         glyph-name="eth"
         unicode="ð"
         horiz-adv-x="79"
         d="M77 32v-1.5v-1.5q0 -4 -1.5 -8t-4.5 -8t-6.5 -6.5t-8 -5t-9.5 -3.5t-10 -1q-4 0 -7.5 0.5t-7.5 3.5q-4 0 -8 -1.5t-9 -2.5q4 11 6 22q-2 0 -4 -1t-4 -1q1 4 1 7.5t-1 7.5q3 -1 5 -1.5t5 -0.5v4v5q-3 -1 -6 -4q0 2 0.5 3t0.5 2q0 10 -6 17q2 0 4 0.5t4.5 1l5 1t5 0.5h5 h3.5q10 0 18 -2t14 -5.5t9 -8.5t3 -11v-1v-1q1 0 2 0.5t2 0.5zM42 18q-1 0 -3.5 0.5t-5.5 0.5q0 -6 1 -13q4 1 7 3.5t5.5 5t3.5 6.5t0 8h2.5h2.5q-1 4 -3.5 6.5t-5.5 4t-6.5 2t-5.5 0.5l-1 -11q2 0 4.5 0.5t4.5 1.5q-1 -2 -1 -4v-3.5t0.5 -3.5t0.5 -4z"
         id="glyph112" />
      <glyph
         glyph-name="Lslash"
         unicode="Ł"
         horiz-adv-x="70"
         d="M71 -0q-8 1 -16.5 1.5t-16.5 0.5q-9 0 -18.5 -0.5t-19.5 -2.5q2 2 4.5 3.5t5.5 3.5q1 5 1.5 9.5t0.5 9.5q-2 -1 -4 -1.5t-4 -1.5v4t-0.5 4.5l-1 5t-1.5 4.5q3 0 5.5 -0.5t5.5 0.5q0 8 -1.5 15t-2.5 15h2h2q6 0 12 0.5t12 2.5q0 -13 -1 -26l4 2t3 2q0 -2 0.5 -4.5l1 -5 t1 -4.5t1.5 -4q-2 0 -5.5 -1t-7.5 -1q-1 -7 -3 -14q9 4 19 6.5t20 4.5q-1 -5 -1 -10t0.5 -9t2.5 -9z"
         id="glyph113" />
      <glyph
         glyph-name="lslash"
         unicode="ł"
         horiz-adv-x="64"
         d="M65 -0q-8 1 -15 1.5t-15 0.5t-16.5 -1t-17.5 -2q2 1 4 2.5t5 2.5q1 4 1 8v8q-2 -1 -3.5 -2t-3.5 -2v4t-0.5 4.5t-1 4t-0.5 3.5h4.5h4.5q0 6 -1 12l-2 12h4q5 0 11 0.5t12 1.5q0 -5 -0.5 -10t-0.5 -10q2 1 3.5 1.5t2.5 1.5v-3.5t0.5 -3.5l1 -4t1.5 -3q-3 0 -5.5 -1 t-5.5 -1q0 -3 -1 -5.5t-2 -5.5q8 3 16.5 5t17.5 4v-4v-4q0 -4 0.5 -7.5t1.5 -7.5z"
         id="glyph114" />
      <glyph
         glyph-name="exclamdown"
         unicode="¡"
         horiz-adv-x="32"
         d="M2 -20q1 4 2.5 9t2 10t1 11t0.5 11q0 4 -0.5 7.5t-0.5 6.5q1 0 2 -0.5t2 -0.5h1.5h1.5t2.5 0.5t3 0.5h3h2.5q-1 -2 -1 -4.5v-5.5t0.5 -7t1 -7.5l1 -7t1.5 -7t1.5 -6t1.5 -4.5h-0.5h-1.5h-4t-4.5 -0.5l-5 -1l-5 -1t-4.5 -1.5zM3 47q0 2 0.5 3.5t2.5 2.5t4 1.5t5 0.5 t5.5 -0.5t4.5 -1.5t3 -2.5t1 -3.5t-1 -3t-3 -2t-4.5 -1.5t-5.5 -0.5t-5 0.5t-3.5 1.5t-2.5 2t-1 3z"
         id="glyph115" />
      <glyph
         glyph-name="questiondown"
         unicode="¿"
         horiz-adv-x="79"
         d="M2 3q4 -2 7 -3v1.5v0.5q0 4 1 7t3 5.5t4.5 4l5 3l5 3t4.5 3t3 3.5t1 4q4 -1 7.5 -1h6.5t6 1q0 -3 -1 -5.5t-3 -4.5t-4 -3.5l-4 -3l-4 -3t-4 -3.5t-3 -4.5t-1 -5.5v-1.5t1 -1.5q5 0 10 1.5t9.5 3t9 4.5t8.5 6q0 -8 1.5 -14.5t5.5 -12.5q-3 -1 -6 -2.5t-6.5 -2t-6.5 -1 l-6 -1t-6 -0.5h-5q-6 0 -11.5 1.5t-10.5 4t-9.5 7t-7.5 10.5zM33 46q0 4 3.5 6t9.5 2q3 0 5 -0.5t4 -1.5t3 -2.5t1 -2.5q0 -2 -1 -3.5t-3 -2.5t-4.5 -1.5t-5.5 -0.5t-5 0.5t-3.5 1.5t-2.5 2t-1 3z"
         id="glyph116" />
      <glyph
         glyph-name="percent"
         unicode="%"
         horiz-adv-x="89"
         d="M42 59v-4q0 -4 -1 -7.5t-3.5 -6t-6 -4.5t-7.5 -2t-7.5 1.5t-5.5 3.5t-3 5t-1 6v0.5q0 0.5 1 1.5q-1 0 -2.5 -0.5t-2.5 -0.5v1.5v2.5q0 4 1 7.5t3.5 6t6 4t7.5 1.5t7.5 -1.5t5.5 -3.5t3 -5t1 -5v-1v-1q1 0 2 0.5t2 0.5zM87 19v-4q0 -4 -1 -7.5t-3.5 -6t-6 -4t-7.5 -1.5 t-7.5 1t-5.5 3t-3 5t-1 6v0.5v1.5q-1 0 -2 -0.5t-2 -0.5v1.5v1.5q0 4 1 8t3.5 6.5t6 4t8.5 1.5q4 0 7 -1.5t5 -3.5t3 -5t1 -6v-0.5v-0.5q1 0 2 0.5t2 0.5zM69 69q-3 -8 -7 -15.5t-8.5 -15t-9.5 -14t-11 -12t-12 -10.5t-13 -9q5 5 10.5 11.5t10.5 13.5t9 14t7.5 14.5t6 14.5 t3.5 14q2 -2 3.5 -3t3.5 -1.5l4 -1t3 -0.5zM56 13q1 -3 2.5 -4.5t3 -2.5t3 -1h1.5q2 0 3.5 1t2.5 2.5t1.5 3t0.5 3.5v3q1 0 2 -0.5t3 -0.5v0q-1 3 -2.5 4.5t-3 2.5t-3 1h-1.5q-2 0 -3.5 -0.5t-2.5 -2t-1.5 -3.5t-0.5 -4q0 -1 1 -2q-3 1 -5 0h-1zM11 54q1 -3 2.5 -5t3 -3 t3 -1h1.5q2 0 3.5 1t2.5 2.5t1.5 3t0.5 3.5v3q3 -1 5 -1v0q-1 3 -2.5 4.5t-3 2.5t-3 1h-1.5q-2 0 -3.5 -0.5t-2.5 -2t-1.5 -3.5t-0.5 -4v-1.5t1 -0.5q-2 1 -5 1h-1z"
         id="glyph117" />
      <glyph
         glyph-name="ampersand"
         unicode="&amp;"
         horiz-adv-x="60"
         d="M1 27q1 0 2.5 -1t2.5 -1q0 2 0.5 3t1.5 2.5t2.5 2.5t2.5 1.5t1.5 1l0.5 0.5q-3 2 -5 4q-1 1 -2 1.5t-1.5 2t-1 2.5t-0.5 3l-6 -1q2 3 4.5 5.5t5.5 4t6.5 3t7.5 2.5q0 5 -0.5 9t-1.5 8q1 0 2.5 -0.5t2.5 -0.5q2 0 4 0.5l4 1t4 1.5t4 3q-1 -5 -1.5 -10.5t-1.5 -10.5 q3 0 5.5 -0.5t5.5 -1t5.5 -1.5t4.5 -1q-3 -4 -4.5 -8.5t-2.5 -9.5q-4 2 -7.5 3.5l-7 3t-7 2t-7.5 0.5v-1q0 -1 0.5 -3t2 -3.5t4 -3t7.5 -1.5v-8h-1.5h-2.5t-2.5 -0.5t-3 -1.5t-2 -2.5t-0.5 -3.5v-1q3 0 6 0.5t7 1t7.5 1.5t7.5 3q0 -5 0.5 -9t2.5 -8q-2 0 -4.5 -0.5l-5 -1 t-4.5 -0.5h-4q0 -5 0.5 -10t1.5 -9h-2.5h-1.5h-4t-4 -0.5t-4 -1.5l-4 -2q1 6 1.5 12t0.5 12q-8 2 -13 6.5t-9 10.5z"
         id="glyph118" />
      <glyph
         glyph-name="Scaron"
         unicode="Š"
         horiz-adv-x="81"
         d="M57 92q-4 -4 -6 -7q-2 -4 -3 -9l-12 1q-1 2 -3 5l-2 4t-3 4t-4 3q2 0 3 1q2 0 3 1q2 1 3 1l2 2q1 -4 3 -7q1 -3 3 -6q1 1 2 3t1 3v3v4q1 -1 3 -2t3 -1l4 -2q1 -1 3 -1zM79 33q0 -1 0.5 -2t0.5 -2q0 -5 -1.5 -9.5t-4.5 -8t-7 -6.5t-8.5 -5t-9 -3.5t-9.5 -1.5t-9 0.5 t-8 0.5q-3 0 -5.5 -0.5t-4.5 -1.5q-2 7 -4 12.5t-4 9.5l-4 8q6 -3 12 -5t11 -3t9.5 -1h7.5h6t7 1l-2 2l-2 2l-1 1q-1 1 -3.5 1.5t-5.5 1t-6.5 1.5t-7 2.5t-6.5 3t-5 3.5t-3 3.5t-2 3.5t-1 4v4q-2 -1 -3.5 -1.5t-2.5 -1.5l-2 -1q2 5 5 9.5t7 7.5t8.5 5t8.5 3q10 3 23 4h8 t8 0.5t10 1.5q-2 -2 -3 -5t-1.5 -5.5t-0.5 -5.5v-5v-3v-2v-2q-9 4 -17 5.5t-15 1.5h-5h-5l2 -4t3 -3t3 -1q4 -1 8.5 -3t9 -4.5t8.5 -6t7 -7.5q2 2 3 3.5t3 3.5z"
         id="glyph119" />
      <glyph
         glyph-name="scaron"
         unicode="š"
         horiz-adv-x="75"
         d="M54 78q-4 -4 -6 -8l-4 -8h-12q-1 2 -2 5l-2 4t-4 4q-2 2 -4 3q2 0 4 1q2 0 3 1l2 1q1 1 3 2q1 -4 2 -7t4 -6q1 1 1 3q1 2 1 3q0 2 1 4v3q1 -1 3 -2t3 -1q2 -1 3 -1q2 -1 4 -1zM73 27v-2v-2q0 -4 -1.5 -7.5t-4 -6.5t-6 -5.5t-7.5 -4t-8.5 -2.5t-8.5 -1q-3 0 -6.5 0.5 t-6.5 0.5t-6 -0.5t-6 -1.5l-3.5 10.5t-3.5 7.5q-2 4 -4 7q6 -3 11.5 -4.5t10 -2.5t8.5 -1h6h5t5 1q-2 2 -4.5 3t-5.5 2l-6 2l-6 2t-5.5 2t-5.5 3t-4 5l-2 6q-2 -1 -3 -1t-2 -1q-1 0 -1 -1q2 4 4.5 8t6 6.5t7.5 4t8 2.5q9 3 20 3h7q3 0 7.5 0.5t9.5 1.5l-2 -4t-1.5 -4.5 t-1 -4.5t-0.5 -4q0 -1 0.5 -2t0.5 -2v-2q-8 3 -15.5 4.5t-14.5 1.5h-3.5h-3.5q0 -2 1.5 -3.5t2.5 -1.5q1 -1 3 -2q3 -1 7 -2t7.5 -3t7.5 -4.5t6 -6.5q2 1 3.5 2.5z"
         id="glyph120" />
      <glyph
         glyph-name="Yacute"
         unicode="Ý"
         horiz-adv-x="88"
         d="M95 71q-12 -10 -22 -21t-18 -23v-1.5v-1.5q0 -7 1.5 -13t4.5 -12q-6 2 -11.5 2.5t-11.5 0.5q-8 0 -15 -1q3 7 5 14t3 14q-6 12 -14 21.5t-19 18.5q4 -1 8 -1.5t8 -0.5q5 0 9 1l8 2q2 -7 5.5 -13t8.5 -11q5 5 8.5 11t5.5 13q4 -1 8 -1h8q5 0 10 0.5t10 1.5z M65.5781 78.5781q-2 -1 -4.5 -2t-4.5 -2.5l-4 -3t-4 -3.5l-6 7q3 3 6 6.5t6 7.5q1 -1 2 -2.5t2.5 -3t3.5 -2.5t3 -2z"
         id="glyph121" />
      <glyph
         glyph-name="yacute"
         unicode="ý"
         horiz-adv-x="83"
         d="M87 57q-10 -8 -18.5 -16.5t-16.5 -18.5v0v-6t1 -6l2 -6l2 -6q-6 2 -11 3t-10 1q-3 0 -6.5 -0.5t-7.5 -1.5q3 6 4.5 11.5t2.5 11.5v0q-5 9 -12 17t-17 15h1q4 -1 7.5 -1h6.5q8 0 16 2q4 -11 11 -19q4 4 7 9t5 10q4 -1 7.5 -1h7.5t8.5 0.5t9.5 1.5zM61.8184 65.2969 q-2 -1 -4.5 -2t-4.5 -2.5l-4 -3t-4 -3.5l-6 7q3 3 6 6.5t6 7.5q1 -1 2 -2.5t2.5 -3t3.5 -2.5t3 -2z"
         id="glyph122" />
      <glyph
         glyph-name="Zcaron"
         unicode="Ž"
         horiz-adv-x="79"
         d="M57 92q-4 -4 -6 -8l-4 -8h-12q-1 2 -2 5l-2 4t-4 4l-3 3q2 0 3 1q2 0 3 1q2 1 3 1l2 2q1 -4 2 -7t4 -6q1 1 2 3t1 3v4v3q1 -1 3 -2t3 -1q2 -1 4 -1q1 -1 3 -1zM76 -2h-3.5h-3.5q-10 0 -19 0.5t-17.5 1.5t-16.5 2.5t-17 3.5q3 0 5.5 0.5t5.5 1.5l10 12t10 12.5t9.5 13.5 t7.5 14q-11 -3 -21.5 -7.5t-21.5 -9.5q1 5 1.5 9t0.5 8v6t-1 5q7 1 13.5 1.5t12.5 0.5q13 0 25.5 -2t24.5 -5q-2 0 -4.5 -0.5t-4.5 -0.5q-2 -6 -5 -12.5t-7 -13t-8.5 -12.5t-8.5 -11q8 2 15.5 5t15.5 7q-1 -3 -1 -6v-5q-1 -10 3 -19z"
         id="glyph123" />
      <glyph
         glyph-name="zcaron"
         unicode="ž"
         horiz-adv-x="73"
         d="M54 78q-4 -4 -6 -8l-4 -8h-12q-1 2 -2 5l-2 4t-4 4l-3 3q2 0 3 1q2 0 3 1q2 1 3 1l2 2q1 -4 2 -7t4 -6q1 1 1 3q1 2 1 3q0 2 1 4v3q1 -1 3 -2t3 -1q2 -1 3 -1q2 -1 4 -1zM70 -2h-1.5h-1.5h-2h-2q-9 0 -17 0.5t-16 1.5t-15 2t-14 3v0l9 1q4 4 8.5 9t9 10.5t8.5 11t6 11.5 q-10 -2 -19 -6t-19 -9q1 4 1.5 8t0.5 7v4.5t-1 4.5q6 1 12.5 1h11.5q12 0 22.5 -1.5t21.5 -3.5v0l-7 -1q-2 -5 -4.5 -10t-6 -10t-7 -9.5t-7.5 -9.5q7 2 13.5 4.5t13.5 5.5q-1 -3 -1 -5.5v-4.5q0 -4 0.5 -7.5t2.5 -7.5z"
         id="glyph124" />
      <glyph
         glyph-name="Agrave"
         unicode="À"
         horiz-adv-x="90"
         d="M88 23q-2 -1 -4.5 -2.5t-5.5 -1.5l6 -10l6 -10q-8 0 -15.5 -1.5t-14.5 -4.5v2.5v2.5q0 3 -0.5 6.5t-1.5 7.5h-5.5h-4.5q-4 0 -8 0.5t-8 1.5q-1 -5 -2 -9t-1 -9q-2 1 -6 2q-3 1 -6.5 2t-7.5 1t-8 -1l-8 -2q4 4 7.5 8t6 8t4.5 7.5t4 5.5q-1 2 -2.5 4.5t-2.5 5.5l4 -2l4 -2 v0q3 5 5.5 10.5t5.5 10.5q-1 2 -1.5 3.5t-2 4t-2.5 5t-3 4.5l10 -2t11 -2q3 3 6 5.5t6 3.5l-2 -4t-3 -5q3 0 6 0.5t6 1.5q2 -8 4.5 -16t5.5 -16q2 1 4.5 3t5.5 3q2 -6 4 -11t4 -9zM52 30q-4 10 -10 21q-2 -5 -3.5 -10.5t-3.5 -11.5q1 0 2.5 -0.5t2.5 -0.5q3 0 6 0.5t6 1.5z M40.9023 72.3145q-3 3 -7 6t-9 5q1 1 2.5 2t3 2.5l3 3l2.5 2.5q2 -4 5 -7l7 -7z"
         id="glyph125" />
      <glyph
         glyph-name="Atilde"
         unicode="Ã"
         horiz-adv-x="90"
         d="M61 84q0 -3 -1 -5l-2 -4t-3 -2q-2 -1 -5 -1q-2 0 -3 1t-3 2q-1 1 -1 2q-1 1 -1 2t-1 2t-1 0h-2v-2v-2t1 -3h-3h-2t-3 -1h-3v2v2t-1 4q0 2 1 4t2 3t3 2t4 1t4 -1l2 -2t1 -2l2 -2q0 -1 1 -2l1 -1q1 0 2 1v2v3q0 1 -1 3q1 0 3 -1h3t3 1h3v-2v-2v-2zM88 23q-2 -1 -4.5 -2.5 t-5.5 -1.5l6 -10l6 -10q-8 0 -15.5 -1.5t-14.5 -4.5v2.5v2.5q0 3 -0.5 6.5t-1.5 7.5h-5.5h-4.5q-4 0 -8 0.5t-8 1.5q-1 -5 -2 -9t-1 -9q-2 1 -6 2q-3 1 -6.5 2t-7.5 1t-8 -1l-8 -2q4 4 7.5 8t6 8t4.5 7.5t4 5.5q-1 2 -2.5 4.5t-2.5 5.5l4 -2l4 -2v0q3 5 5.5 10.5t5.5 10.5 q-1 2 -1.5 3.5t-2 4t-2.5 5t-3 4.5l10 -2t11 -2q3 3 6 5.5t6 3.5l-2 -4t-3 -5q3 0 6 0.5t6 1.5q2 -8 4.5 -16t5.5 -16q2 1 4.5 3t5.5 3q2 -6 4 -11t4 -9zM52 30q-4 10 -10 21q-2 -5 -3.5 -10.5t-3.5 -11.5q1 0 2.5 -0.5t2.5 -0.5q3 0 6 0.5t6 1.5z"
         id="glyph126" />
      <glyph
         glyph-name="Otilde"
         unicode="Õ"
         horiz-adv-x="91"
         d="M62 85v-4q-1 -2 -3 -4q-1 -2 -3 -3t-5 0h-3q-1 1 -3 2q-1 1 -1 2q-1 1 -1 2t-1 2l-1 1q-1 0 -2 -1v-2v-2t1 -3h-2h-3h-3q-1 0 -2 -1q0 1 -1 2v3v3v4q1 2 2 3t3 2t4 1t4 -1q1 -1 2 -1q1 -1 2 -3q1 -1 1 -2t1 -2t2 0q1 0 1 1t1 2q0 1 -1 2q0 1 -1 3h3h3h3q2 0 3 1v-2v-2v-3 zM71 71q-2 -2 -4 -3.5t-3 -4.5q5 -1 9.5 -3t8 -6t5.5 -8.5t2 -10.5q0 -7 -2 -12.5t-5.5 -10t-8.5 -7.5t-10.5 -5t-11.5 -3t-13 -1q-2 0 -4.5 0.5t-4.5 0.5t-4 0.5t-3 0.5q2 1 3 2.5t3 3.5q-5 1 -10 3t-8.5 5.5t-5.5 8t-2 11.5t2.5 12.5t6.5 10t9.5 7.5t11.5 5.5t13 3t14 0.5 h6h6zM67 39q0 3 -1 5l-2 4t-2.5 3t-3.5 2q-1 -2 -1.5 -3.5t-1.5 -3.5q-3 1 -5.5 1.5t-4.5 0.5q-4 0 -7.5 -1.5t-6.5 -4t-5 -6t-2 -7.5q0 -2 1 -4l2 -4t2.5 -3.5l3.5 -3.5q1 2 1.5 4t0.5 4q3 -2 6 -2.5t5 -0.5q4 0 7.5 1.5t6.5 4t5 6.5t2 8z"
         id="glyph127" />
      <glyph
         glyph-name="ydieresis"
         unicode="ÿ"
         horiz-adv-x="83"
         d="M87 57q-10 -8 -18.5 -16.5t-16.5 -18.5v0v-6t1 -6l2 -6l2 -6q-6 2 -11 3t-10 1q-3 0 -6.5 -0.5t-7.5 -1.5q3 6 4.5 11.5t2.5 11.5v0q-5 9 -12 17t-17 15h1q4 -1 7.5 -1h6.5q8 0 16 2q4 -11 11 -19q4 4 7 9t5 10q4 -1 7.5 -1h7.5t8.5 0.5t9.5 1.5zM39.5137 65.7852 q0 -1 -0.5 -2.5t-1 -2.5t-2 -1.5t-2.5 -0.5t-2.5 0.5t-2.5 1.5t-1.5 2t-0.5 3q0 1 0.5 2t1.5 2t2 1.5t3 0.5q1 0 2.5 -0.5t2 -1.5l1 -2t0.5 -2zM57.5137 65.7852q0 -1 -0.5 -2.5t-1.5 -2.5t-2 -1.5t-2 -0.5t-2.5 0.5t-2.5 1.5t-1.5 2t-0.5 3q0 1 0.5 2t1.5 2t2 1.5t3 0.5 q1 0 2 -0.5t2 -1.5t1.5 -2t0.5 -2z"
         id="glyph128" />
      <glyph
         glyph-name="Ydieresis"
         unicode="Ÿ"
         horiz-adv-x="88"
         d="M95 71q-12 -10 -22 -21t-18 -23v-1.5v-1.5q0 -7 1.5 -13t4.5 -12q-6 2 -11.5 2.5t-11.5 0.5q-8 0 -15 -1q3 7 5 14t3 14q-6 12 -14 21.5t-19 18.5q4 -1 8 -1.5t8 -0.5q5 0 9 1l8 2q2 -7 5.5 -13t8.5 -11q5 5 8.5 11t5.5 13q4 -1 8 -1h8q5 0 10 0.5t10 1.5z M42.2969 79.4082q0 -1 -0.5 -2.5t-1 -2.5t-2 -1.5t-2.5 -0.5t-2.5 0.5t-2.5 1.5t-1.5 2t-0.5 3q0 1 0.5 2t1.5 2t2 1.5t3 0.5q1 0 2.5 -0.5t2 -1.5l1 -2t0.5 -2zM60.2969 79.4082q0 -1 -0.5 -2.5t-1.5 -2.5t-2 -1.5t-2 -0.5t-2.5 0.5t-2.5 1.5t-1.5 2t-0.5 3q0 1 0.5 2 t1.5 2t2 1.5t3 0.5q1 0 2 -0.5t2 -1.5t1.5 -2t0.5 -2z"
         id="glyph129" />
      <glyph
         glyph-name="Acircumflex"
         unicode="Â"
         horiz-adv-x="90"
         d="M66 77q-2 0 -3 -1q-2 -1 -4 -1q-2 -1 -3 -1q-2 -1 -3 -2v3v4t-1 3q-1 2 -2 3q-2 -3 -3 -6t-3 -7l-2 2t-3 1q-2 1 -3 1q-2 0 -3 1q2 1 4 3t3 4t3 4q1 2 2 5h12q1 -5 3 -8q2 -4 6 -8zM88 23q-2 -1 -4.5 -2.5t-5.5 -1.5l6 -10l6 -10q-8 0 -15.5 -1.5t-14.5 -4.5v2.5v2.5 q0 3 -0.5 6.5t-1.5 7.5h-5.5h-4.5q-4 0 -8 0.5t-8 1.5q-1 -5 -2 -9t-1 -9q-2 1 -6 2q-3 1 -6.5 2t-7.5 1t-8 -1l-8 -2q4 4 7.5 8t6 8t4.5 7.5t4 5.5q-1 2 -2.5 4.5t-2.5 5.5l4 -2l4 -2v0q3 5 5.5 10.5t5.5 10.5q-1 2 -1.5 3.5t-2 4t-2.5 5t-3 4.5l10 -2t11 -2q3 3 6 5.5 t6 3.5l-2 -4t-3 -5q3 0 6 0.5t6 1.5q2 -8 4.5 -16t5.5 -16q2 1 4.5 3t5.5 3q2 -6 4 -11t4 -9zM52 30q-4 10 -10 21q-2 -5 -3.5 -10.5t-3.5 -11.5q1 0 2.5 -0.5t2.5 -0.5q3 0 6 0.5t6 1.5z"
         id="glyph130" />
      <glyph
         glyph-name="Ecircumflex"
         unicode="Ê"
         horiz-adv-x="75"
         d="M54 79q-2 0 -4 -1t-3 -1q-2 -1 -3 -2q-2 -1 -3 -1v3q0 2 -1 3q0 2 -1 3q-1 2 -1 3q-2 -3 -4 -5q-1 -3 -2 -7q-1 1 -3 1l-2 2q-2 1 -3 1h-4q2 1 4 3l4 4q1 2 2 5q1 2 2 5h12q1 -5 4 -9q2 -3 6 -7zM34 0h-8h-8t-7.5 -0.5t-7.5 -1.5q3 11 5 22.5t2 22.5q0 5 -0.5 10t-1.5 10 l-7 1q2 1 3.5 1.5t3.5 0.5q0 1 -0.5 2.5t-0.5 3.5l6 -2t6 -1q9 2 18.5 3t18.5 1q4 0 8.5 -0.5t8.5 -0.5q-2 -9 -2 -19v-7q-18 8 -38 13q0 -4 -0.5 -8.5t-0.5 -8.5q5 1 10 1.5t10 0.5q-1 -5 -1 -9v-4v-3q-5 2 -9.5 3.5t-9.5 3.5v-10.5t1 -11.5q19 3 38 9q-1 -4 -1 -7v-7v-6.5 t1 -6.5q-9 2 -18.5 4t-18.5 3v-0.5v-1.5z"
         id="glyph131" />
      <glyph
         glyph-name="Aacute"
         unicode="Á"
         horiz-adv-x="90"
         d="M88 23q-2 -1 -4.5 -2.5t-5.5 -1.5l6 -10l6 -10q-8 0 -15.5 -1.5t-14.5 -4.5v2.5v2.5q0 3 -0.5 6.5t-1.5 7.5h-5.5h-4.5q-4 0 -8 0.5t-8 1.5q-1 -5 -2 -9t-1 -9q-2 1 -6 2q-3 1 -6.5 2t-7.5 1t-8 -1l-8 -2q4 4 7.5 8t6 8t4.5 7.5t4 5.5q-1 2 -2.5 4.5t-2.5 5.5l4 -2l4 -2 v0q3 5 5.5 10.5t5.5 10.5q-1 2 -1.5 3.5t-2 4t-2.5 5t-3 4.5l10 -2t11 -2q3 3 6 5.5t6 3.5l-2 -4t-3 -5q3 0 6 0.5t6 1.5q2 -8 4.5 -16t5.5 -16q2 1 4.5 3t5.5 3q2 -6 4 -11t4 -9zM52 30q-4 10 -10 21q-2 -5 -3.5 -10.5t-3.5 -11.5q1 0 2.5 -0.5t2.5 -0.5q3 0 6 0.5t6 1.5z M72.0234 85.2188q-2 -1 -4.5 -2t-4.5 -2.5l-4 -3t-4 -3.5l-6 7q3 3 6 6.5t6 7.5q1 -1 2 -2.5t2.5 -3t3.5 -2.5t3 -2z"
         id="glyph132" />
      <glyph
         glyph-name="Edieresis"
         unicode="Ë"
         horiz-adv-x="75"
         d="M34 0h-8h-8t-7.5 -0.5t-7.5 -1.5q3 11 5 22.5t2 22.5q0 5 -0.5 10t-1.5 10l-7 1q2 1 3.5 1.5t3.5 0.5q0 1 -0.5 2.5t-0.5 3.5l6 -2t6 -1q9 2 18.5 3t18.5 1q4 0 8.5 -0.5t8.5 -0.5q-2 -9 -2 -19v-7q-18 8 -38 13q0 -4 -0.5 -8.5t-0.5 -8.5q5 1 10 1.5t10 0.5q-1 -5 -1 -9 v-4v-3q-5 2 -9.5 3.5t-9.5 3.5v-10.5t1 -11.5q19 3 38 9q-1 -4 -1 -7v-7v-6.5t1 -6.5q-9 2 -18.5 4t-18.5 3v-0.5v-1.5zM34.3867 82.3867q0 -1 -0.5 -2.5t-1 -2.5t-2 -1.5t-2.5 -0.5t-2.5 0.5t-2.5 1.5t-1.5 2t-0.5 3q0 1 0.5 2t1.5 2t2 1.5t3 0.5q1 0 2.5 -0.5t2 -1.5l1 -2 t0.5 -2zM52.3867 82.3867q0 -1 -0.5 -2.5t-1.5 -2.5t-2 -1.5t-2 -0.5t-2.5 0.5t-2.5 1.5t-1.5 2t-0.5 3q0 1 0.5 2t1.5 2t2 1.5t3 0.5q1 0 2 -0.5t2 -1.5t1.5 -2t0.5 -2z"
         id="glyph133" />
      <glyph
         glyph-name="Egrave"
         unicode="È"
         horiz-adv-x="75"
         d="M34 0h-8h-8t-7.5 -0.5t-7.5 -1.5q3 11 5 22.5t2 22.5q0 5 -0.5 10t-1.5 10l-7 1q2 1 3.5 1.5t3.5 0.5q0 1 -0.5 2.5t-0.5 3.5l6 -2t6 -1q9 2 18.5 3t18.5 1q4 0 8.5 -0.5t8.5 -0.5q-2 -9 -2 -19v-7q-18 8 -38 13q0 -4 -0.5 -8.5t-0.5 -8.5q5 1 10 1.5t10 0.5q-1 -5 -1 -9 v-4v-3q-5 2 -9.5 3.5t-9.5 3.5v-10.5t1 -11.5q19 3 38 9q-1 -4 -1 -7v-7v-6.5t1 -6.5q-9 2 -18.5 4t-18.5 3v-0.5v-1.5zM36.9961 73.0957q-3 3 -7 6t-9 5q1 1 2.5 2t3 2.5l3 3l2.5 2.5q2 -4 5 -7l7 -7z"
         id="glyph134" />
      <glyph
         glyph-name="Iacute"
         unicode="Í"
         horiz-adv-x="36"
         d="M32 73q-2 -10 -2.5 -20.5t-0.5 -21.5q0 -8 0.5 -16t1.5 -15h-4h-4q-5 0 -9.5 -0.5t-9.5 -1.5q2 9 3 17.5t1 18.5q0 8 -1 15.5t-2 15.5q3 0 6.5 1t6.5 2t6.5 2t7.5 3zM38.1855 82.1914q-2 -1 -4.5 -2t-4.5 -2.5l-4 -3t-4 -3.5l-6 7q3 3 6 6.5t6 7.5q1 -1 2 -2.5t2.5 -3 t3.5 -2.5t3 -2z"
         id="glyph135" />
      <glyph
         glyph-name="Icircumflex"
         unicode="Î"
         horiz-adv-x="36"
         d="M35 78q-2 0 -4 -1t-3 -1q-2 -1 -3 -2q-2 -1 -3 -1v3q0 2 -1 3q0 2 -1 3q-1 2 -1 3q-2 -3 -4 -5q-1 -3 -2 -7q-1 1 -2 1q-1 1 -3 2t-3 1h-3q2 1 3 3l4 4q1 2 2 5q1 2 2 5h12q1 -5 4 -9q2 -3 6 -7zM32 73q-2 -10 -2.5 -20.5t-0.5 -21.5q0 -8 0.5 -16t1.5 -15h-4h-4 q-5 0 -9.5 -0.5t-9.5 -1.5q2 9 3 17.5t1 18.5q0 8 -1 15.5t-2 15.5q3 0 6.5 1t6.5 2t6.5 2t7.5 3z"
         id="glyph136" />
      <glyph
         glyph-name="Idieresis"
         unicode="Ï"
         horiz-adv-x="36"
         d="M32 73q-2 -10 -2.5 -20.5t-0.5 -21.5q0 -8 0.5 -16t1.5 -15h-4h-4q-5 0 -9.5 -0.5t-9.5 -1.5q2 9 3 17.5t1 18.5q0 8 -1 15.5t-2 15.5q3 0 6.5 1t6.5 2t6.5 2t7.5 3zM15.4902 81.0195q0 -1 -0.5 -2.5t-1 -2.5t-2 -1.5t-2.5 -0.5t-2.5 0.5t-2.5 1.5t-1.5 2t-0.5 3 q0 1 0.5 2t1.5 2t2 1.5t3 0.5q1 0 2.5 -0.5t2 -1.5l1 -2t0.5 -2zM33.4902 81.0195q0 -1 -0.5 -2.5t-1.5 -2.5t-2 -1.5t-2 -0.5t-2.5 0.5t-2.5 1.5t-1.5 2t-0.5 3q0 1 0.5 2t1.5 2t2 1.5t3 0.5q1 0 2 -0.5t2 -1.5t1.5 -2t0.5 -2z"
         id="glyph137" />
      <glyph
         glyph-name="Igrave"
         unicode="Ì"
         horiz-adv-x="36"
         d="M32 73q-2 -10 -2.5 -20.5t-0.5 -21.5q0 -8 0.5 -16t1.5 -15h-4h-4q-5 0 -9.5 -0.5t-9.5 -1.5q2 9 3 17.5t1 18.5q0 8 -1 15.5t-2 15.5q3 0 6.5 1t6.5 2t6.5 2t7.5 3zM14.9258 70.0195q-3 3 -7 6t-9 5q1 1 2.5 2t3 2.5l3 3l2.5 2.5q2 -4 5 -7l7 -7z"
         id="glyph138" />
      <glyph
         glyph-name="Oacute"
         unicode="Ó"
         horiz-adv-x="91"
         d="M71 71q-2 -2 -4 -3.5t-3 -4.5q5 -1 9.5 -3t8 -6t5.5 -8.5t2 -10.5q0 -7 -2 -12.5t-5.5 -10t-8.5 -7.5t-10.5 -5t-11.5 -3t-13 -1q-2 0 -4.5 0.5t-4.5 0.5t-4 0.5t-3 0.5q2 1 3 2.5t3 3.5q-5 1 -10 3t-8.5 5.5t-5.5 8t-2 11.5t2.5 12.5t6.5 10t9.5 7.5t11.5 5.5t13 3 t14 0.5h6h6zM67 39q0 3 -1 5l-2 4t-2.5 3t-3.5 2q-1 -2 -1.5 -3.5t-1.5 -3.5q-3 1 -5.5 1.5t-4.5 0.5q-4 0 -7.5 -1.5t-6.5 -4t-5 -6t-2 -7.5q0 -2 1 -4l2 -4t2.5 -3.5l3.5 -3.5q1 2 1.5 4t0.5 4q3 -2 6 -2.5t5 -0.5q4 0 7.5 1.5t6.5 4t5 6.5t2 8zM64.5039 83.6074 q-2 -1 -4.5 -2t-4.5 -2.5l-4 -3t-4 -3.5l-6 7q3 3 6 6.5t6 7.5q1 -1 2 -2.5t2.5 -3t3.5 -2.5t3 -2z"
         id="glyph139" />
      <glyph
         glyph-name="Ocircumflex"
         unicode="Ô"
         horiz-adv-x="91"
         d="M62 79q-2 0 -3 -2q-2 -1 -3 -1q-2 -1 -4 -1q-2 -1 -3 -2v3v4t-1 3q-1 2 -2 3q-2 -3 -3 -6t-3 -7l-2 2t-3 1q-2 1 -3 1q-2 0 -3 1q2 1 4 3t3 4t3 4q1 2 2 5l12 1q1 -5 3 -9q2 -3 6 -7zM71 71q-2 -2 -4 -3.5t-3 -4.5q5 -1 9.5 -3t8 -6t5.5 -8.5t2 -10.5q0 -7 -2 -12.5 t-5.5 -10t-8.5 -7.5t-10.5 -5t-11.5 -3t-13 -1q-2 0 -4.5 0.5t-4.5 0.5t-4 0.5t-3 0.5q2 1 3 2.5t3 3.5q-5 1 -10 3t-8.5 5.5t-5.5 8t-2 11.5t2.5 12.5t6.5 10t9.5 7.5t11.5 5.5t13 3t14 0.5h6h6zM67 39q0 3 -1 5l-2 4t-2.5 3t-3.5 2q-1 -2 -1.5 -3.5t-1.5 -3.5 q-3 1 -5.5 1.5t-4.5 0.5q-4 0 -7.5 -1.5t-6.5 -4t-5 -6t-2 -7.5q0 -2 1 -4l2 -4t2.5 -3.5l3.5 -3.5q1 2 1.5 4t0.5 4q3 -2 6 -2.5t5 -0.5q4 0 7.5 1.5t6.5 4t5 6.5t2 8z"
         id="glyph140" />
      <glyph
         glyph-name="Ograve"
         unicode="Ò"
         horiz-adv-x="91"
         d="M71 71q-2 -2 -4 -3.5t-3 -4.5q5 -1 9.5 -3t8 -6t5.5 -8.5t2 -10.5q0 -7 -2 -12.5t-5.5 -10t-8.5 -7.5t-10.5 -5t-11.5 -3t-13 -1q-2 0 -4.5 0.5t-4.5 0.5t-4 0.5t-3 0.5q2 1 3 2.5t3 3.5q-5 1 -10 3t-8.5 5.5t-5.5 8t-2 11.5t2.5 12.5t6.5 10t9.5 7.5t11.5 5.5t13 3 t14 0.5h6h6zM67 39q0 3 -1 5l-2 4t-2.5 3t-3.5 2q-1 -2 -1.5 -3.5t-1.5 -3.5q-3 1 -5.5 1.5t-4.5 0.5q-4 0 -7.5 -1.5t-6.5 -4t-5 -6t-2 -7.5q0 -2 1 -4l2 -4t2.5 -3.5l3.5 -3.5q1 2 1.5 4t0.5 4q3 -2 6 -2.5t5 -0.5q4 0 7.5 1.5t6.5 4t5 6.5t2 8zM41.6836 71.582q-3 3 -7 6 t-9 5q1 1 2.5 2t3 2.5l3 3l2.5 2.5q2 -4 5 -7l7 -7z"
         id="glyph141" />
      <glyph
         glyph-name="Uacute"
         unicode="Ú"
         horiz-adv-x="87"
         d="M85 68q0 -17 -3.5 -30.5t-9.5 -22.5t-15.5 -13.5t-21.5 -4.5q-3 0 -6.5 0.5t-6.5 0.5q1 0 1 1q1 0 2 1l2 2q-6 2 -10.5 6.5t-7.5 11t-4.5 14.5t-1.5 18q0 2 0.5 3.5t0.5 3.5v4t1 5q5 0 10 -1q2 0 4.5 0.5t5.5 1t5.5 1t5.5 1.5q-2 -5 -3.5 -9.5t-2.5 -8l-2 -7t-1 -7.5 q0 -7 2 -13t6 -11q0 1 0.5 2t0.5 2q1 0 2.5 -0.5t2.5 -0.5q4 0 6.5 1.5t4.5 3.5t3.5 5t2.5 6.5t1 6.5v6q0 2 -0.5 5.5t-1.5 6.5t-2 7t-3 7q2 -1 4.5 -1.5l5 -1t5.5 -0.5h6q4 0 6.5 0.5t5.5 1.5v-4zM63.3809 82.3867q-2 -1 -4.5 -2t-4.5 -2.5l-4 -3t-4 -3.5l-6 7q3 3 6 6.5 t6 7.5q1 -1 2 -2.5t2.5 -3t3.5 -2.5t3 -2z"
         id="glyph142" />
      <glyph
         glyph-name="Ucircumflex"
         unicode="Û"
         horiz-adv-x="87"
         d="M61 78q-2 0 -4 -1t-3 -1q-2 -1 -3 -1q-2 -1 -3 -2v3q0 2 -1 3q0 2 -1 4l-1 2q-2 -3 -4 -5q-1 -3 -2 -7q-1 1 -3 2q-1 1 -2 1q-2 1 -4 1h-3q2 1 4 4l3 3q1 2 3 5q1 2 2 5h12q1 -5 4 -8q2 -4 6 -8zM85 68q0 -17 -3.5 -30.5t-9.5 -22.5t-15.5 -13.5t-21.5 -4.5 q-3 0 -6.5 0.5t-6.5 0.5q1 0 1 1q1 0 2 1l2 2q-6 2 -10.5 6.5t-7.5 11t-4.5 14.5t-1.5 18q0 2 0.5 3.5t0.5 3.5v4t1 5q5 0 10 -1q2 0 4.5 0.5t5.5 1t5.5 1t5.5 1.5q-2 -5 -3.5 -9.5t-2.5 -8l-2 -7t-1 -7.5q0 -7 2 -13t6 -11q0 1 0.5 2t0.5 2q1 0 2.5 -0.5t2.5 -0.5 q4 0 6.5 1.5t4.5 3.5t3.5 5t2.5 6.5t1 6.5v6q0 2 -0.5 5.5t-1.5 6.5t-2 7t-3 7q2 -1 4.5 -1.5l5 -1t5.5 -0.5h6q4 0 6.5 0.5t5.5 1.5v-4z"
         id="glyph143" />
      <glyph
         glyph-name="Ugrave"
         unicode="Ù"
         horiz-adv-x="87"
         d="M85 68q0 -17 -3.5 -30.5t-9.5 -22.5t-15.5 -13.5t-21.5 -4.5q-3 0 -6.5 0.5t-6.5 0.5q1 0 1 1q1 0 2 1l2 2q-6 2 -10.5 6.5t-7.5 11t-4.5 14.5t-1.5 18q0 2 0.5 3.5t0.5 3.5v4t1 5q5 0 10 -1q2 0 4.5 0.5t5.5 1t5.5 1t5.5 1.5q-2 -5 -3.5 -9.5t-2.5 -8l-2 -7t-1 -7.5 q0 -7 2 -13t6 -11q0 1 0.5 2t0.5 2q1 0 2.5 -0.5t2.5 -0.5q4 0 6.5 1.5t4.5 3.5t3.5 5t2.5 6.5t1 6.5v6q0 2 -0.5 5.5t-1.5 6.5t-2 7t-3 7q2 -1 4.5 -1.5l5 -1t5.5 -0.5h6q4 0 6.5 0.5t5.5 1.5v-4zM40.4141 70.9961q-3 3 -7 6t-9 5q1 1 2.5 2t3 2.5l3 3l2.5 2.5q2 -4 5 -7 l7 -7z"
         id="glyph144" />
      <glyph
         glyph-name="Adieresis"
         unicode="Ä"
         horiz-adv-x="90"
         d="M88 23q-2 -1 -4.5 -2.5t-5.5 -1.5l6 -10l6 -10q-8 0 -15.5 -1.5t-14.5 -4.5v2.5v2.5q0 3 -0.5 6.5t-1.5 7.5h-5.5h-4.5q-4 0 -8 0.5t-8 1.5q-1 -5 -2 -9t-1 -9q-2 1 -6 2q-3 1 -6.5 2t-7.5 1t-8 -1l-8 -2q4 4 7.5 8t6 8t4.5 7.5t4 5.5q-1 2 -2.5 4.5t-2.5 5.5l4 -2l4 -2 v0q3 5 5.5 10.5t5.5 10.5q-1 2 -1.5 3.5t-2 4t-2.5 5t-3 4.5l10 -2t11 -2q3 3 6 5.5t6 3.5l-2 -4t-3 -5q3 0 6 0.5t6 1.5q2 -8 4.5 -16t5.5 -16q2 1 4.5 3t5.5 3q2 -6 4 -11t4 -9zM52 30q-4 10 -10 21q-2 -5 -3.5 -10.5t-3.5 -11.5q1 0 2.5 -0.5t2.5 -0.5q3 0 6 0.5t6 1.5z M47.8145 79.8965q0 -1 -0.5 -2.5t-1 -2.5t-2 -1.5t-2.5 -0.5t-2.5 0.5t-2.5 1.5t-1.5 2t-0.5 3q0 1 0.5 2t1.5 2t2 1.5t3 0.5q1 0 2.5 -0.5t2 -1.5l1 -2t0.5 -2zM65.8145 79.8965q0 -1 -0.5 -2.5t-1.5 -2.5t-2 -1.5t-2 -0.5t-2.5 0.5t-2.5 1.5t-1.5 2t-0.5 3q0 1 0.5 2 t1.5 2t2 1.5t3 0.5q1 0 2 -0.5t2 -1.5t1.5 -2t0.5 -2z"
         id="glyph145" />
      <glyph
         glyph-name="Aring"
         unicode="Å"
         horiz-adv-x="90"
         d="M56 86q0 -2 -1 -4l-2 -4t-3 -2q-2 -1 -4 -1t-4 1t-3 2l-2 4t-1 4t1 4l2 4t3 2q2 1 4 1t4 -1t3 -2l2 -4t1 -4zM51 86v2t-1 1q-1 1 -2 1t-2 1q-1 0 -2 -1q-1 0 -2 -1l-1 -1v-2v-1q0 -1 1 -2t2 -1h2h2t2 1t1 2v1zM88 23q-2 -1 -4.5 -2.5t-5.5 -1.5l6 -10l6 -10 q-8 0 -15.5 -1.5t-14.5 -4.5v2.5v2.5q0 3 -0.5 6.5t-1.5 7.5h-5.5h-4.5q-4 0 -8 0.5t-8 1.5q-1 -5 -2 -9t-1 -9q-2 1 -6 2q-3 1 -6.5 2t-7.5 1t-8 -1l-8 -2q4 4 7.5 8t6 8t4.5 7.5t4 5.5q-1 2 -2.5 4.5t-2.5 5.5l4 -2l4 -2v0q3 5 5.5 10.5t5.5 10.5q-1 2 -1.5 3.5t-2 4 t-2.5 5t-3 4.5l10 -2t11 -2q3 3 6 5.5t6 3.5l-2 -4t-3 -5q3 0 6 0.5t6 1.5q2 -8 4.5 -16t5.5 -16q2 1 4.5 3t5.5 3q2 -6 4 -11t4 -9zM52 30q-4 10 -10 21q-2 -5 -3.5 -10.5t-3.5 -11.5q1 0 2.5 -0.5t2.5 -0.5q3 0 6 0.5t6 1.5z"
         id="glyph146" />
      <glyph
         glyph-name="Ccedilla"
         unicode="Ç"
         horiz-adv-x="81"
         d="M56 -15q0 -2 -0.5 -4t-1.5 -3t-2.5 -1.5t-2.5 -1t-2.5 -0.5h-2.5q-2 0 -5 1t-5 3q2 1 3 3l2 4q1 -1 1.5 -2t1.5 -1h2t1.5 0.5l1 1l1 1l0.5 0.5l-0.5 1q-0.5 1 -1 1.5t-1.5 1t-2 0.5h-2h-3l3 5q-8 0 -15 3t-12 8t-8.5 12.5t-5.5 16.5q1 0 2.5 -0.5t2.5 -0.5q1 10 5.5 17.5 t11.5 12.5t16 7.5t19 2.5q5 0 10.5 -0.5t11.5 -1.5q-1 -4 -2 -8.5t-1 -9.5t1 -9q-3 2 -6 3.5t-6 2.5t-5.5 1h-4.5q-4 0 -9 -1t-9.5 -3.5t-8 -6t-4.5 -7.5q2 0 3.5 0.5t3.5 0.5v-4q0 -5 1.5 -8t4.5 -5.5t6.5 -4t8.5 -1.5q2 0 5.5 0.5t7 2t7.5 3.5t8 6q-1 -6 -3 -10.5 t-4.5 -7.5t-6 -5t-7 -3.5t-7 -2t-7.5 -0.5v-2q3 0 4.5 -0.5t3 -1.5t2 -2l1 -2l0.5 -1v-1z"
         id="glyph147" />
      <glyph
         glyph-name="Eacute"
         unicode="É"
         horiz-adv-x="75"
         d="M34 0h-8h-8t-7.5 -0.5t-7.5 -1.5q3 11 5 22.5t2 22.5q0 5 -0.5 10t-1.5 10l-7 1q2 1 3.5 1.5t3.5 0.5q0 1 -0.5 2.5t-0.5 3.5l6 -2t6 -1q9 2 18.5 3t18.5 1q4 0 8.5 -0.5t8.5 -0.5q-2 -9 -2 -19v-7q-18 8 -38 13q0 -4 -0.5 -8.5t-0.5 -8.5q5 1 10 1.5t10 0.5q-1 -5 -1 -9 v-4v-3q-5 2 -9.5 3.5t-9.5 3.5v-10.5t1 -11.5q19 3 38 9q-1 -4 -1 -7v-7v-6.5t1 -6.5q-9 2 -18.5 4t-18.5 3v-0.5v-1.5zM55.3242 83.8027q-2 -1 -4.5 -2t-4.5 -2.5l-4 -3t-4 -3.5l-6 7q3 3 6 6.5t6 7.5q1 -1 2 -2.5t2.5 -3t3.5 -2.5t3 -2z"
         id="glyph148" />
      <glyph
         glyph-name="Ntilde"
         unicode="Ñ"
         horiz-adv-x="90"
         d="M62 85v-5l-2 -4t-4 -2q-2 -1 -4 -1t-4 1q-1 1 -3 2q-1 1 -1 2q-1 1 -1 2t-1 2t-1 0q-1 0 -1 -1t-1 -1v-2t1 -3h-2h-3q-1 0 -3 -1h-2q0 1 -1 2v2v4v3l2 4q1 1 3 2t5 1q2 0 3 -1l2 -2l2 -2t1 -2t1 -2t2 -1t1 1t1 2q0 1 -1 3q0 1 -1 3q1 0 3 -1h3t3 1h3v-2v-2v-2z M91.4883 67q-7 -9 -10.5 -18.5t-3.5 -21.5q0 -6 1 -12t3 -13q-4 0 -8 -1t-8.5 -2t-8.5 -3q-1 4 -3 8t-3.5 7.5t-3.5 6.5t-3 5q-4 6 -8 11h-1v0v1v-9q0 -15 -4 -29q-8 3 -17 3q-3 0 -6 -0.5t-6 -0.5q7 9 10.5 18.5t3.5 21.5v8t-1 8q-3 3 -7 5.5t-8 5.5q5 -1 9 -0.5t8 1.5 t8.5 2.5t8.5 3.5l26 -47q-1 4 -1 8.5v8.5q0 9 1.5 17.5t5.5 16.5q12 -9 26 -10z"
         id="glyph149" />
      <glyph
         glyph-name="Odieresis"
         unicode="Ö"
         horiz-adv-x="91"
         d="M71 71q-2 -2 -4 -3.5t-3 -4.5q5 -1 9.5 -3t8 -6t5.5 -8.5t2 -10.5q0 -7 -2 -12.5t-5.5 -10t-8.5 -7.5t-10.5 -5t-11.5 -3t-13 -1q-2 0 -4.5 0.5t-4.5 0.5t-4 0.5t-3 0.5q2 1 3 2.5t3 3.5q-5 1 -10 3t-8.5 5.5t-5.5 8t-2 11.5t2.5 12.5t6.5 10t9.5 7.5t11.5 5.5t13 3 t14 0.5h6h6zM67 39q0 3 -1 5l-2 4t-2.5 3t-3.5 2q-1 -2 -1.5 -3.5t-1.5 -3.5q-3 1 -5.5 1.5t-4.5 0.5q-4 0 -7.5 -1.5t-6.5 -4t-5 -6t-2 -7.5q0 -2 1 -4l2 -4t2.5 -3.5l3.5 -3.5q1 2 1.5 4t0.5 4q3 -2 6 -2.5t5 -0.5q4 0 7.5 1.5t6.5 4t5 6.5t2 8zM42.8828 81.0195 q0 -1 -0.5 -2.5t-1 -2.5t-2 -1.5t-2.5 -0.5t-2.5 0.5t-2.5 1.5t-1.5 2t-0.5 3q0 1 0.5 2t1.5 2t2 1.5t3 0.5q1 0 2.5 -0.5t2 -1.5l1 -2t0.5 -2zM60.8828 81.0195q0 -1 -0.5 -2.5t-1.5 -2.5t-2 -1.5t-2 -0.5t-2.5 0.5t-2.5 1.5t-1.5 2t-0.5 3q0 1 0.5 2t1.5 2t2 1.5t3 0.5 q1 0 2 -0.5t2 -1.5t1.5 -2t0.5 -2z"
         id="glyph150" />
      <glyph
         glyph-name="Udieresis"
         unicode="Ü"
         horiz-adv-x="87"
         d="M85 68q0 -17 -3.5 -30.5t-9.5 -22.5t-15.5 -13.5t-21.5 -4.5q-3 0 -6.5 0.5t-6.5 0.5q1 0 1 1q1 0 2 1l2 2q-6 2 -10.5 6.5t-7.5 11t-4.5 14.5t-1.5 18q0 2 0.5 3.5t0.5 3.5v4t1 5q5 0 10 -1q2 0 4.5 0.5t5.5 1t5.5 1t5.5 1.5q-2 -5 -3.5 -9.5t-2.5 -8l-2 -7t-1 -7.5 q0 -7 2 -13t6 -11q0 1 0.5 2t0.5 2q1 0 2.5 -0.5t2.5 -0.5q4 0 6.5 1.5t4.5 3.5t3.5 5t2.5 6.5t1 6.5v6q0 2 -0.5 5.5t-1.5 6.5t-2 7t-3 7q2 -1 4.5 -1.5l5 -1t5.5 -0.5h6q4 0 6.5 0.5t5.5 1.5v-4zM41.3203 81.0195q0 -1 -0.5 -2.5t-1 -2.5t-2 -1.5t-2.5 -0.5t-2.5 0.5 t-2.5 1.5t-1.5 2t-0.5 3q0 1 0.5 2t1.5 2t2 1.5t3 0.5q1 0 2.5 -0.5t2 -1.5l1 -2t0.5 -2zM59.3203 81.0195q0 -1 -0.5 -2.5t-1.5 -2.5t-2 -1.5t-2 -0.5t-2.5 0.5t-2.5 1.5t-1.5 2t-0.5 3q0 1 0.5 2t1.5 2t2 1.5t3 0.5q1 0 2 -0.5t2 -1.5t1.5 -2t0.5 -2z"
         id="glyph151" />
      <glyph
         glyph-name="aacute"
         unicode="á"
         d="M79 18q-2 -1 -4 -1.5t-4 -1.5q4 -8 10 -15q-8 0 -15 -1.5t-14 -5.5q1 1 1 2.5v3.5t-0.5 5t-1.5 6q-2 0 -4 -0.5t-4 -0.5q-3 0 -6.5 0.5t-6.5 1.5q-1 -4 -1.5 -7.5t-1.5 -7.5q-2 1 -5 2t-6.5 1.5t-6.5 0.5t-7 -0.5t-8 -1.5q3 3 6 6.5t5.5 7t4.5 6t3 4.5q-1 2 -2.5 4 t-2.5 4l4 -2t4 -1q2 4 4.5 8t5.5 7q-1 1 -2 3.5t-2 4t-2 3.5l-2 4q5 -1 9.5 -2t9.5 -1q3 2 5.5 4t5.5 3q-1 -2 -1.5 -3.5t-1.5 -3.5q2 0 4.5 0.5t5.5 0.5q2 -7 4 -13l4 -12q2 1 4.5 2.5t4.5 2.5q2 -5 3.5 -9.5t3.5 -7.5zM46 24q-2 4 -4 7.5t-4 7.5q-3 -8 -5 -16h1.5h1.5h5 t5 1zM61.2812 71.4004q-2 -1 -4.5 -2t-4.5 -2.5l-4 -3t-4 -3.5l-6 7q3 3 6 6.5t6 7.5q1 -1 2 -2.5t2.5 -3t3.5 -2.5t3 -2z"
         id="glyph152" />
      <glyph
         glyph-name="agrave"
         unicode="à"
         d="M79 18q-2 -1 -4 -1.5t-4 -1.5q4 -8 10 -15q-8 0 -15 -1.5t-14 -5.5q1 1 1 2.5v3.5t-0.5 5t-1.5 6q-2 0 -4 -0.5t-4 -0.5q-3 0 -6.5 0.5t-6.5 1.5q-1 -4 -1.5 -7.5t-1.5 -7.5q-2 1 -5 2t-6.5 1.5t-6.5 0.5t-7 -0.5t-8 -1.5q3 3 6 6.5t5.5 7t4.5 6t3 4.5q-1 2 -2.5 4 t-2.5 4l4 -2t4 -1q2 4 4.5 8t5.5 7q-1 1 -2 3.5t-2 4t-2 3.5l-2 4q5 -1 9.5 -2t9.5 -1q3 2 5.5 4t5.5 3q-1 -2 -1.5 -3.5t-1.5 -3.5q2 0 4.5 0.5t5.5 0.5q2 -7 4 -13l4 -12q2 1 4.5 2.5t4.5 2.5q2 -5 3.5 -9.5t3.5 -7.5zM46 24q-2 4 -4 7.5t-4 7.5q-3 -8 -5 -16h1.5h1.5h5 t5 1zM39.877 58.4961q-3 3 -7 6t-9 5q1 1 2.5 2t3 2.5l3 3l2.5 2.5q2 -4 5 -7l7 -7z"
         id="glyph153" />
      <glyph
         glyph-name="acircumflex"
         unicode="â"
         d="M60 67q-2 0 -3 -2q-2 -1 -3 -1q-2 -1 -4 -1q-2 -1 -3 -2q0 2 1 3q0 2 -1 4q0 2 -1 3q-1 2 -1 3l-4 -6q-1 -3 -3 -7l-2 2t-3 1q-2 1 -3 1q-2 0 -3 1q2 1 4 3t3 4t3 4q1 2 2 5l12 1q1 -5 4 -9q1 -3 5 -7zM79 18q-2 -1 -4 -1.5t-4 -1.5q4 -8 10 -15q-8 0 -15 -1.5t-14 -5.5 q1 1 1 2.5v3.5t-0.5 5t-1.5 6q-2 0 -4 -0.5t-4 -0.5q-3 0 -6.5 0.5t-6.5 1.5q-1 -4 -1.5 -7.5t-1.5 -7.5q-2 1 -5 2t-6.5 1.5t-6.5 0.5t-7 -0.5t-8 -1.5q3 3 6 6.5t5.5 7t4.5 6t3 4.5q-1 2 -2.5 4t-2.5 4l4 -2t4 -1q2 4 4.5 8t5.5 7q-1 1 -2 3.5t-2 4t-2 3.5l-2 4 q5 -1 9.5 -2t9.5 -1q3 2 5.5 4t5.5 3q-1 -2 -1.5 -3.5t-1.5 -3.5q2 0 4.5 0.5t5.5 0.5q2 -7 4 -13l4 -12q2 1 4.5 2.5t4.5 2.5q2 -5 3.5 -9.5t3.5 -7.5zM46 24q-2 4 -4 7.5t-4 7.5q-3 -8 -5 -16h1.5h1.5h5t5 1z"
         id="glyph154" />
      <glyph
         glyph-name="adieresis"
         unicode="ä"
         d="M79 18q-2 -1 -4 -1.5t-4 -1.5q4 -8 10 -15q-8 0 -15 -1.5t-14 -5.5q1 1 1 2.5v3.5t-0.5 5t-1.5 6q-2 0 -4 -0.5t-4 -0.5q-3 0 -6.5 0.5t-6.5 1.5q-1 -4 -1.5 -7.5t-1.5 -7.5q-2 1 -5 2t-6.5 1.5t-6.5 0.5t-7 -0.5t-8 -1.5q3 3 6 6.5t5.5 7t4.5 6t3 4.5q-1 2 -2.5 4 t-2.5 4l4 -2t4 -1q2 4 4.5 8t5.5 7q-1 1 -2 3.5t-2 4t-2 3.5l-2 4q5 -1 9.5 -2t9.5 -1q3 2 5.5 4t5.5 3q-1 -2 -1.5 -3.5t-1.5 -3.5q2 0 4.5 0.5t5.5 0.5q2 -7 4 -13l4 -12q2 1 4.5 2.5t4.5 2.5q2 -5 3.5 -9.5t3.5 -7.5zM46 24q-2 4 -4 7.5t-4 7.5q-3 -8 -5 -16h1.5h1.5h5 t5 1zM41.3203 68.5195q0 -1 -0.5 -2.5t-1 -2.5t-2 -1.5t-2.5 -0.5t-2.5 0.5t-2.5 1.5t-1.5 2t-0.5 3q0 1 0.5 2t1.5 2t2 1.5t3 0.5q1 0 2.5 -0.5t2 -1.5l1 -2t0.5 -2zM59.3203 68.5195q0 -1 -0.5 -2.5t-1.5 -2.5t-2 -1.5t-2 -0.5t-2.5 0.5t-2.5 1.5t-1.5 2t-0.5 3q0 1 0.5 2 t1.5 2t2 1.5t3 0.5q1 0 2 -0.5t2 -1.5t1.5 -2t0.5 -2z"
         id="glyph155" />
      <glyph
         glyph-name="atilde"
         unicode="ã"
         d="M60 74v-5q-1 -2 -3 -4q-1 -2 -3 -2q-2 -1 -5 -1q-2 0 -3 1t-3 1q-1 1 -1 2q-1 1 -1 3q0 1 -1 1l-1 1q-1 0 -2 -1v-1v-2t1 -3h-2h-3q-1 0 -3 -1q-1 0 -3 -1v3v2v3v4q1 2 2 3l3 3q2 1 4 1t4 -1l2 -2l2 -2t1 -2t1 -2l1 -1q1 0 2 1v2v2t-1 4q1 0 3 -1h3h3q2 0 3 1v-2v-2v-2z M79 18q-2 -1 -4 -1.5t-4 -1.5q4 -8 10 -15q-8 0 -15 -1.5t-14 -5.5q1 1 1 2.5v3.5t-0.5 5t-1.5 6q-2 0 -4 -0.5t-4 -0.5q-3 0 -6.5 0.5t-6.5 1.5q-1 -4 -1.5 -7.5t-1.5 -7.5q-2 1 -5 2t-6.5 1.5t-6.5 0.5t-7 -0.5t-8 -1.5q3 3 6 6.5t5.5 7t4.5 6t3 4.5q-1 2 -2.5 4t-2.5 4 l4 -2t4 -1q2 4 4.5 8t5.5 7q-1 1 -2 3.5t-2 4t-2 3.5l-2 4q5 -1 9.5 -2t9.5 -1q3 2 5.5 4t5.5 3q-1 -2 -1.5 -3.5t-1.5 -3.5q2 0 4.5 0.5t5.5 0.5q2 -7 4 -13l4 -12q2 1 4.5 2.5t4.5 2.5q2 -5 3.5 -9.5t3.5 -7.5zM46 24q-2 4 -4 7.5t-4 7.5q-3 -8 -5 -16h1.5h1.5h5t5 1z"
         id="glyph156" />
      <glyph
         glyph-name="aring"
         unicode="å"
         d="M52 72q0 -2 -1 -4l-2 -4t-3 -2q-2 -1 -4 -1t-4 1t-3 2l-2 4t-1 4t1 5q1 2 2 3q1 2 3 3t4 0h4q2 -1 3 -3t2 -3q1 -3 1 -5zM48 73q0 1 -1 1q0 1 -1 2t-2 0q-1 0 -2 1q-1 0 -2 -1h-1l-2 -2v-1v-2t2 -2q1 -1 1 0q1 0 2 -1q1 0 2 1h2q1 1 1 2q1 1 1 2zM79 18q-2 -1 -4 -1.5 t-4 -1.5q4 -8 10 -15q-8 0 -15 -1.5t-14 -5.5q1 1 1 2.5v3.5t-0.5 5t-1.5 6q-2 0 -4 -0.5t-4 -0.5q-3 0 -6.5 0.5t-6.5 1.5q-1 -4 -1.5 -7.5t-1.5 -7.5q-2 1 -5 2t-6.5 1.5t-6.5 0.5t-7 -0.5t-8 -1.5q3 3 6 6.5t5.5 7t4.5 6t3 4.5q-1 2 -2.5 4t-2.5 4l4 -2t4 -1q2 4 4.5 8 t5.5 7q-1 1 -2 3.5t-2 4t-2 3.5l-2 4q5 -1 9.5 -2t9.5 -1q3 2 5.5 4t5.5 3q-1 -2 -1.5 -3.5t-1.5 -3.5q2 0 4.5 0.5t5.5 0.5q2 -7 4 -13l4 -12q2 1 4.5 2.5t4.5 2.5q2 -5 3.5 -9.5t3.5 -7.5zM46 24q-2 4 -4 7.5t-4 7.5q-3 -8 -5 -16h1.5h1.5h5t5 1z"
         id="glyph157" />
      <glyph
         glyph-name="ccedilla"
         unicode="ç"
         horiz-adv-x="76"
         d="M53 -15q0 -3 -1.5 -5t-3.5 -3t-4 -1.5t-3 -0.5q-2 0 -5 1t-5 3q2 1 3 3l2 4q1 -1 1.5 -2t1.5 -1h2t1.5 0.5l1 1t0.5 1v0.5v1q0 1 -0.5 1.5t-1.5 1t-2 0.5h-2h-3l4 6q-7 0 -13.5 2.5t-11.5 6.5t-8 10t-4 14q1 0 2 -0.5t2 -1.5q1 8 5 14t10 10t14 6t17 2q4 0 9.5 -0.5 t11.5 -0.5q-1 -4 -2 -7.5t-1 -7.5q0 -2 0.5 -4t0.5 -4q-3 2 -6 3t-5.5 2t-4.5 1.5t-4 0.5q-4 0 -8 -1t-7.5 -3t-6.5 -4.5t-4 -6.5q2 0 3 0.5l3 1.5v-2v-2q0 -4 1 -6.5t3.5 -4.5t5.5 -3t7 -1h4.5t6 1.5l7 3t7.5 4.5q-1 -4 -2 -7t-3.5 -5.5t-5.5 -4.5t-6.5 -3l-7 -2t-6.5 -1 v-3q3 0 4.5 -0.5t3 -1.5t2 -2l1 -2l0.5 -1v-1z"
         id="glyph158" />
      <glyph
         glyph-name="eacute"
         unicode="é"
         horiz-adv-x="70"
         d="M33 0h-9h-7.5t-6.5 -0.5t-6 -1.5q3 9 4.5 18t1.5 18q0 8 -2 17h-6v0l6 2l-1 5q3 -1 5.5 -1.5t5.5 -1.5q8 2 16.5 2.5t17.5 0.5h7.5h7.5q-1 -4 -1.5 -7.5t-0.5 -7.5v-3t1 -3q-8 3 -16.5 5.5t-17.5 4.5q0 -3 -0.5 -6.5t-0.5 -7.5q4 1 8.5 1.5t8.5 0.5q0 -2 -0.5 -3.5 t-0.5 -3.5q0 -3 1 -7q-4 2 -8.5 3.5t-8.5 2.5v-8t1 -8q8 1 16.5 3t17.5 4q-1 -3 -1.5 -6t-0.5 -6q0 -5 1 -10q-8 2 -16 3l-16 2v-1zM53.9082 69.6914q-2 -1 -4.5 -2t-4.5 -2.5l-4 -3t-4 -3.5l-6 7q3 3 6 6.5t6 7.5q1 -1 2 -2.5t2.5 -3t3.5 -2.5t3 -2z"
         id="glyph159" />
      <glyph
         glyph-name="egrave"
         unicode="è"
         horiz-adv-x="70"
         d="M33 0h-9h-7.5t-6.5 -0.5t-6 -1.5q3 9 4.5 18t1.5 18q0 8 -2 17h-6v0l6 2l-1 5q3 -1 5.5 -1.5t5.5 -1.5q8 2 16.5 2.5t17.5 0.5h7.5h7.5q-1 -4 -1.5 -7.5t-0.5 -7.5v-3t1 -3q-8 3 -16.5 5.5t-17.5 4.5q0 -3 -0.5 -6.5t-0.5 -7.5q4 1 8.5 1.5t8.5 0.5q0 -2 -0.5 -3.5 t-0.5 -3.5q0 -3 1 -7q-4 2 -8.5 3.5t-8.5 2.5v-8t1 -8q8 1 16.5 3t17.5 4q-1 -3 -1.5 -6t-0.5 -6q0 -5 1 -10q-8 2 -16 3l-16 2v-1zM34.6035 59.1797q-3 3 -7 6t-9 5q1 1 2.5 2t3 2.5l3 3l2.5 2.5q2 -4 5 -7l7 -7z"
         id="glyph160" />
      <glyph
         glyph-name="ecircumflex"
         unicode="ê"
         horiz-adv-x="70"
         d="M51 65q-2 0 -3 -1q-2 -1 -3 -2q-2 -1 -4 -1q-2 -1 -3 -2v4v3q0 2 -1 3q-1 2 -2 3q-2 -3 -3 -6t-3 -7l-2 2t-3 1q-2 1 -3 1q-2 0 -3 1q2 1 4 3t3 4t3 4q1 2 2 5l12 1q1 -5 3 -9q2 -3 6 -7zM33 0h-9h-7.5t-6.5 -0.5t-6 -1.5q3 9 4.5 18t1.5 18q0 8 -2 17h-6v0l6 2l-1 5 q3 -1 5.5 -1.5t5.5 -1.5q8 2 16.5 2.5t17.5 0.5h7.5h7.5q-1 -4 -1.5 -7.5t-0.5 -7.5v-3t1 -3q-8 3 -16.5 5.5t-17.5 4.5q0 -3 -0.5 -6.5t-0.5 -7.5q4 1 8.5 1.5t8.5 0.5q0 -2 -0.5 -3.5t-0.5 -3.5q0 -3 1 -7q-4 2 -8.5 3.5t-8.5 2.5v-8t1 -8q8 1 16.5 3t17.5 4 q-1 -3 -1.5 -6t-0.5 -6q0 -5 1 -10q-8 2 -16 3l-16 2v-1z"
         id="glyph161" />
      <glyph
         glyph-name="edieresis"
         unicode="ë"
         horiz-adv-x="70"
         d="M33 0h-9h-7.5t-6.5 -0.5t-6 -1.5q3 9 4.5 18t1.5 18q0 8 -2 17h-6v0l6 2l-1 5q3 -1 5.5 -1.5t5.5 -1.5q8 2 16.5 2.5t17.5 0.5h7.5h7.5q-1 -4 -1.5 -7.5t-0.5 -7.5v-3t1 -3q-8 3 -16.5 5.5t-17.5 4.5q0 -3 -0.5 -6.5t-0.5 -7.5q4 1 8.5 1.5t8.5 0.5q0 -2 -0.5 -3.5 t-0.5 -3.5q0 -3 1 -7q-4 2 -8.5 3.5t-8.5 2.5v-8t1 -8q8 1 16.5 3t17.5 4q-1 -3 -1.5 -6t-0.5 -6q0 -5 1 -10q-8 2 -16 3l-16 2v-1zM31.9941 68.0801q0 -1 -0.5 -2.5t-1 -2.5t-2 -1.5t-2.5 -0.5t-2.5 0.5t-2.5 1.5t-1.5 2t-0.5 3q0 1 0.5 2t1.5 2t2 1.5t3 0.5q1 0 2.5 -0.5 t2 -1.5l1 -2t0.5 -2zM49.9941 68.0801q0 -1 -0.5 -2.5t-1.5 -2.5t-2 -1.5t-2 -0.5t-2.5 0.5t-2.5 1.5t-1.5 2t-0.5 3q0 1 0.5 2t1.5 2t2 1.5t3 0.5q1 0 2 -0.5t2 -1.5t1.5 -2t0.5 -2z"
         id="glyph162" />
      <glyph
         glyph-name="iacute"
         unicode="í"
         horiz-adv-x="36"
         d="M31 58q-1 -8 -2 -16.5t-1 -16.5q0 -6 0.5 -12.5t1.5 -12.5h-4h-4q-4 0 -8 -0.5t-9 -1.5q1 7 2 14.5t1 14.5q0 6 -1 12.5t-2 12.5q3 0 6 0.5t6.5 1.5t6.5 2t7 2zM35.4023 68.5195q-2 -1 -4.5 -2t-4.5 -2.5l-4 -3t-4 -3.5l-6 7q3 3 6 6.5t6 7.5q1 -1 2 -2.5t2.5 -3 t3.5 -2.5t3 -2z"
         id="glyph163" />
      <glyph
         glyph-name="igrave"
         unicode="ì"
         horiz-adv-x="37"
         d="M32 58q-1 -8 -2 -16.5t-1 -16.5q0 -6 0.5 -12.5t1.5 -12.5h-4h-4q-4 0 -8 -0.5t-9 -1.5q1 7 2 14.5t1 14.5q0 6 -1 12.5t-2 12.5q3 0 6 0.5t6.5 1.5t6.5 2t7 2zM16.4883 56.3965q-3 3 -7 6t-9 5q1 1 2.5 2t3 2.5l3 3l2.5 2.5q2 -4 5 -7l7 -7z"
         id="glyph164" />
      <glyph
         glyph-name="icircumflex"
         unicode="î"
         horiz-adv-x="36"
         d="M35 64q-2 0 -4 -1t-3 -2q-2 -1 -3 -1q-2 -1 -3 -2v4t-1 3q0 2 -1 3q-1 2 -1 3l-4 -6q-1 -3 -2 -7q-1 1 -3 2q-1 1 -2 1q-2 1 -3 1q-2 0 -4 1q2 1 4 3l4 4l2 4t2 5l12 1q1 -5 4 -9q2 -3 6 -7zM31 58q-1 -8 -2 -16.5t-1 -16.5q0 -6 0.5 -12.5t1.5 -12.5h-4h-4q-4 0 -8 -0.5 t-9 -1.5q1 7 2 14.5t1 14.5q0 6 -1 12.5t-2 12.5q3 0 6 0.5t6.5 1.5t6.5 2t7 2z"
         id="glyph165" />
      <glyph
         glyph-name="idieresis"
         unicode="ï"
         horiz-adv-x="36"
         d="M32 58q-1 -8 -2 -16.5t-1 -16.5q0 -6 0.5 -12.5t1.5 -12.5h-4h-4q-4 0 -8 -0.5t-9 -1.5q1 7 2 14.5t1 14.5q0 6 -1 12.5t-2 12.5q3 0 6 0.5t6.5 1.5t6.5 2t7 2zM15.7832 67.3965q0 -1 -0.5 -2.5t-1 -2.5t-2 -1.5t-2.5 -0.5t-2.5 0.5t-2.5 1.5t-1.5 2t-0.5 3q0 1 0.5 2 t1.5 2t2 1.5t3 0.5q1 0 2.5 -0.5t2 -1.5l1 -2t0.5 -2zM33.7832 67.3965q0 -1 -0.5 -2.5t-1.5 -2.5t-2 -1.5t-2 -0.5t-2.5 0.5t-2.5 1.5t-1.5 2t-0.5 3q0 1 0.5 2t1.5 2t2 1.5t3 0.5q1 0 2 -0.5t2 -1.5t1.5 -2t0.5 -2z"
         id="glyph166" />
      <glyph
         glyph-name="ntilde"
         unicode="ñ"
         horiz-adv-x="81"
         d="M59 73q0 -3 -1 -5l-2 -4t-3 -2q-2 -1 -5 -1h-4l-2 2t-1 2q-1 1 -1 2t-1 2t-2 1t-1 -1v-2v-2t1 -2h-3q-1 0 -2 -1h-3q-1 0 -3 -1v2v3q0 1 -1 3q0 2 1 4t2 3t3 2t4 1h4l2 -2t1 -2q1 -1 1 -3q0 -1 2 -1l1 -1q1 0 2 1v2v2t-1 3h3h3h3q2 0 3 1v-2v-2v-2zM83.5859 54 q-6 -7 -9 -15t-3 -17q0 -5 0.5 -10t2.5 -10q-4 0 -8 -1q-3 -1 -7 -2t-8 -3q-3 8 -7.5 15.5t-10.5 14.5q1 -14 -4 -29q-9 3 -16 3q-2 0 -5 -0.5t-6 -0.5q6 7 9 15t3 17v6.5t-1 6.5q-3 2 -6 4.5t-7 4.5h8.5t8 0.5t7 2t7.5 3.5l21 -34v4.5v4.5q0 7 1.5 14t5.5 14q6 -4 11.5 -6 t12.5 -2z"
         id="glyph167" />
      <glyph
         glyph-name="oacute"
         unicode="ó"
         horiz-adv-x="83"
         d="M65 57q-2 -1 -3.5 -3t-3.5 -3q5 -1 9 -3t7 -5t5 -7t2 -8q0 -5 -2 -9.5t-5 -8t-7.5 -6t-9.5 -4t-10.5 -2.5t-10.5 -1h-4.5t-4.5 0.5t-3.5 0.5h-2.5q1 1 2 2.5t2 2.5q-5 1 -8.5 2.5t-6.5 4.5t-5 6.5t-2 8.5q0 6 2 10.5t5.5 8t8.5 6t10.5 4.5t12 2.5t12.5 0.5h4.5h5.5h1z M60 31q0 4 -2 6.5t-5 4.5q-1 -1 -1 -2.5t-1 -2.5q-3 1 -5.5 1h-3.5q-3 0 -6.5 -1t-6 -3t-4 -4.5t-1.5 -6.5q0 -3 2 -5.5t4 -5.5q0 2 0.5 3.5t0.5 3.5q4 -2 6.5 -2.5t5.5 -0.5t6 1t5.5 3t4 4.5t1.5 6.5zM61.623 69.6914q-2 -1 -4.5 -2t-4.5 -2.5l-4 -3t-4 -3.5l-6 7 q3 3 6 6.5t6 7.5q1 -1 2 -2.5t2.5 -3t3.5 -2.5t3 -2z"
         id="glyph168" />
      <glyph
         glyph-name="ograve"
         unicode="ò"
         horiz-adv-x="83"
         d="M65 57q-2 -1 -3.5 -3t-3.5 -3q5 -1 9 -3t7 -5t5 -7t2 -8q0 -5 -2 -9.5t-5 -8t-7.5 -6t-9.5 -4t-10.5 -2.5t-10.5 -1h-4.5t-4.5 0.5t-3.5 0.5h-2.5q1 1 2 2.5t2 2.5q-5 1 -8.5 2.5t-6.5 4.5t-5 6.5t-2 8.5q0 6 2 10.5t5.5 8t8.5 6t10.5 4.5t12 2.5t12.5 0.5h4.5h5.5h1z M60 31q0 4 -2 6.5t-5 4.5q-1 -1 -1 -2.5t-1 -2.5q-3 1 -5.5 1h-3.5q-3 0 -6.5 -1t-6 -3t-4 -4.5t-1.5 -6.5q0 -3 2 -5.5t4 -5.5q0 2 0.5 3.5t0.5 3.5q4 -2 6.5 -2.5t5.5 -0.5t6 1t5.5 3t4 4.5t1.5 6.5zM40.4141 58.9844q-3 3 -7 6t-9 5q1 1 2.5 2t3 2.5l3 3l2.5 2.5 q2 -4 5 -7l7 -7z"
         id="glyph169" />
      <glyph
         glyph-name="ocircumflex"
         unicode="ô"
         horiz-adv-x="83"
         d="M58 64q-2 0 -3 -1q-2 -1 -3 -1q-2 -1 -4 -1q-2 -1 -3 -2q0 2 1 3q0 2 -1 3q0 2 -1 4l-1 2q-2 -3 -4 -5q-1 -3 -2 -7q-1 1 -3 2q-1 1 -3 1q-2 1 -3 1h-3q2 1 4 4l3 3q1 2 3 5q1 2 2 5h12q1 -5 4 -8q1 -4 5 -8zM65 57q-2 -1 -3.5 -3t-3.5 -3q5 -1 9 -3t7 -5t5 -7t2 -8 q0 -5 -2 -9.5t-5 -8t-7.5 -6t-9.5 -4t-10.5 -2.5t-10.5 -1h-4.5t-4.5 0.5t-3.5 0.5h-2.5q1 1 2 2.5t2 2.5q-5 1 -8.5 2.5t-6.5 4.5t-5 6.5t-2 8.5q0 6 2 10.5t5.5 8t8.5 6t10.5 4.5t12 2.5t12.5 0.5h4.5h5.5h1zM60 31q0 4 -2 6.5t-5 4.5q-1 -1 -1 -2.5t-1 -2.5q-3 1 -5.5 1 h-3.5q-3 0 -6.5 -1t-6 -3t-4 -4.5t-1.5 -6.5q0 -3 2 -5.5t4 -5.5q0 2 0.5 3.5t0.5 3.5q4 -2 6.5 -2.5t5.5 -0.5t6 1t5.5 3t4 4.5t1.5 6.5z"
         id="glyph170" />
      <glyph
         glyph-name="odieresis"
         unicode="ö"
         horiz-adv-x="83"
         d="M65 57q-2 -1 -3.5 -3t-3.5 -3q5 -1 9 -3t7 -5t5 -7t2 -8q0 -5 -2 -9.5t-5 -8t-7.5 -6t-9.5 -4t-10.5 -2.5t-10.5 -1h-4.5t-4.5 0.5t-3.5 0.5h-2.5q1 1 2 2.5t2 2.5q-5 1 -8.5 2.5t-6.5 4.5t-5 6.5t-2 8.5q0 6 2 10.5t5.5 8t8.5 6t10.5 4.5t12 2.5t12.5 0.5h4.5h5.5h1z M60 31q0 4 -2 6.5t-5 4.5q-1 -1 -1 -2.5t-1 -2.5q-3 1 -5.5 1h-3.5q-3 0 -6.5 -1t-6 -3t-4 -4.5t-1.5 -6.5q0 -3 2 -5.5t4 -5.5q0 2 0.5 3.5t0.5 3.5q4 -2 6.5 -2.5t5.5 -0.5t6 1t5.5 3t4 4.5t1.5 6.5zM39.3184 67.1035q0 -1 -0.5 -2.5t-1 -2.5t-2 -1.5t-2.5 -0.5t-2.5 0.5 t-2.5 1.5t-1.5 2t-0.5 3q0 1 0.5 2t1.5 2t2 1.5t3 0.5q1 0 2.5 -0.5t2 -1.5l1 -2t0.5 -2zM57.3184 67.1035q0 -1 -0.5 -2.5t-1.5 -2.5t-2 -1.5t-2 -0.5t-2.5 0.5t-2.5 1.5t-1.5 2t-0.5 3q0 1 0.5 2t1.5 2t2 1.5t3 0.5q1 0 2 -0.5t2 -1.5t1.5 -2t0.5 -2z"
         id="glyph171" />
      <glyph
         glyph-name="otilde"
         unicode="õ"
         horiz-adv-x="83"
         d="M59 72q0 -3 -1 -5l-2 -4t-4 -2q-2 -1 -4 -1h-4l-2 2l-2 2t-1 2t-1 2l-1 1q-1 0 -1 -1t-1 -2q0 -1 1 -2q0 -1 1 -2h-3q-1 0 -3 -1h-3q-1 0 -2 -1v2t-1 3v3t1 4t2 3t3 2t4 1h3q1 -1 3 -2q1 -1 1 -2q1 -1 1 -3q0 -1 1 -1q1 -1 2 -1t1 1t1 2v2t-1 3h2h3h4t3 1v-2v-2v-2z M65 57q-2 -1 -3.5 -3t-3.5 -3q5 -1 9 -3t7 -5t5 -7t2 -8q0 -5 -2 -9.5t-5 -8t-7.5 -6t-9.5 -4t-10.5 -2.5t-10.5 -1h-4.5t-4.5 0.5t-3.5 0.5h-2.5q1 1 2 2.5t2 2.5q-5 1 -8.5 2.5t-6.5 4.5t-5 6.5t-2 8.5q0 6 2 10.5t5.5 8t8.5 6t10.5 4.5t12 2.5t12.5 0.5h4.5h5.5h1zM60 31 q0 4 -2 6.5t-5 4.5q-1 -1 -1 -2.5t-1 -2.5q-3 1 -5.5 1h-3.5q-3 0 -6.5 -1t-6 -3t-4 -4.5t-1.5 -6.5q0 -3 2 -5.5t4 -5.5q0 2 0.5 3.5t0.5 3.5q4 -2 6.5 -2.5t5.5 -0.5t6 1t5.5 3t4 4.5t1.5 6.5z"
         id="glyph172" />
      <glyph
         glyph-name="uacute"
         unicode="ú"
         horiz-adv-x="80"
         d="M77 58q0 -15 -2.5 -26.5t-8.5 -19t-14 -11.5t-19 -4q-3 0 -6 0.5t-6 1.5h1q1 0 1.5 1t1.5 2q-5 2 -9 5t-6.5 8.5t-4 12t-1.5 13.5v3.5v3t0.5 3t0.5 3.5h3h2.5h2.5h4.5t5.5 0.5t5.5 1t5.5 1.5q-2 -4 -3 -7.5t-2 -6.5t-1.5 -6t-0.5 -6q0 -5 1.5 -9t3.5 -8v1q3 -1 6 0 q3 0 5 1t4 2.5t3 4l2 5t1 5v5.5t-0.5 4.5l-1 5t-2 5.5t-2.5 6q2 -1 4.5 -1.5l5 -1t5 -0.5h4.5q3 0 5.5 0.5t5.5 1.5zM58.5957 68.8125q-2 -1 -4.5 -2t-4.5 -2.5l-4 -3t-4 -3.5l-6 7q3 3 6 6.5t6 7.5q1 -1 2 -2.5t2.5 -3t3.5 -2.5t3 -2z"
         id="glyph173" />
      <glyph
         glyph-name="ugrave"
         unicode="ù"
         horiz-adv-x="80"
         d="M77 58q0 -15 -2.5 -26.5t-8.5 -19t-14 -11.5t-19 -4q-3 0 -6 0.5t-6 1.5h1q1 0 1.5 1t1.5 2q-5 2 -9 5t-6.5 8.5t-4 12t-1.5 13.5v3.5v3t0.5 3t0.5 3.5h3h2.5h2.5h4.5t5.5 0.5t5.5 1t5.5 1.5q-2 -4 -3 -7.5t-2 -6.5t-1.5 -6t-0.5 -6q0 -5 1.5 -9t3.5 -8v1q3 -1 6 0 q3 0 5 1t4 2.5t3 4l2 5t1 5v5.5t-0.5 4.5l-1 5t-2 5.5t-2.5 6q2 -1 4.5 -1.5l5 -1t5 -0.5h4.5q3 0 5.5 0.5t5.5 1.5zM37.1914 57.5195q-3 3 -7 6t-9 5q1 1 2.5 2t3 2.5l3 3l2.5 2.5q2 -4 5 -7l7 -7z"
         id="glyph174" />
      <glyph
         glyph-name="ucircumflex"
         unicode="û"
         horiz-adv-x="80"
         d="M57 64q-2 0 -3 -1q-2 -1 -3 -1q-2 -1 -4 -1q-2 -1 -3 -2v3v4t-1 3q-1 2 -1 3l-4 -6q-1 -3 -3 -7l-2 2t-3 1q-2 1 -3 1q-2 0 -3 1q2 1 4 3t3 4t3 4q1 2 2 5h12q1 -5 3 -8q2 -4 6 -8zM77 58q0 -15 -2.5 -26.5t-8.5 -19t-14 -11.5t-19 -4q-3 0 -6 0.5t-6 1.5h1q1 0 1.5 1 t1.5 2q-5 2 -9 5t-6.5 8.5t-4 12t-1.5 13.5v3.5v3t0.5 3t0.5 3.5h3h2.5h2.5h4.5t5.5 0.5t5.5 1t5.5 1.5q-2 -4 -3 -7.5t-2 -6.5t-1.5 -6t-0.5 -6q0 -5 1.5 -9t3.5 -8v1q3 -1 6 0q3 0 5 1t4 2.5t3 4l2 5t1 5v5.5t-0.5 4.5l-1 5t-2 5.5t-2.5 6q2 -1 4.5 -1.5l5 -1t5 -0.5h4.5 q3 0 5.5 0.5t5.5 1.5z"
         id="glyph175" />
      <glyph
         glyph-name="udieresis"
         unicode="ü"
         horiz-adv-x="80"
         d="M77 58q0 -15 -2.5 -26.5t-8.5 -19t-14 -11.5t-19 -4q-3 0 -6 0.5t-6 1.5h1q1 0 1.5 1t1.5 2q-5 2 -9 5t-6.5 8.5t-4 12t-1.5 13.5v3.5v3t0.5 3t0.5 3.5h3h2.5h2.5h4.5t5.5 0.5t5.5 1t5.5 1.5q-2 -4 -3 -7.5t-2 -6.5t-1.5 -6t-0.5 -6q0 -5 1.5 -9t3.5 -8v1q3 -1 6 0 q3 0 5 1t4 2.5t3 4l2 5t1 5v5.5t-0.5 4.5l-1 5t-2 5.5t-2.5 6q2 -1 4.5 -1.5l5 -1t5 -0.5h4.5q3 0 5.5 0.5t5.5 1.5zM38.0977 68.0801q0 -1 -0.5 -2.5t-1 -2.5t-2 -1.5t-2.5 -0.5t-2.5 0.5t-2.5 1.5t-1.5 2t-0.5 3q0 1 0.5 2t1.5 2t2 1.5t3 0.5q1 0 2.5 -0.5t2 -1.5l1 -2 t0.5 -2zM56.0977 68.0801q0 -1 -0.5 -2.5t-1.5 -2.5t-2 -1.5t-2 -0.5t-2.5 0.5t-2.5 1.5t-1.5 2t-0.5 3q0 1 0.5 2t1.5 2t2 1.5t3 0.5q1 0 2 -0.5t2 -1.5t1.5 -2t0.5 -2z"
         id="glyph176" />
      <glyph
         glyph-name="uni00AD"
         unicode="­"
         horiz-adv-x="47"
         d="M43 26h-5.5t-6.5 0.5t-6.5 0.5h-7t-6.5 -0.5t-6 -1.5q0 2 0.5 4t0.5 4.5t-0.5 5t-0.5 4.5q9 -3 18.5 -3t19.5 3q-1 -2 -1 -4v-4.5t0.5 -4.5t0.5 -4z"
         id="glyph177" />
      <glyph
         glyph-name="Amacron"
         unicode="Ā"
         horiz-adv-x="90"
         d="M60 76q-3 1 -7 1t-7 1q-4 0 -7 -1q-4 -1 -7 -2v4v3q0 2 -1 3q0 2 -1 3q3 -1 7 -1h8t7 1q4 1 7 1v-3v-3v-3q1 -2 1 -4zM88 23q-2 -1 -4.5 -2.5t-5.5 -1.5l6 -10l6 -10q-8 0 -15.5 -1.5t-14.5 -4.5v2.5v2.5q0 3 -0.5 6.5t-1.5 7.5h-5.5h-4.5q-4 0 -8 0.5t-8 1.5 q-1 -5 -2 -9t-1 -9q-2 1 -6 2q-3 1 -6.5 2t-7.5 1t-8 -1l-8 -2q4 4 7.5 8t6 8t4.5 7.5t4 5.5q-1 2 -2.5 4.5t-2.5 5.5l4 -2l4 -2v0q3 5 5.5 10.5t5.5 10.5q-1 2 -1.5 3.5t-2 4t-2.5 5t-3 4.5l10 -2t11 -2q3 3 6 5.5t6 3.5l-2 -4t-3 -5q3 0 6 0.5t6 1.5q2 -8 4.5 -16t5.5 -16 q2 1 4.5 3t5.5 3q2 -6 4 -11t4 -9zM52 30q-4 10 -10 21q-2 -5 -3.5 -10.5t-3.5 -11.5q1 0 2.5 -0.5t2.5 -0.5q3 0 6 0.5t6 1.5z"
         id="glyph178" />
      <glyph
         glyph-name="Abreve"
         unicode="Ă"
         horiz-adv-x="90"
         d="M54 95q1 -1 2 -3t1 -3v-4t-2 -4q-1 -2 -3 -3t-6 -2q-4 0 -7 1t-5 4q-2 2 -2 5q-1 3 0 6q2 0 5 -1q3 0 6 1v-4t1 -3t2 -1h3q1 0 2 1l1 1q1 1 1 2t1 2v5zM88 23q-2 -1 -4.5 -2.5t-5.5 -1.5l6 -10l6 -10q-8 0 -15.5 -1.5t-14.5 -4.5v2.5v2.5q0 3 -0.5 6.5t-1.5 7.5h-5.5 h-4.5q-4 0 -8 0.5t-8 1.5q-1 -5 -2 -9t-1 -9q-2 1 -6 2q-3 1 -6.5 2t-7.5 1t-8 -1l-8 -2q4 4 7.5 8t6 8t4.5 7.5t4 5.5q-1 2 -2.5 4.5t-2.5 5.5l4 -2l4 -2v0q3 5 5.5 10.5t5.5 10.5q-1 2 -1.5 3.5t-2 4t-2.5 5t-3 4.5l10 -2t11 -2q3 3 6 5.5t6 3.5l-2 -4t-3 -5q3 0 6 0.5 t6 1.5q2 -8 4.5 -16t5.5 -16q2 1 4.5 3t5.5 3q2 -6 4 -11t4 -9zM52 30q-4 10 -10 21q-2 -5 -3.5 -10.5t-3.5 -11.5q1 0 2.5 -0.5t2.5 -0.5q3 0 6 0.5t6 1.5z"
         id="glyph179" />
      <glyph
         glyph-name="Aogonek"
         unicode="Ą"
         horiz-adv-x="90"
         d="M90 -16q-2 -2 -4 -3.5t-3.5 -2.5t-3 -1h-2.5q-3 0 -5 1t-3.5 2.5t-2.5 3t-1 3.5t1.5 4.5t4.5 5.5q-6 -1 -11 -4v2.5v2.5q0 3 -0.5 6.5t-1.5 7.5h-5.5h-4.5q-4 0 -8 0.5t-8 1.5q-1 -5 -2 -9t-1 -9q-2 1 -6 2q-3 1 -6.5 2t-7.5 1t-8 -1l-8 -2q4 4 7.5 8t6 8t4.5 7.5t4 5.5 q-1 2 -2.5 4.5t-2.5 5.5l4 -2l4 -2v0q3 5 5.5 10.5t5.5 10.5q-1 2 -1.5 3.5t-2 4t-2.5 5t-3 4.5l10 -2t11 -2q3 3 6 5.5t6 3.5l-2 -4t-3 -5q3 0 6 0.5t6 1.5q2 -8 4.5 -16t5.5 -16q2 1 4.5 3t5.5 3q2 -6 3.5 -11l4.5 -9q-2 -1 -4.5 -2.5t-5.5 -1.5l6 -10l6 -10h-6.5t-6.5 -1 l-2 -4t-1 -4t0.5 -2.5t2.5 -0.5t2.5 1t1.5 2q2 -2 4 -3.5t5 -2.5zM52 30q-4 10 -10 21q-2 -5 -3.5 -10.5t-3.5 -11.5q1 0 2.5 -0.5t2.5 -0.5q3 0 6 0.5t6 1.5z"
         id="glyph180" />
      <glyph
         glyph-name="Cacute"
         unicode="Ć"
         horiz-adv-x="81"
         d="M80 24q-1 -6 -3 -10.5t-5 -7.5t-6.5 -5t-7 -3.5t-7.5 -2t-7 -0.5q-9 0 -16 2.5t-12.5 7.5t-9.5 12.5t-6 17.5q1 0 2.5 -0.5t2.5 -0.5q1 10 5.5 17.5t11.5 12.5t16 7.5t19 2.5q5 0 10.5 -0.5t11.5 -1.5q-1 -4 -2 -8.5t-1 -9.5t1 -9q-3 2 -6 3.5t-6 2.5t-5.5 1h-4.5 q-4 0 -9 -1t-9.5 -3.5t-8 -6t-4.5 -7.5q2 0 3.5 0.5t3.5 0.5v-4q0 -5 1.5 -8t4.5 -5.5t6.5 -4t8.5 -1.5q2 0 5.5 0.5t7 2t7.5 3.5t8 6zM55.4219 84.291q-2 -1 -4.5 -2t-4.5 -2.5l-4 -3t-4 -3.5l-6 7q3 3 6 6.5t6 7.5q1 -1 2 -2.5t2.5 -3t3.5 -2.5t3 -2z"
         id="glyph181" />
      <glyph
         glyph-name="Ccircumflex"
         unicode="Ĉ"
         horiz-adv-x="81"
         d="M57 81q-2 0 -3 -1q-2 -1 -3 -1l-4 -2t-3 -1v3v3q0 2 -1 4l-1 2q-2 -3 -4 -5q-1 -3 -3 -7l-2 2t-3 1q-2 1 -3 1h-3q2 1 4 3t3 4t3 5q1 2 2 5h12q1 -5 3 -8q2 -4 6 -8zM80 24q-1 -6 -3 -10.5t-5 -7.5t-6.5 -5t-7 -3.5t-7.5 -2t-7 -0.5q-9 0 -16 2.5t-12.5 7.5t-9.5 12.5 t-6 17.5q1 0 2.5 -0.5t2.5 -0.5q1 10 5.5 17.5t11.5 12.5t16 7.5t19 2.5q5 0 10.5 -0.5t11.5 -1.5q-1 -4 -2 -8.5t-1 -9.5t1 -9q-3 2 -6 3.5t-6 2.5t-5.5 1h-4.5q-4 0 -9 -1t-9.5 -3.5t-8 -6t-4.5 -7.5q2 0 3.5 0.5t3.5 0.5v-4q0 -5 1.5 -8t4.5 -5.5t6.5 -4t8.5 -1.5 q2 0 5.5 0.5t7 2t7.5 3.5t8 6z"
         id="glyph182" />
      <glyph
         glyph-name="Cdotaccent"
         unicode="Ċ"
         horiz-adv-x="81"
         d="M49 83q0 -2 -1 -3l-2 -2l-2 -2t-3 -1t-3 1t-3 2l-2 2t0 3v3q1 1 2 3q1 1 3 2q1 1 3 0h3l2 -2t2 -3q1 -1 1 -3zM80 24q-1 -6 -3 -10.5t-5 -7.5t-6.5 -5t-7 -3.5t-7.5 -2t-7 -0.5q-9 0 -16 2.5t-12.5 7.5t-9.5 12.5t-6 17.5q1 0 2.5 -0.5t2.5 -0.5q1 10 5.5 17.5t11.5 12.5 t16 7.5t19 2.5q5 0 10.5 -0.5t11.5 -1.5q-1 -4 -2 -8.5t-1 -9.5t1 -9q-3 2 -6 3.5t-6 2.5t-5.5 1h-4.5q-4 0 -9 -1t-9.5 -3.5t-8 -6t-4.5 -7.5q2 0 3.5 0.5t3.5 0.5v-4q0 -5 1.5 -8t4.5 -5.5t6.5 -4t8.5 -1.5q2 0 5.5 0.5t7 2t7.5 3.5t8 6z"
         id="glyph183" />
      <glyph
         glyph-name="Ccaron"
         unicode="Č"
         horiz-adv-x="81"
         d="M57 92q-4 -4 -6 -7q-2 -4 -3 -9l-12 1l-2 4t-3 5q-1 2 -3 4t-4 3q2 0 3 1h3q2 1 3 2l2 2q1 -4 3 -7q1 -3 4 -6q1 1 1 3q1 2 1 3v3v3q1 -1 3 -1l4 -2t3 -1q1 -1 3 -1zM80 24q-1 -6 -3 -10.5t-5 -7.5t-6.5 -5t-7 -3.5t-7.5 -2t-7 -0.5q-9 0 -16 2.5t-12.5 7.5t-9.5 12.5 t-6 17.5q1 0 2.5 -0.5t2.5 -0.5q1 10 5.5 17.5t11.5 12.5t16 7.5t19 2.5q5 0 10.5 -0.5t11.5 -1.5q-1 -4 -2 -8.5t-1 -9.5t1 -9q-3 2 -6 3.5t-6 2.5t-5.5 1h-4.5q-4 0 -9 -1t-9.5 -3.5t-8 -6t-4.5 -7.5q2 0 3.5 0.5t3.5 0.5v-4q0 -5 1.5 -8t4.5 -5.5t6.5 -4t8.5 -1.5 q2 0 5.5 0.5t7 2t7.5 3.5t8 6z"
         id="glyph184" />
      <glyph
         glyph-name="Dcaron"
         unicode="Ď"
         horiz-adv-x="85"
         d="M59 93q-4 -4 -5 -7q-2 -4 -4 -9l-12 1l-2 4t-3 5q-1 2 -3 4t-4 3q2 0 3 1h3q2 1 3 2t3 2q1 -4 2 -7t4 -6q1 1 1 3q1 2 1 3q0 2 1 3q0 2 -1 3q1 -1 3 -1l4 -2t3 -1q1 -1 3 -1zM84 40q1 -6 -0.5 -11.5t-4.5 -10t-7 -9t-9 -7.5t-11 -4.5t-12 -1.5q-4 0 -8.5 1t-8.5 4 q-4 -1 -8.5 -2t-9.5 -3q4 13 6.5 26.5t2.5 26.5q-2 -1 -3.5 -1.5t-3.5 -2.5q0 1 0.5 2.5t0.5 2.5q0 6 -2 11.5t-5 10.5q2 1 4 1t5 0.5l6 1t6 0.5h5h4q7 0 13.5 -1t12 -3.5t9.5 -5.5t7 -6.5t4.5 -8t1.5 -8.5v-1.5v-1.5q1 0 2.5 0.5t2.5 0.5zM61 36q-1 3 -2.5 5.5t-3.5 4.5 t-5 3t-5.5 2t-5 1.5t-4.5 0.5v-24v-21q5 1 9 3.5t7 6t4.5 8.5t0.5 10h2.5h2.5z"
         id="glyph185" />
      <glyph
         glyph-name="Dcroat"
         unicode="Đ"
         horiz-adv-x="85"
         d="M84 40q1 -6 -0.5 -11.5t-4.5 -10t-7 -9t-9 -7.5t-11 -4.5t-12 -1.5q-4 0 -8.5 1t-8.5 4q-4 -1 -8.5 -2t-9.5 -3l4 14t3 13q-3 0 -5.5 -0.5t-4.5 -0.5q0 2 0.5 4t0.5 4.5t-0.5 5t-0.5 4.5q5 -2 12 -3q1 6 0 12q-2 -1 -3.5 -1.5t-3.5 -2.5q0 3 1 5q0 12 -7 22q2 1 4.5 1 t5 0.5t5.5 1t6 0.5h5.5h3.5q7 0 13.5 -1t12 -3.5t10 -5.5t7 -6.5t4.5 -8t2 -8.5v-1.5t-1 -1.5q1 0 2.5 0.5t2.5 0.5zM44 23h-4.5h-4.5v-7.5v-7.5q5 1 9 3.5t7 6t4.5 8.5t0.5 10h2.5h3.5q-1 3 -3 5.5t-4 4.5t-4.5 3t-5.5 2t-5.5 1.5t-4.5 0.5v-15q2 0 4.5 0.5t4.5 1.5 q-1 -2 -1 -4v-4.5t0.5 -4.5t0.5 -4z"
         id="glyph186" />
      <glyph
         glyph-name="Emacron"
         unicode="Ē"
         horiz-adv-x="75"
         d="M52 76q-3 1 -6 1h-8h-7q-4 -1 -7 -2v3v4v3q0 2 -1 3q3 -1 7 -1h7h8q4 1 7 2q0 -1 -1 -3v-3q0 -2 1 -4v-3zM34 0h-8h-8t-7.5 -0.5t-7.5 -1.5q3 11 5 22.5t2 22.5q0 5 -0.5 10t-1.5 10l-7 1q2 1 3.5 1.5t3.5 0.5q0 1 -0.5 2.5t-0.5 3.5l6 -2t6 -1q9 2 18.5 3t18.5 1 q4 0 8.5 -0.5t8.5 -0.5q-2 -9 -2 -19v-7q-18 8 -38 13q0 -4 -0.5 -8.5t-0.5 -8.5q5 1 10 1.5t10 0.5q-1 -5 -1 -9v-4v-3q-5 2 -9.5 3.5t-9.5 3.5v-10.5t1 -11.5q19 3 38 9q-1 -4 -1 -7v-7v-6.5t1 -6.5q-9 2 -18.5 4t-18.5 3v-0.5v-1.5z"
         id="glyph187" />
      <glyph
         glyph-name="Ebreve"
         unicode="Ĕ"
         horiz-adv-x="75"
         d="M46 94q1 -1 2 -3t1 -3v-4t-1 -4t-4 -3q-2 -1 -6 -2q-4 0 -7 1t-4 4q-2 2 -3 5t0 5h5t6 1v-4t2 -3q1 -1 2 -1h2t2 1t2 1q1 1 0 2q0 1 1 2v5zM34 0h-8h-8t-7.5 -0.5t-7.5 -1.5q3 11 5 22.5t2 22.5q0 5 -0.5 10t-1.5 10l-7 1q2 1 3.5 1.5t3.5 0.5q0 1 -0.5 2.5t-0.5 3.5 l6 -2t6 -1q9 2 18.5 3t18.5 1q4 0 8.5 -0.5t8.5 -0.5q-2 -9 -2 -19v-7q-18 8 -38 13q0 -4 -0.5 -8.5t-0.5 -8.5q5 1 10 1.5t10 0.5q-1 -5 -1 -9v-4v-3q-5 2 -9.5 3.5t-9.5 3.5v-10.5t1 -11.5q19 3 38 9q-1 -4 -1 -7v-7v-6.5t1 -6.5q-9 2 -18.5 4t-18.5 3v-0.5v-1.5z"
         id="glyph188" />
      <glyph
         glyph-name="Edotaccent"
         unicode="Ė"
         horiz-adv-x="75"
         d="M46 83q0 -2 -1 -3l-2 -2l-2 -2t-3 -1t-4 1l-2 2l-2 2t0 3v3q1 1 2 3l2 2t4 0h3l2 -2t2 -3q1 -1 1 -3zM34 0h-8h-8t-7.5 -0.5t-7.5 -1.5q3 11 5 22.5t2 22.5q0 5 -0.5 10t-1.5 10l-7 1q2 1 3.5 1.5t3.5 0.5q0 1 -0.5 2.5t-0.5 3.5l6 -2t6 -1q9 2 18.5 3t18.5 1 q4 0 8.5 -0.5t8.5 -0.5q-2 -9 -2 -19v-7q-18 8 -38 13q0 -4 -0.5 -8.5t-0.5 -8.5q5 1 10 1.5t10 0.5q-1 -5 -1 -9v-4v-3q-5 2 -9.5 3.5t-9.5 3.5v-10.5t1 -11.5q19 3 38 9q-1 -4 -1 -7v-7v-6.5t1 -6.5q-9 2 -18.5 4t-18.5 3v-0.5v-1.5z"
         id="glyph189" />
      <glyph
         glyph-name="Eogonek"
         unicode="Ę"
         horiz-adv-x="75"
         d="M73 -16l-3.5 -3.5t-3.5 -2.5t-3.5 -1h-2.5q-3 0 -5 1t-3.5 2.5t-2 3t-0.5 3.5q0 3 1.5 6t5.5 5q-5 1 -11 2t-11 2v-1v-1h-8h-8t-7.5 -0.5t-7.5 -1.5q3 11 5 22.5t2 22.5q0 5 -0.5 10t-1.5 10l-7 1q2 1 3.5 1.5t3.5 0.5q0 1 -0.5 2.5t-0.5 3.5l6 -2t6 -1q9 2 18.5 3 t18.5 1q4 0 8.5 -0.5t8.5 -0.5q-2 -9 -2 -19v-7q-18 8 -38 13q0 -4 -0.5 -8.5t-0.5 -8.5q5 1 10 1.5t10 0.5q-1 -5 -1 -9v-4v-3q-5 2 -9.5 3.5t-9.5 3.5v-10.5t1 -11.5q19 3 38 9q-1 -4 -1 -7v-7v-6.5t1 -6.5q-3 1 -5.5 1.5t-5.5 0.5q-1 -2 -2 -3.5t-1 -3.5t1 -2.5t2 -0.5 q2 0 3 1t1 2q2 -2 4 -3.5t5 -2.5z"
         id="glyph190" />
      <glyph
         glyph-name="Ecaron"
         unicode="Ě"
         horiz-adv-x="75"
         d="M54 92q-4 -4 -6 -8t-3 -8h-12q-1 2 -2 5q-1 2 -3 5q-1 2 -3 4t-4 3h3q2 0 3 1q2 1 3 1l2 2q1 -4 3 -7q1 -3 3 -5l2 2q1 2 1 4v3v3q1 -1 3 -1l4 -2t3 -1q1 -1 3 -1zM34 0h-8h-8t-7.5 -0.5t-7.5 -1.5q3 11 5 22.5t2 22.5q0 5 -0.5 10t-1.5 10l-7 1q2 1 3.5 1.5t3.5 0.5 q0 1 -0.5 2.5t-0.5 3.5l6 -2t6 -1q9 2 18.5 3t18.5 1q4 0 8.5 -0.5t8.5 -0.5q-2 -9 -2 -19v-7q-18 8 -38 13q0 -4 -0.5 -8.5t-0.5 -8.5q5 1 10 1.5t10 0.5q-1 -5 -1 -9v-4v-3q-5 2 -9.5 3.5t-9.5 3.5v-10.5t1 -11.5q19 3 38 9q-1 -4 -1 -7v-7v-6.5t1 -6.5q-9 2 -18.5 4 t-18.5 3v-0.5v-1.5z"
         id="glyph191" />
      <glyph
         glyph-name="Gcircumflex"
         unicode="Ĝ"
         d="M58 81q-2 0 -3 -1q-2 -1 -4 -1q-2 -1 -3 -2q-2 -1 -3 -1v3v3q0 2 -1 3q-1 2 -2 3l-4 -6q-1 -3 -2 -7l-2 2t-3 2t-3 0q-2 0 -3 1q2 1 4 3t3 4t2 5l2 4l12 1q1 -5 4 -9q2 -3 6 -7zM80 24q-1 -5 -2.5 -8.5t-2.5 -6.5v-3.5v-3v-3v-3.5l-11 -1l-2 4q-4 -2 -9 -3t-9 -1 q-9 0 -16 2.5t-12.5 7.5t-9.5 12.5t-6 17.5q1 0 2.5 -0.5t2.5 -0.5q1 10 5.5 17.5t11.5 12.5t16 7.5t19 2.5q5 0 10.5 -0.5t11.5 -1.5q-1 -4 -2 -8.5t-1 -9.5t1 -9q-3 2 -6 3.5t-6 2.5t-5.5 1h-4.5q-5 0 -9.5 -1t-9 -3.5t-7.5 -6t-5 -7.5q2 0 3.5 0.5t3.5 0.5v-4 q0 -5 1.5 -8.5t4.5 -5.5t7 -3.5t9 -1.5h1.5h1.5q-2 5 -3.5 11t-2.5 12q2 0 4.5 -0.5t5.5 -0.5q5 0 9 1t9 3q-2 -9 -3 -18q1 1 2.5 2t2.5 2z"
         id="glyph192" />
      <glyph
         glyph-name="Gbreve"
         unicode="Ğ"
         d="M50 94l2 -2q1 -2 1 -4v-4t-2 -4q-1 -2 -3 -3t-6 -1t-7 1t-5 3t-2 6q-1 3 -1 5h6q3 0 5 1q0 -2 1 -5q0 -2 1 -2l2 -2h3q1 0 2 1t1 2l1 1q0 1 1 2v5zM80 24q-1 -5 -2.5 -8.5t-2.5 -6.5v-3.5v-3v-3v-3.5l-11 -1l-2 4q-4 -2 -9 -3t-9 -1q-9 0 -16 2.5t-12.5 7.5t-9.5 12.5 t-6 17.5q1 0 2.5 -0.5t2.5 -0.5q1 10 5.5 17.5t11.5 12.5t16 7.5t19 2.5q5 0 10.5 -0.5t11.5 -1.5q-1 -4 -2 -8.5t-1 -9.5t1 -9q-3 2 -6 3.5t-6 2.5t-5.5 1h-4.5q-5 0 -9.5 -1t-9 -3.5t-7.5 -6t-5 -7.5q2 0 3.5 0.5t3.5 0.5v-4q0 -5 1.5 -8.5t4.5 -5.5t7 -3.5t9 -1.5h1.5 h1.5q-2 5 -3.5 11t-2.5 12q2 0 4.5 -0.5t5.5 -0.5q5 0 9 1t9 3q-2 -9 -3 -18q1 1 2.5 2t2.5 2z"
         id="glyph193" />
      <glyph
         glyph-name="Gdotaccent"
         unicode="Ġ"
         d="M49 84q0 -2 -1 -4q-1 -1 -1 -2q-1 -1 -3 -2q-1 -1 -3 0h-3l-2 2l-2 2t-1 4q0 2 1 3l2 2l2 2t3 1t3 -1t3 -2q1 -1 1 -2q1 -1 1 -3zM80 24q-1 -5 -2.5 -8.5t-2.5 -6.5v-3.5v-3v-3v-3.5l-11 -1l-2 4q-4 -2 -9 -3t-9 -1q-9 0 -16 2.5t-12.5 7.5t-9.5 12.5t-6 17.5 q1 0 2.5 -0.5t2.5 -0.5q1 10 5.5 17.5t11.5 12.5t16 7.5t19 2.5q5 0 10.5 -0.5t11.5 -1.5q-1 -4 -2 -8.5t-1 -9.5t1 -9q-3 2 -6 3.5t-6 2.5t-5.5 1h-4.5q-5 0 -9.5 -1t-9 -3.5t-7.5 -6t-5 -7.5q2 0 3.5 0.5t3.5 0.5v-4q0 -5 1.5 -8.5t4.5 -5.5t7 -3.5t9 -1.5h1.5h1.5 q-2 5 -3.5 11t-2.5 12q2 0 4.5 -0.5t5.5 -0.5q5 0 9 1t9 3q-2 -9 -3 -18q1 1 2.5 2t2.5 2z"
         id="glyph194" />
      <glyph
         glyph-name="Gcommaaccent"
         unicode="Ģ"
         d="M52 -12q-2 -1 -4 -3l-4 -4t-3 -4t-2 -5q-1 1 -4 2q-2 1 -5 2q3 4 5 7q2 4 3 9q1 -1 2 -1l4 -2t4 -1h4zM80 24q-1 -5 -2.5 -8.5t-2.5 -6.5v-3.5v-3v-3v-3.5l-11 -1l-2 4q-4 -2 -9 -3t-9 -1q-9 0 -16 2.5t-12.5 7.5t-9.5 12.5t-6 17.5q1 0 2.5 -0.5t2.5 -0.5q1 10 5.5 17.5 t11.5 12.5t16 7.5t19 2.5q5 0 10.5 -0.5t11.5 -1.5q-1 -4 -2 -8.5t-1 -9.5t1 -9q-3 2 -6 3.5t-6 2.5t-5.5 1h-4.5q-5 0 -9.5 -1t-9 -3.5t-7.5 -6t-5 -7.5q2 0 3.5 0.5t3.5 0.5v-4q0 -5 1.5 -8.5t4.5 -5.5t7 -3.5t9 -1.5h1.5h1.5q-2 5 -3.5 11t-2.5 12q2 0 4.5 -0.5t5.5 -0.5 q5 0 9 1t9 3q-2 -9 -3 -18q1 1 2.5 2t2.5 2z"
         id="glyph195" />
      <glyph
         glyph-name="Hcircumflex"
         unicode="Ĥ"
         horiz-adv-x="88"
         d="M61 77q-2 0 -4 -1t-3 -1q-2 -1 -3 -1q-2 -1 -3 -2v3q0 2 -1 4q0 2 -1 3q-1 2 -1 3l-4 -6q-1 -3 -2 -7l-2 2t-3 1q-2 1 -3 1q-2 0 -4 1q2 1 4 3l4 4l2 4t2 5h12q1 -5 4 -8q2 -4 6 -8zM33 -2q-4 1 -8 1.5t-8 0.5t-7.5 -0.5t-7.5 -1.5q4 11 6 22t2 22q0 7 -0.5 14.5 t-2.5 14.5q3 -1 6 -1.5t6.5 -1t6.5 -1t7 -0.5v-16v-15q5 0 9.5 0.5t9.5 1.5l2 18t4 18q3 -1 5.5 -2t5 -1.5t5.5 -0.5h6h1.5h1.5q-3 -7 -5.5 -14t-2.5 -14q2 1 4.5 1.5t5.5 1.5q-1 -4 -1 -7v-7v-6.5t1 -7.5q-3 0 -5.5 0.5t-4.5 0.5q1 -5 1.5 -9.5t2.5 -8.5h-3.5h-3.5 q-3 0 -5 -0.5t-4.5 -0.5t-5 -1t-4.5 -1q-1 6 -1 12v13q-5 1 -9.5 2.5t-9.5 3.5v-15v-15z"
         id="glyph196" />
      <glyph
         glyph-name="Hbar"
         unicode="Ħ"
         horiz-adv-x="88"
         d="M33 -2q-4 1 -8 1.5t-8 0.5t-7.5 -0.5t-7.5 -1.5q4 10 6 21t2 23l-9 -1q1 2 1 4v4v5.5v4.5q2 0 3.5 -1t3.5 -1q0 4 -0.5 7t-1.5 7q3 -1 6 -1.5t6.5 -1t6.5 -1t7 -0.5v-12q5 0 10.5 -0.5t10.5 -0.5q1 5 1.5 10t2.5 10q3 -1 5.5 -2t5 -1.5t5.5 -0.5h6h1.5h1.5 q-2 -4 -3.5 -7.5t-2.5 -7.5q3 0 6 0.5t6 0.5q-3 -1 -6.5 -2t-5.5 -2q-1 -2 -1.5 -4.5t-0.5 -5.5q2 1 4.5 1.5t5.5 1.5q-1 -4 -1 -7v-7v-6.5t1 -7.5q-3 0 -5.5 0.5t-4.5 0.5q1 -5 1.5 -9.5t2.5 -8.5h-3.5h-3.5q-3 0 -5 -0.5t-4.5 -0.5t-5 -1t-4.5 -1q-1 6 -1 12v13 q-5 1 -9.5 2.5t-9.5 3.5v-15v-15zM53 46q-5 -1 -10 -1.5t-10 -1.5v-4v-3q5 0 9.5 0.5t9.5 1.5q0 2 0.5 4t0.5 4z"
         id="glyph197" />
      <glyph
         glyph-name="Itilde"
         unicode="Ĩ"
         horiz-adv-x="36"
         d="M35 85q0 -3 -1 -5t-2 -3q-1 -2 -3 -3t-5 -1q-2 0 -4 1l-2 2t-1 2q-1 1 -1 2t-1 2t-2 0h-1v-2v-2t1 -3h-3h-2h-3q-1 0 -3 -1v2v3q0 1 -1 3q0 2 1 4t2 3t3 2t4 1t4 -1q1 -1 2 -1q1 -1 1 -3q1 -1 1 -2t2 -2q1 -1 1 0q1 0 2 1v2v2t-1 3q1 0 3 -1h3t3 1h3v-2v-2v-2zM32 73 q-2 -10 -2.5 -20.5t-0.5 -21.5q0 -8 0.5 -16t1.5 -15h-4h-4q-5 0 -9.5 -0.5t-9.5 -1.5q2 9 3 17.5t1 18.5q0 8 -1 15.5t-2 15.5q3 0 6.5 1t6.5 2t6.5 2t7.5 3z"
         id="glyph198" />
      <glyph
         glyph-name="Imacron"
         unicode="Ī"
         horiz-adv-x="36"
         d="M33 77q-3 1 -7 1h-7q-4 0 -7 -1q-4 -1 -7 -1v3v3q0 2 -1 4q0 2 -1 3q3 -1 7 -1t8 -1q4 0 7 1q4 1 7 2v-3v-4v-3q1 -1 1 -3zM32 73q-2 -10 -2.5 -20.5t-0.5 -21.5q0 -8 0.5 -16t1.5 -15h-4h-4q-5 0 -9.5 -0.5t-9.5 -1.5q2 9 3 17.5t1 18.5q0 8 -1 15.5t-2 15.5q3 0 6.5 1 t6.5 2t6.5 2t7.5 3z"
         id="glyph199" />
      <glyph
         glyph-name="Ibreve"
         unicode="Ĭ"
         horiz-adv-x="36"
         d="M27 91q1 -1 2 -3t1 -3v-4t-2 -4q-1 -2 -3 -3t-6 -2q-4 0 -7 1t-5 4q-2 2 -2 5q-1 4 0 6q2 0 5 -1q3 0 6 1v-4t1 -3t2 -1h3q1 0 2 1l1 1q1 1 1 2t1 2v5zM32 73q-2 -10 -2.5 -20.5t-0.5 -21.5q0 -8 0.5 -16t1.5 -15h-4h-4q-5 0 -9.5 -0.5t-9.5 -1.5q2 9 3 17.5t1 18.5 q0 8 -1 15.5t-2 15.5q3 0 6.5 1t6.5 2t6.5 2t7.5 3z"
         id="glyph200" />
      <glyph
         glyph-name="Iogonek"
         unicode="Į"
         horiz-adv-x="36"
         d="M32 -16q-2 -2 -4 -3.5t-3.5 -2.5t-3 -1h-2.5q-3 0 -5 1t-3.5 2.5t-2 3t-0.5 3.5q0 3 2 6.5t7 6.5q-3 0 -6 -0.5t-7 -1.5q2 9 3 17.5t1 18.5q0 8 -1 15.5t-2 15.5q3 0 6.5 1t6.5 2t6.5 2t7.5 3q-2 -10 -2.5 -20.5t-0.5 -21.5q0 -8 0.5 -16t1.5 -15h-4h-4h-2l-2 -2 t-1.5 -2.5l-1 -3t-0.5 -2.5q0 -2 0.5 -2.5t2.5 -0.5t3 1t1 2q2 -2 4 -3.5t5 -2.5z"
         id="glyph201" />
      <glyph
         glyph-name="Idotaccent"
         unicode="İ"
         horiz-adv-x="36"
         d="M26 81v-3l-2 -2t-3 -2q-1 -1 -3 -1t-3 1l-2 2l-2 2t-1 3t1 3t2 3l2 2t3 0h3q1 -1 3 -2q1 -1 2 -3v-3zM32 73q-2 -10 -2.5 -20.5t-0.5 -21.5q0 -8 0.5 -16t1.5 -15h-4h-4q-5 0 -9.5 -0.5t-9.5 -1.5q2 9 3 17.5t1 18.5q0 8 -1 15.5t-2 15.5q3 0 6.5 1t6.5 2t6.5 2t7.5 3z "
         id="glyph202" />
      <glyph
         glyph-name="IJ"
         unicode="Ĳ"
         horiz-adv-x="101"
         d="M32 73q-2 -10 -2.5 -20.5t-0.5 -21.5q0 -8 0.5 -16t1.5 -15h-4h-4q-5 0 -9.5 -0.5t-9.5 -1.5q2 9 3 17.5t1 18.5q0 8 -1 15.5t-2 15.5q3 0 6.5 1t6.5 2t6.5 2t7.5 3zM101.621 26q-8 -15 -23.5 -23t-39.5 -9v7v6t-1 6.5t-3 7.5q7 -2 13.5 -3.5t13.5 -1.5q3 0 6.5 0.5 t6.5 0.5q-1 7 -2 15t-2 15t-2.5 14.5t-3.5 14.5q7 -3 14.5 -5t14.5 -2h1.5h1.5q-2 -9 -2.5 -17.5t-0.5 -17.5v-5v-6q2 1 4 1.5t4 1.5z"
         id="glyph203" />
      <glyph
         glyph-name="Jcircumflex"
         unicode="Ĵ"
         horiz-adv-x="65"
         d="M61 82q-2 0 -3 -1q-2 -1 -3 -2q-2 -1 -4 -1q-2 -1 -3 -2v4v3q0 2 -1 3q-1 2 -2 3q-2 -3 -3 -6t-3 -7l-2 2t-3 1q-2 1 -3 1q-2 0 -3 1q2 1 4 3t3 4t3 4q1 2 2 5l12 1q1 -5 3 -9q2 -3 6 -7zM65 26q-8 -15 -23.5 -23t-39.5 -9v7v6t-1 6.5t-3 7.5q7 -2 13.5 -3.5t13.5 -1.5 q3 0 6.5 0.5t6.5 0.5q-1 7 -2 15t-2 15t-2.5 14.5t-3.5 14.5q7 -3 14.5 -5t14.5 -2h1.5h1.5q-2 -9 -2.5 -17.5t-0.5 -17.5v-5v-6q2 1 4 1.5t4 1.5z"
         id="glyph204" />
      <glyph
         glyph-name="Kcommaaccent"
         unicode="Ķ"
         horiz-adv-x="83"
         d="M50 -6q-2 -1 -4 -3t-3 -4l-4 -4q-1 -2 -2 -5q-1 1 -4 2q-2 1 -4 1q3 4 4 8q2 4 3 9q1 -1 3 -2t3 -1q2 -1 4 -1h4zM33 70q-1 -8 -1.5 -16.5t-0.5 -16.5q9 7 16.5 16.5t13.5 20.5q5 -5 11 -9.5t13 -7.5q-7 -6 -15 -11.5t-17 -9.5q5 -9 12.5 -16.5t16.5 -15.5 q-15 -3 -28 -10q-4 10 -9.5 19t-13.5 16v-14.5t1 -14.5q-4 0 -7.5 -0.5t-7.5 -1.5t-7.5 -2t-7.5 -2q8 26 8 52q0 13 -2 26q5 -2 9 -2.5t9 -0.5q2 0 3.5 0.5t3.5 0.5z"
         id="glyph205" />
      <glyph
         glyph-name="Lacute"
         unicode="Ĺ"
         horiz-adv-x="70"
         d="M71 0q-8 1 -16.5 1.5t-16.5 0.5q-9 0 -19 -0.5t-19 -2.5q2 2 4.5 3.5t5.5 3.5q1 7 1.5 13t0.5 13q0 10 -1 19t-3 19h2h2q6 0 12 0.5t12 2.5q0 -14 -1.5 -28t-4.5 -28q9 4 18.5 6.5t20.5 4.5q-1 -5 -1 -10t0.5 -9t2.5 -9zM42.5801 85.707q-2 -1 -4.5 -2t-4.5 -2.5l-4 -3 t-4 -3.5l-6 7q3 3 6 6.5t6 7.5q1 -1 2 -2.5t2.5 -3t3.5 -2.5t3 -2z"
         id="glyph206" />
      <glyph
         glyph-name="Lcommaaccent"
         unicode="Ļ"
         horiz-adv-x="70"
         d="M46 -5q-2 -1 -4 -3l-4 -4t-3 -4t-2 -5q-1 1 -4 2q-2 1 -5 1q3 4 5 8t3 9l2 -2q2 -1 4 -1q2 -1 4 -1h4zM71 0q-8 1 -16.5 1.5t-16.5 0.5q-9 0 -19 -0.5t-19 -2.5q2 2 4.5 3.5t5.5 3.5q1 7 1.5 13t0.5 13q0 10 -1 19t-3 19h2h2q6 0 12 0.5t12 2.5q0 -14 -1.5 -28t-4.5 -28 q9 4 18.5 6.5t20.5 4.5q-1 -5 -1 -10t0.5 -9t2.5 -9z"
         id="glyph207" />
      <glyph
         glyph-name="Ldot"
         unicode="Ŀ"
         horiz-adv-x="104"
         d="M100 33q0 -2 -1 -3l-2 -2l-4 -2q-1 -1 -5 -1q-3 0 -6 1l-4 2t-3 2t-1 3t1 3l3 3q2 1 4 1q3 1 6 1t5 -1t4 -1q2 -1 2 -3q1 -1 1 -3zM71 0q-8 1 -16.5 1.5t-16.5 0.5q-9 0 -19 -0.5t-19 -2.5q2 2 4.5 3.5t5.5 3.5q1 7 1.5 13t0.5 13q0 10 -1 19t-3 19h2h2q6 0 12 0.5 t12 2.5q0 -14 -1.5 -28t-4.5 -28q9 4 18.5 6.5t20.5 4.5q-1 -5 -1 -10t0.5 -9t2.5 -9z"
         id="glyph208" />
      <glyph
         glyph-name="Lcaron"
         unicode="Ľ"
         horiz-adv-x="70"
         d="M41 90q-2 -1 -4 -3t-3 -4l-4 -4q-1 -2 -2 -5q-1 1 -4 2q-2 1 -4 1q3 4 4 8q2 4 3 9q1 -1 3 -1q2 -1 3 -2q2 -1 4 -1h4zM71 0q-8 1 -16.5 1.5t-16.5 0.5q-9 0 -19 -0.5t-19 -2.5q2 2 4.5 3.5t5.5 3.5q1 7 1.5 13t0.5 13q0 10 -1 19t-3 19h2h2q6 0 12 0.5t12 2.5 q0 -14 -1.5 -28t-4.5 -28q9 4 18.5 6.5t20.5 4.5q-1 -5 -1 -10t0.5 -9t2.5 -9z"
         id="glyph209" />
      <glyph
         glyph-name="Nacute"
         unicode="Ń"
         horiz-adv-x="89"
         d="M91 67q-7 -9 -10.5 -18.5t-3.5 -21.5q0 -6 1 -12t3 -13q-4 0 -8 -1t-8.5 -2t-8.5 -3q-1 4 -3 8t-3.5 7.5t-3.5 6.5t-3 5q-4 6 -8 11h-1v0v1v-9q0 -15 -4 -29q-8 3 -17 3q-3 0 -6 -0.5t-6 -0.5q7 9 10.5 18.5t3.5 21.5v8t-1 8q-3 3 -7 5.5t-8 5.5q5 -1 9 -0.5t8 1.5 t8.5 2.5t8.5 3.5l26 -47q-1 4 -1 8.5v8.5q0 9 1.5 17.5t5.5 16.5q12 -9 26 -10zM64.2109 81.2148q-2 -1 -4.5 -2t-4.5 -2.5l-4 -3t-4 -3.5l-6 7q3 3 6 6.5t6 7.5q1 -1 2 -2.5t2.5 -3t3.5 -2.5t3 -2z"
         id="glyph210" />
      <glyph
         glyph-name="Ncommaaccent"
         unicode="Ņ"
         horiz-adv-x="89"
         d="M52 -6l-4 -2l-4 -4t-3 -5q-1 -2 -3 -4q-1 1 -3 2t-5 1q3 4 5 8t2 9q1 -1 3 -2t4 -1q2 -1 4 -1q2 -1 4 -1zM91 67q-7 -9 -10.5 -18.5t-3.5 -21.5q0 -6 1 -12t3 -13q-4 0 -8 -1t-8.5 -2t-8.5 -3q-1 4 -3 8t-3.5 7.5t-3.5 6.5t-3 5q-4 6 -8 11h-1v0v1v-9q0 -15 -4 -29 q-8 3 -17 3q-3 0 -6 -0.5t-6 -0.5q7 9 10.5 18.5t3.5 21.5v8t-1 8q-3 3 -7 5.5t-8 5.5q5 -1 9 -0.5t8 1.5t8.5 2.5t8.5 3.5l26 -47q-1 4 -1 8.5v8.5q0 9 1.5 17.5t5.5 16.5q12 -9 26 -10z"
         id="glyph211" />
      <glyph
         glyph-name="Ncaron"
         unicode="Ň"
         horiz-adv-x="89"
         d="M63 89q-4 -4 -6 -8l-4 -8h-12q-1 2 -2 5q-1 2 -3 5q-1 2 -3 4t-4 3h3q2 0 4 1l2 1q1 1 3 2q1 -4 2 -7t4 -5q1 1 1 2q1 2 1 4t1 3v3q1 -1 3 -1q2 -1 3 -2q2 -1 3 -1q2 -1 4 -1zM91 67q-7 -9 -10.5 -18.5t-3.5 -21.5q0 -6 1 -12t3 -13q-4 0 -8 -1t-8.5 -2t-8.5 -3 q-1 4 -3 8t-3.5 7.5t-3.5 6.5t-3 5q-4 6 -8 11h-1v0v1v-9q0 -15 -4 -29q-8 3 -17 3q-3 0 -6 -0.5t-6 -0.5q7 9 10.5 18.5t3.5 21.5v8t-1 8q-3 3 -7 5.5t-8 5.5q5 -1 9 -0.5t8 1.5t8.5 2.5t8.5 3.5l26 -47q-1 4 -1 8.5v8.5q0 9 1.5 17.5t5.5 16.5q12 -9 26 -10z"
         id="glyph212" />
      <glyph
         glyph-name="Eng"
         unicode="Ŋ"
         horiz-adv-x="89"
         d="M88 -1q-8 -14 -24 -22.5t-39 -10.5v7.5t-0.5 6.5t-1.5 6.5t-3 6.5q7 -2 13.5 -3t13.5 -1q6 0 12 1q-2 5 -4 9.5t-4 8l-4 7t-4 6.5q-4 7 -8 13h-1v0v1v-9q0 -15 -4 -29q-8 3 -17 3q-3 0 -6 -0.5t-6 -0.5q7 9 10.5 18.5t3.5 21.5v8t-1 8q-3 3 -7 5.5t-8 5.5q5 -1 9 -0.5 t8 1.5t8.5 2.5t8.5 3.5l26 -47q-1 4 -1 8.5v8.5q0 9 1.5 17.5t5.5 16.5q12 -8 26 -10q-7 -9 -10.5 -18.5t-3.5 -21.5q0 -3 0.5 -6.5t1 -8t1.5 -8.5l2 -8q1 1 3 1.5t3 1.5z"
         id="glyph213" />
      <glyph
         glyph-name="Omacron"
         unicode="Ō"
         horiz-adv-x="91"
         d="M60 74q-3 1 -6 1h-8h-7q-4 -1 -7 -2v3v4v3q0 2 -1 3q3 -1 7 -1h7q4 0 7 1q4 1 8 1q0 -1 -1 -3v-3q0 -2 1 -4v-3zM71 71q-2 -2 -4 -3.5t-3 -4.5q5 -1 9.5 -3t8 -6t5.5 -8.5t2 -10.5q0 -7 -2 -12.5t-5.5 -10t-8.5 -7.5t-10.5 -5t-11.5 -3t-13 -1q-2 0 -4.5 0.5t-4.5 0.5 t-4 0.5t-3 0.5q2 1 3 2.5t3 3.5q-5 1 -10 3t-8.5 5.5t-5.5 8t-2 11.5t2.5 12.5t6.5 10t9.5 7.5t11.5 5.5t13 3t14 0.5h6h6zM67 39q0 3 -1 5l-2 4t-2.5 3t-3.5 2q-1 -2 -1.5 -3.5t-1.5 -3.5q-3 1 -5.5 1.5t-4.5 0.5q-4 0 -7.5 -1.5t-6.5 -4t-5 -6t-2 -7.5q0 -2 1 -4l2 -4 t2.5 -3.5l3.5 -3.5q1 2 1.5 4t0.5 4q3 -2 6 -2.5t5 -0.5q4 0 7.5 1.5t6.5 4t5 6.5t2 8z"
         id="glyph214" />
      <glyph
         glyph-name="Obreve"
         unicode="Ŏ"
         horiz-adv-x="91"
         d="M54 93q1 -1 2 -3t1 -3v-4t-2 -4q-1 -2 -3 -4q-2 -1 -6 -1t-7 1t-4 4q-2 2 -3 5t0 5h5t6 1v-4t2 -3q1 -1 2 -1h2h2q1 1 1 2q1 1 1 2t1 2v5zM71 71q-2 -2 -4 -3.5t-3 -4.5q5 -1 9.5 -3t8 -6t5.5 -8.5t2 -10.5q0 -7 -2 -12.5t-5.5 -10t-8.5 -7.5t-10.5 -5t-11.5 -3t-13 -1 q-2 0 -4.5 0.5t-4.5 0.5t-4 0.5t-3 0.5q2 1 3 2.5t3 3.5q-5 1 -10 3t-8.5 5.5t-5.5 8t-2 11.5t2.5 12.5t6.5 10t9.5 7.5t11.5 5.5t13 3t14 0.5h6h6zM67 39q0 3 -1 5l-2 4t-2.5 3t-3.5 2q-1 -2 -1.5 -3.5t-1.5 -3.5q-3 1 -5.5 1.5t-4.5 0.5q-4 0 -7.5 -1.5t-6.5 -4t-5 -6 t-2 -7.5q0 -2 1 -4l2 -4t2.5 -3.5l3.5 -3.5q1 2 1.5 4t0.5 4q3 -2 6 -2.5t5 -0.5q4 0 7.5 1.5t6.5 4t5 6.5t2 8z"
         id="glyph215" />
      <glyph
         glyph-name="Ohungarumlaut"
         unicode="Ő"
         horiz-adv-x="91"
         d="M53 85l-4 -2t-4 -3l-4 -2l-4 -4l-6 7l6 6t6 8q1 -1 2 -3q1 -1 2 -3q1 -1 3 -2t3 -2zM72 84l-4 -2t-4 -3q-2 -1 -4 -3t-4 -3l-7 7q3 3 7 6q3 3 5 8q1 -1 2 -3l3 -3q1 -1 3 -2t3 -2zM71 71q-2 -2 -4 -3.5t-3 -4.5q5 -1 9.5 -3t8 -6t5.5 -8.5t2 -10.5q0 -7 -2 -12.5 t-5.5 -10t-8.5 -7.5t-10.5 -5t-11.5 -3t-13 -1q-2 0 -4.5 0.5t-4.5 0.5t-4 0.5t-3 0.5q2 1 3 2.5t3 3.5q-5 1 -10 3t-8.5 5.5t-5.5 8t-2 11.5t2.5 12.5t6.5 10t9.5 7.5t11.5 5.5t13 3t14 0.5h6h6zM67 39q0 3 -1 5l-2 4t-2.5 3t-3.5 2q-1 -2 -1.5 -3.5t-1.5 -3.5 q-3 1 -5.5 1.5t-4.5 0.5q-4 0 -7.5 -1.5t-6.5 -4t-5 -6t-2 -7.5q0 -2 1 -4l2 -4t2.5 -3.5l3.5 -3.5q1 2 1.5 4t0.5 4q3 -2 6 -2.5t5 -0.5q4 0 7.5 1.5t6.5 4t5 6.5t2 8z"
         id="glyph216" />
      <glyph
         glyph-name="Racute"
         unicode="Ŕ"
         horiz-adv-x="86"
         d="M86 3q-8 -1 -15 -3t-14 -6q-1 6 -2.5 12t-3.5 12q-5 -1 -10 -1h-5v-9.5t1 -9.5h-3h-3q-6 0 -12 -1t-13 -4q3 8 5 16.5t3 16.5q-4 3 -6.5 5.5l-4.5 4.5l6 -2t6 -1v7.5v6.5v3q-3 -1 -5.5 -2t-5.5 -2q1 3 1 5.5v4.5q0 4 -1 8t-3 8q11 2 20.5 2.5t16.5 0.5q3 0 7.5 -0.5l9 -1 t8.5 -1.5t8 -3t6.5 -5t3.5 -8v0q1 1 2 1.5l3 1.5q-1 -4 -2.5 -8.5t-4 -8.5t-5 -7.5t-6.5 -7.5q7 -13 18 -24zM50 56h-6t-7 -1q0 -6 -0.5 -11.5t-0.5 -11.5q4 0 7 1.5t6 3.5t4.5 5t1.5 7q2 0 4.5 0.5t4.5 0.5v0l-2.5 2.5t-3 2t-3.5 1t-5 0.5zM60.8906 87.123q-2 -1 -4.5 -2 t-4.5 -2.5l-4 -3t-4 -3.5l-6 7q3 3 6 6.5t6 7.5q1 -1 2 -2.5t2.5 -3t3.5 -2.5t3 -2z"
         id="glyph217" />
      <glyph
         glyph-name="Rcommaaccent"
         unicode="Ŗ"
         horiz-adv-x="86"
         d="M54 -4q-2 -1 -4 -3l-4 -4t-3 -4t-2 -5q-1 1 -4 2q-2 1 -4 1q3 4 4 8q2 4 3 9q1 -1 3 -1q2 -1 3 -2q2 -1 4 -1h4zM86 3q-8 -1 -15 -3t-14 -6q-1 6 -2.5 12t-3.5 12q-5 -1 -10 -1h-5v-9.5t1 -9.5h-3h-3q-6 0 -12 -1t-13 -4q3 8 5 16.5t3 16.5q-4 3 -6.5 5.5l-4.5 4.5l6 -2 t6 -1v7.5v6.5v3q-3 -1 -5.5 -2t-5.5 -2q1 3 1 5.5v4.5q0 4 -1 8t-3 8q11 2 20.5 2.5t16.5 0.5q3 0 7.5 -0.5l9 -1t8.5 -1.5t8 -3t6.5 -5t3.5 -8v0q1 1 2 1.5l3 1.5q-1 -4 -2.5 -8.5t-4 -8.5t-5 -7.5t-6.5 -7.5q7 -13 18 -24zM50 56h-6t-7 -1q0 -6 -0.5 -11.5t-0.5 -11.5 q4 0 7 1.5t6 3.5t4.5 5t1.5 7q2 0 4.5 0.5t4.5 0.5v0l-2.5 2.5t-3 2t-3.5 1t-5 0.5z"
         id="glyph218" />
      <glyph
         glyph-name="Rcaron"
         unicode="Ř"
         horiz-adv-x="86"
         d="M60 93q-4 -4 -6 -7q-2 -4 -3 -9l-12 1q-1 2 -3 4q-1 2 -2 5q-1 2 -3 4t-4 3q2 0 3 1q2 0 3 1q2 1 3 1l2 2q1 -4 3 -7q1 -3 3 -6q1 1 2 3t1 3v3v3q1 -1 3 -1q2 -1 3 -2q2 -1 4 -1q1 -1 3 -1zM86 3q-8 -1 -15 -3t-14 -6q-1 6 -2.5 12t-3.5 12q-5 -1 -10 -1h-5v-9.5t1 -9.5 h-3h-3q-6 0 -12 -1t-13 -4q3 8 5 16.5t3 16.5q-4 3 -6.5 5.5l-4.5 4.5l6 -2t6 -1v7.5v6.5v3q-3 -1 -5.5 -2t-5.5 -2q1 3 1 5.5v4.5q0 4 -1 8t-3 8q11 2 20.5 2.5t16.5 0.5q3 0 7.5 -0.5l9 -1t8.5 -1.5t8 -3t6.5 -5t3.5 -8v0q1 1 2 1.5l3 1.5q-1 -4 -2.5 -8.5t-4 -8.5 t-5 -7.5t-6.5 -7.5q7 -13 18 -24zM50 56h-6t-7 -1q0 -6 -0.5 -11.5t-0.5 -11.5q4 0 7 1.5t6 3.5t4.5 5t1.5 7q2 0 4.5 0.5t4.5 0.5v0l-2.5 2.5t-3 2t-3.5 1t-5 0.5z"
         id="glyph219" />
      <glyph
         glyph-name="Sacute"
         unicode="Ś"
         horiz-adv-x="81"
         d="M79 33q0 -1 0.5 -2t0.5 -2q0 -5 -1.5 -9.5t-4.5 -8t-7 -6.5t-8.5 -5t-9 -3.5t-9.5 -1.5t-9 0.5t-8 0.5q-3 0 -5.5 -0.5t-4.5 -1.5q-2 7 -4 12.5t-4 9.5l-4 8q6 -3 12 -5t11 -3t9.5 -1h7.5h6t7 1l-2 2l-2 2l-1 1q-1 1 -3.5 1.5t-5.5 1t-6.5 1.5t-7 2.5t-6.5 3t-5 3.5 t-3 3.5t-2 3.5t-1 4v4q-2 -1 -3.5 -1.5t-2.5 -1.5l-2 -1q2 5 5 9.5t7 7.5t8.5 5t8.5 3q10 3 23 4h8t8 0.5t10 1.5q-2 -2 -3 -5t-1.5 -5.5t-0.5 -5.5v-5v-3v-2v-2q-9 4 -17 5.5t-15 1.5h-5h-5l2 -4t3 -3t3 -1q4 -1 8.5 -3t9 -4.5t8.5 -6t7 -7.5q2 2 3 3.5t3 3.5zM55.6172 86 q-2 -1 -4.5 -2t-4.5 -2.5l-4 -3t-4 -3.5l-6 7q3 3 6 6.5t6 7.5q1 -1 2 -2.5t2.5 -3t3.5 -2.5t3 -2z"
         id="glyph220" />
      <glyph
         glyph-name="Scircumflex"
         unicode="Ŝ"
         horiz-adv-x="81"
         d="M57 81q-2 0 -3 -1q-2 -1 -3 -1l-4 -2t-3 -1v3v3q0 2 -1 3q-1 2 -1 3l-4 -6q-1 -3 -3 -7l-2 2t-3 2t-3 0q-2 0 -3 1q2 1 4 3t3 4t3 5l2 4l12 1q1 -5 3 -9q2 -3 6 -7zM79 33q0 -1 0.5 -2t0.5 -2q0 -5 -1.5 -9.5t-4.5 -8t-7 -6.5t-8.5 -5t-9 -3.5t-9.5 -1.5t-9 0.5t-8 0.5 q-3 0 -5.5 -0.5t-4.5 -1.5q-2 7 -4 12.5t-4 9.5l-4 8q6 -3 12 -5t11 -3t9.5 -1h7.5h6t7 1l-2 2l-2 2l-1 1q-1 1 -3.5 1.5t-5.5 1t-6.5 1.5t-7 2.5t-6.5 3t-5 3.5t-3 3.5t-2 3.5t-1 4v4q-2 -1 -3.5 -1.5t-2.5 -1.5l-2 -1q2 5 5 9.5t7 7.5t8.5 5t8.5 3q10 3 23 4h8t8 0.5 t10 1.5q-2 -2 -3 -5t-1.5 -5.5t-0.5 -5.5v-5v-3v-2v-2q-9 4 -17 5.5t-15 1.5h-5h-5l2 -4t3 -3t3 -1q4 -1 8.5 -3t9 -4.5t8.5 -6t7 -7.5q2 2 3 3.5t3 3.5z"
         id="glyph221" />
      <glyph
         glyph-name="Scedilla"
         unicode="Ş"
         horiz-adv-x="81"
         d="M52 -15q0 -3 -1.5 -5t-3.5 -3t-4 -1.5t-3 -0.5q-2 0 -5 1t-5 3q2 1 2.5 3t1.5 4l2 -2l1 -1h2t2 0.5t1.5 1t0.5 1v0.5v1q0 1 -0.5 1.5t-1.5 1t-3 0.5h-2h-2l3 6h-7.5h-6.5t-5.5 -0.5t-4.5 -1.5q-2 7 -4 12.5t-4 9.5l-4 8q6 -3 12 -5t11 -3t9.5 -1h7.5h6t7 1l-2 2l-2 2 l-1 1q-1 1 -3.5 1.5t-5.5 1t-6.5 1.5t-7 2.5t-6.5 3t-5 3.5t-3 3.5t-2 3.5t-1 4v4q-2 -1 -3.5 -1.5t-2.5 -1.5l-2 -1q2 5 5 9.5t7 7.5t8.5 5t8.5 3q10 3 23 4h8t8 0.5t10 1.5q-2 -2 -3 -5t-1.5 -5.5t-0.5 -5.5v-5v-3v-2v-2q-9 4 -17 5.5t-15 1.5h-5h-5l2 -4t3 -3t3 -1 q4 -1 8.5 -3t9 -4.5t8.5 -6t7 -7.5l3.5 3.5t2.5 3.5q0 -1 0.5 -2t0.5 -2q0 -5 -1.5 -9.5t-4.5 -8t-6.5 -6.5t-8 -5t-9 -3t-9.5 -1l-1 -3q3 0 5 -0.5t3 -1.5l2 -2t1 -2t0.5 -1z"
         id="glyph222" />
      <glyph
         glyph-name="Tcommaaccent"
         unicode="Ţ"
         horiz-adv-x="68"
         d="M46 -8l-4 -2l-4 -4t-3 -5l-2 -4q-1 1 -4 2q-2 1 -5 1q3 4 5 8t3 9l2 -2q2 -1 4 -1q2 -1 4 -1q2 -1 4 -1zM52 0h-2h-2q-6 0 -12.5 -0.5t-12.5 -2.5v2.5v2.5q0 14 2 27t6 25q-8 -1 -16 -3t-15 -5q2 8 2 15q0 3 -0.5 6.5t-1.5 7.5q9 -2 18.5 -3.5t19.5 -1.5q1 3 2.5 5.5 t3.5 4.5q0 -5 -1 -10h2q6 0 12 0.5t13 1.5q-1 -2 -2 -4.5t-1 -6.5q0 -2 0.5 -4t1.5 -5l-12 2t-13 1h-1q0 -14 2.5 -27.5t6.5 -27.5z"
         id="glyph223" />
      <glyph
         glyph-name="Tcaron"
         unicode="Ť"
         horiz-adv-x="68"
         d="M47 91q-4 -4 -6 -8q-1 -4 -3 -8h-13q-1 2 -2 5l-2 4t-3 4l-4 4h3q2 0 3 1q2 1 3 1l2 2q1 -4 2 -7t4 -6q1 1 2 3t1 4v3v3q1 -1 3 -2t3 -1q2 -1 4 -1q1 -1 3 -1zM52 0h-2h-2q-6 0 -12.5 -0.5t-12.5 -2.5v2.5v2.5q0 14 2 27t6 25q-8 -1 -16 -3t-15 -5q2 8 2 15q0 3 -0.5 6.5 t-1.5 7.5q9 -2 18.5 -3.5t19.5 -1.5q1 3 2.5 5.5t3.5 4.5q0 -5 -1 -10h2q6 0 12 0.5t13 1.5q-1 -2 -2 -4.5t-1 -6.5q0 -2 0.5 -4t1.5 -5l-12 2t-13 1h-1q0 -14 2.5 -27.5t6.5 -27.5z"
         id="glyph224" />
      <glyph
         glyph-name="Tbar"
         unicode="Ŧ"
         horiz-adv-x="68"
         d="M59 26h-5.5h-7.5q1 -7 2.5 -13t3.5 -13h-2h-2q-6 0 -12.5 -0.5t-12.5 -2.5v2.5v2.5q0 6 0.5 12.5t1.5 12.5q-5 0 -9 -1t-6 -1v4v4v5.5t-1 4.5q4 -1 8.5 -2t9.5 -1q1 4 2 7t2 7q-8 -1 -16 -3t-15 -5q2 8 2 15q0 3 -0.5 6.5t-1.5 7.5q9 -2 18.5 -3.5t19.5 -1.5q1 3 2.5 5.5 t3.5 4.5q0 -5 -1 -10h2q6 0 12 0.5t13 1.5q-1 -2 -2 -4.5t-1 -6.5q0 -2 0.5 -4t1.5 -5l-12 2t-13 1h-1q0 -4 0.5 -7.5t0.5 -7.5q4 0 8 1t7 2q-1 -2 -1 -4v-4q0 -3 0.5 -5t0.5 -4z"
         id="glyph225" />
      <glyph
         glyph-name="Utilde"
         unicode="Ũ"
         horiz-adv-x="87"
         d="M60 87v-5l-2 -4t-4 -2q-2 -1 -4 -1h-4q-1 1 -3 2q-1 1 -1 2q-1 1 -1 2t-1 2l-1 1q-1 0 -1 -1t-1 -2v-1q0 -1 1 -3h-2h-3q-1 0 -3 -1q-1 0 -2 -1q0 1 -1 2v3v3v4q1 2 2 3t3 2t5 1h3l2 -2l2 -2t1 -3q0 -1 1 -1q1 -1 2 -1t1 1t1 2q0 1 -1 2q0 1 -1 3h3h3h3q2 0 3 1v-2v-2v-2 zM85 68q0 -17 -3.5 -30.5t-9.5 -22.5t-15.5 -13.5t-21.5 -4.5q-3 0 -6.5 0.5t-6.5 0.5q1 0 1 1q1 0 2 1l2 2q-6 2 -10.5 6.5t-7.5 11t-4.5 14.5t-1.5 18q0 2 0.5 3.5t0.5 3.5v4t1 5q5 0 10 -1q2 0 4.5 0.5t5.5 1t5.5 1t5.5 1.5q-2 -5 -3.5 -9.5t-2.5 -8l-2 -7t-1 -7.5 q0 -7 2 -13t6 -11q0 1 0.5 2t0.5 2q1 0 2.5 -0.5t2.5 -0.5q4 0 6.5 1.5t4.5 3.5t3.5 5t2.5 6.5t1 6.5v6q0 2 -0.5 5.5t-1.5 6.5t-2 7t-3 7q2 -1 4.5 -1.5l5 -1t5.5 -0.5h6q4 0 6.5 0.5t5.5 1.5v-4z"
         id="glyph226" />
      <glyph
         glyph-name="Umacron"
         unicode="Ū"
         horiz-adv-x="87"
         d="M58 75q-3 1 -6 1h-8h-7q-4 -1 -7 -2v3v4v3q0 2 -1 3q3 -1 7 -1h7q4 0 8 1t7 1q0 -1 -1 -3v-3q0 -2 1 -4v-3zM85 68q0 -17 -3.5 -30.5t-9.5 -22.5t-15.5 -13.5t-21.5 -4.5q-3 0 -6.5 0.5t-6.5 0.5q1 0 1 1q1 0 2 1l2 2q-6 2 -10.5 6.5t-7.5 11t-4.5 14.5t-1.5 18 q0 2 0.5 3.5t0.5 3.5v4t1 5q5 0 10 -1q2 0 4.5 0.5t5.5 1t5.5 1t5.5 1.5q-2 -5 -3.5 -9.5t-2.5 -8l-2 -7t-1 -7.5q0 -7 2 -13t6 -11q0 1 0.5 2t0.5 2q1 0 2.5 -0.5t2.5 -0.5q4 0 6.5 1.5t4.5 3.5t3.5 5t2.5 6.5t1 6.5v6q0 2 -0.5 5.5t-1.5 6.5t-2 7t-3 7q2 -1 4.5 -1.5l5 -1 t5.5 -0.5h6q4 0 6.5 0.5t5.5 1.5v-4z"
         id="glyph227" />
      <glyph
         glyph-name="Ubreve"
         unicode="Ŭ"
         horiz-adv-x="87"
         d="M52 92l2 -2q1 -2 1 -4v-4t-1 -4t-4 -3q-2 -1 -6 -1t-6 1q-3 1 -5 3t-3 6q-1 3 0 5h5t6 1v-5q0 -2 2 -2l2 -2h2t2 1l2 2t0 1q0 1 1 2v5zM85 68q0 -17 -3.5 -30.5t-9.5 -22.5t-15.5 -13.5t-21.5 -4.5q-3 0 -6.5 0.5t-6.5 0.5q1 0 1 1q1 0 2 1l2 2q-6 2 -10.5 6.5t-7.5 11 t-4.5 14.5t-1.5 18q0 2 0.5 3.5t0.5 3.5v4t1 5q5 0 10 -1q2 0 4.5 0.5t5.5 1t5.5 1t5.5 1.5q-2 -5 -3.5 -9.5t-2.5 -8l-2 -7t-1 -7.5q0 -7 2 -13t6 -11q0 1 0.5 2t0.5 2q1 0 2.5 -0.5t2.5 -0.5q4 0 6.5 1.5t4.5 3.5t3.5 5t2.5 6.5t1 6.5v6q0 2 -0.5 5.5t-1.5 6.5t-2 7t-3 7 q2 -1 4.5 -1.5l5 -1t5.5 -0.5h6q4 0 6.5 0.5t5.5 1.5v-4z"
         id="glyph228" />
      <glyph
         glyph-name="Uring"
         unicode="Ů"
         horiz-adv-x="87"
         d="M54 84q0 -2 -1 -4l-2 -4t-4 -2q-2 -1 -3 -1q-2 0 -4 1t-3 2q-1 2 -3 4q-1 2 0 4v4q1 2 3 4q1 2 3 2q2 1 4 1t3 -1l4 -2l2 -4t1 -4zM49 84v2t-1 1q-1 1 -2 1h-2h-2t-2 -1l-1 -1q0 -1 -1 -2q0 -1 1 -2q0 -1 1 -1q1 -1 2 -1h2h2t2 1l1 1v2zM85 68q0 -17 -3.5 -30.5 t-9.5 -22.5t-15.5 -13.5t-21.5 -4.5q-3 0 -6.5 0.5t-6.5 0.5q1 0 1 1q1 0 2 1l2 2q-6 2 -10.5 6.5t-7.5 11t-4.5 14.5t-1.5 18q0 2 0.5 3.5t0.5 3.5v4t1 5q5 0 10 -1q2 0 4.5 0.5t5.5 1t5.5 1t5.5 1.5q-2 -5 -3.5 -9.5t-2.5 -8l-2 -7t-1 -7.5q0 -7 2 -13t6 -11q0 1 0.5 2 t0.5 2q1 0 2.5 -0.5t2.5 -0.5q4 0 6.5 1.5t4.5 3.5t3.5 5t2.5 6.5t1 6.5v6q0 2 -0.5 5.5t-1.5 6.5t-2 7t-3 7q2 -1 4.5 -1.5l5 -1t5.5 -0.5h6q4 0 6.5 0.5t5.5 1.5v-4z"
         id="glyph229" />
      <glyph
         glyph-name="Uhungarumlaut"
         unicode="Ű"
         horiz-adv-x="87"
         d="M54 86q-2 -1 -5 -3l-4 -2t-4 -3t-4 -3l-6 7l6 6t6 7l2 -2t2 -3q1 -1 4 -2q2 -1 3 -2zM72 84l-4 -2l-4 -2t-4 -3t-4 -3l-6 7l6 6t6 7q1 -1 1 -3q1 -1 3 -2l3 -3q2 -1 3 -2zM85 68q0 -17 -3.5 -30.5t-9.5 -22.5t-15.5 -13.5t-21.5 -4.5q-3 0 -6.5 0.5t-6.5 0.5q1 0 1 1 q1 0 2 1l2 2q-6 2 -10.5 6.5t-7.5 11t-4.5 14.5t-1.5 18q0 2 0.5 3.5t0.5 3.5v4t1 5q5 0 10 -1q2 0 4.5 0.5t5.5 1t5.5 1t5.5 1.5q-2 -5 -3.5 -9.5t-2.5 -8l-2 -7t-1 -7.5q0 -7 2 -13t6 -11q0 1 0.5 2t0.5 2q1 0 2.5 -0.5t2.5 -0.5q4 0 6.5 1.5t4.5 3.5t3.5 5t2.5 6.5t1 6.5 v6q0 2 -0.5 5.5t-1.5 6.5t-2 7t-3 7q2 -1 4.5 -1.5l5 -1t5.5 -0.5h6q4 0 6.5 0.5t5.5 1.5v-4z"
         id="glyph230" />
      <glyph
         glyph-name="Uogonek"
         unicode="Ų"
         horiz-adv-x="87"
         d="M54 -16q-2 -2 -4 -3.5t-3.5 -2.5t-3 -1h-2.5q-3 0 -5 1t-3.5 2.5t-2 3t-0.5 3.5t1 4.5t4 5.5q-3 0 -6.5 0.5t-6.5 0.5l1.5 1q1.5 1 3.5 3q-6 2 -10.5 6.5t-7.5 11t-4.5 14.5t-1.5 18q0 2 0.5 3.5t0.5 3.5v4t1 5q5 0 10 -1q2 0 4.5 0.5t5.5 1t5.5 1t5.5 1.5 q-2 -5 -3.5 -9.5t-2.5 -8l-2 -7t-1 -7.5q0 -7 2 -13t6 -11q0 1 0.5 2t0.5 2q1 0 2.5 -0.5t2.5 -0.5q4 0 6.5 1.5t4.5 3.5t3.5 5t2.5 6.5t1 6.5v6q0 2 -0.5 5.5t-1.5 6.5t-2 7t-3 7q2 -1 4.5 -1.5l5 -1t5.5 -0.5h6q4 0 6.5 0.5t5.5 1.5v-4q0 -16 -3 -29t-8.5 -22t-14 -14 t-19.5 -6q-1 -2 -1.5 -3.5t-0.5 -3.5t0.5 -2.5t2.5 -0.5t3 1t1 2q2 -2 4 -3.5t5 -2.5z"
         id="glyph231" />
      <glyph
         glyph-name="Wcircumflex"
         unicode="Ŵ"
         horiz-adv-x="102"
         d="M68 73q-2 0 -3 -1l-4 -2t-3 -1q-2 -1 -3 -2v4v3q0 2 -1 3q-1 2 -2 3l-4 -6q-1 -3 -2 -7l-2 2t-3 1q-2 1 -3 1q-2 0 -3 1q2 1 4 3t3 4l2 4t2 5l12 1q1 -5 4 -9q2 -3 6 -7zM103 67q-4 -8 -6.5 -15.5t-4.5 -16t-3 -17t-1 -16.5q-7 -1 -13 -2.5t-13 -3.5q-2 8 -4.5 15 t-7.5 14l-2 -6t-2 -6.5t-2 -7.5t-2 -7q-5 2 -10.5 3t-11.5 1h-6q0 4 1 9q0 15 -4 29t-13 27q7 0 14 1.5t14 3.5q2 -6 3.5 -11.5t2.5 -11l2 -11t1 -12.5q1 4 2.5 7.5t2 6t1.5 5t1 5t0.5 4.5t0.5 5v2v2q2 0 4.5 -0.5t4.5 -0.5h4t4 1q0 -6 0.5 -10.5t1.5 -9t2.5 -8t3.5 -7.5 q2 5 3 10.5t1.5 11t1 11.5t0.5 12q13 -6 29 -6z"
         id="glyph232" />
      <glyph
         glyph-name="Ycircumflex"
         unicode="Ŷ"
         horiz-adv-x="88"
         d="M61 76q-2 0 -3 -1q-2 -1 -4 -1q-2 -1 -3 -2q-2 -1 -3 -1v3v3q0 2 -1 3q-1 2 -2 3l-4 -6q-1 -3 -2 -7l-2 2t-3 1q-2 1 -3 1q-2 0 -3 1q2 1 3 3l4 4l2 4t2 5l12 1q1 -5 4 -9q2 -3 6 -7zM95 71q-12 -10 -22 -21t-18 -23v-1.5v-1.5q0 -7 1.5 -13t4.5 -12q-6 2 -11.5 2.5 t-11.5 0.5q-8 0 -15 -1q3 7 5 14t3 14q-6 12 -14 21.5t-19 18.5q4 -1 8 -1.5t8 -0.5q5 0 9 1l8 2q2 -7 5.5 -13t8.5 -11q5 5 8.5 11t5.5 13q4 -1 8 -1h8q5 0 10 0.5t10 1.5z"
         id="glyph233" />
      <glyph
         glyph-name="Zacute"
         unicode="Ź"
         horiz-adv-x="79"
         d="M76 -2h-3.5h-3.5q-10 0 -19 0.5t-17.5 1.5t-16.5 2.5t-17 3.5q3 0 5.5 0.5t5.5 1.5l10 12t10 12.5t9.5 13.5t7.5 14q-11 -3 -21.5 -7.5t-21.5 -9.5q1 5 1.5 9t0.5 8v6t-1 5q7 1 13.5 1.5t12.5 0.5q13 0 25.5 -2t24.5 -5q-2 0 -4.5 -0.5t-4.5 -0.5q-2 -6 -5 -12.5t-7 -13 t-8.5 -12.5t-8.5 -11q8 2 15.5 5t15.5 7q-1 -3 -1 -6v-5q-1 -10 3 -19zM60.5977 85.5117q-2 -1 -4.5 -2t-4.5 -2.5l-4 -3t-4 -3.5l-6 7q3 3 6 6.5t6 7.5q1 -1 2 -2.5t2.5 -3t3.5 -2.5t3 -2z"
         id="glyph234" />
      <glyph
         glyph-name="Zdotaccent"
         unicode="Ż"
         horiz-adv-x="79"
         d="M49 84v-3l-2 -2t-3 -2q-1 -1 -3 -1t-3 1l-2 2l-2 2t-1 3t1 3t2 3l2 2t3 0h3q1 -1 3 -2q1 -1 2 -3v-3zM76 -2h-3.5h-3.5q-10 0 -19 0.5t-17.5 1.5t-16.5 2.5t-17 3.5q3 0 5.5 0.5t5.5 1.5l10 12t10 12.5t9.5 13.5t7.5 14q-11 -3 -21.5 -7.5t-21.5 -9.5q1 5 1.5 9t0.5 8v6 t-1 5q7 1 13.5 1.5t12.5 0.5q13 0 25.5 -2t24.5 -5q-2 0 -4.5 -0.5t-4.5 -0.5q-2 -6 -5 -12.5t-7 -13t-8.5 -12.5t-8.5 -11q8 2 15.5 5t15.5 7q-1 -3 -1 -6v-5q-1 -10 3 -19z"
         id="glyph235" />
      <glyph
         glyph-name="AEacute"
         unicode="Ǽ"
         horiz-adv-x="127"
         d="M86 0h-7.5h-7.5t-8 -0.5t-8 -1.5l2 8t2 7q-4 -1 -8 -1h-7h-5h-5q-2 -4 -3.5 -8t-2.5 -8q-2 1 -5 2t-6.5 2t-8.5 1q-4 0 -7.5 -1t-7.5 -2l5.5 5.5t5 6l5 7t5.5 6.5q-5 5 -9 14q4 -2 7.5 -3.5t6.5 -2.5q3 4 7 8t8 8.5t8 8q4 2.5 9 6.5q-4 1 -8 1.5t-7 0.5q5 2 11 3.5 t13 2.5l-1 2q1 0 2 -0.5t2 -0.5h2q7 3 14 5l-2 -2l-2 -2q7 1 14 1h13h5.5h6.5t6 -0.5t5 -0.5q-2 -9 -2 -19v-7q-8 3 -17.5 6t-20.5 5q0 -4 -0.5 -8t-0.5 -7q10 2 20 2q-1 -2 -1 -4.5v-4.5v-4t1 -3q-5 2 -10 3.5t-10 3.5q0 -5 0.5 -10.5t0.5 -11.5q19 3 38 9q-1 -4 -1 -7v-7 q0 -3 0.5 -6.5t0.5 -6.5l-18 4t-19 3v-0.5v-1.5zM42 29q10 1 20 6v4v4v7t-1 7q-5 -6 -9.5 -12.5t-9.5 -15.5zM88.7227 87.123q-2 -1 -4.5 -2t-4.5 -2.5l-4 -3t-4 -3.5l-6 7q3 3 6 6.5t6 7.5q1 -1 2 -2.5t2.5 -3t3.5 -2.5t3 -2z"
         id="glyph236" />
      <glyph
         glyph-name="Oslashacute"
         unicode="Ǿ"
         horiz-adv-x="91"
         d="M89 35q0 -7 -2 -12.5t-5.5 -10t-8.5 -7.5t-10.5 -5t-11.5 -3t-13 -1h-3.5t-3.5 0.5t-3.5 0.5h-2.5q-3 -2 -5.5 -4t-5.5 -4q3 4 5.5 8t4.5 8q-5 1 -8.5 3t-6.5 5.5t-5 8t-2 10.5q0 7 2 12t5.5 9.5t8.5 7.5t10.5 5t11.5 3.5t13 1.5q1 3 1 5.5t1 5.5q2 -2 5 -3.5t6.5 -2 t6.5 -1t6 -0.5l-3.5 -7l-3.5 -7q4 -2 7 -4.5t5 -6t3.5 -7t1.5 -8.5zM31 16q4 8 7.5 16t6.5 16v0q-4 0 -7.5 -1.5t-6.5 -4t-5 -6t-2 -7.5t2 -7t5 -6zM64 48q-5 -7 -9.5 -14.5t-9.5 -14.5h0.5h0.5q4 0 7.5 1.5t6.5 4t5 6t2 8.5q0 3 -1 5zM60.0117 85.707q-2 -1 -4.5 -2 t-4.5 -2.5l-4 -3t-4 -3.5l-6 7q3 3 6 6.5t6 7.5q1 -1 2 -2.5t2.5 -3t3.5 -2.5t3 -2z"
         id="glyph237" />
      <glyph
         glyph-name="amacron"
         unicode="ā"
         d="M56 61q-3 1 -7 1h-7h-8q-4 -1 -7 -2q0 1 1 3v4t-1 3q0 2 -1 3q3 -1 7 -1h8h7q4 1 7 2v-3v-3v-4q1 -1 1 -3zM79 18q-2 -1 -4 -1.5t-4 -1.5q4 -8 10 -15q-8 0 -15 -1.5t-14 -5.5q1 1 1 2.5v3.5t-0.5 5t-1.5 6q-2 0 -4 -0.5t-4 -0.5q-3 0 -6.5 0.5t-6.5 1.5q-1 -4 -1.5 -7.5 t-1.5 -7.5q-2 1 -5 2t-6.5 1.5t-6.5 0.5t-7 -0.5t-8 -1.5q3 3 6 6.5t5.5 7t4.5 6t3 4.5q-1 2 -2.5 4t-2.5 4l4 -2t4 -1q2 4 4.5 8t5.5 7q-1 1 -2 3.5t-2 4t-2 3.5l-2 4q5 -1 9.5 -2t9.5 -1q3 2 5.5 4t5.5 3q-1 -2 -1.5 -3.5t-1.5 -3.5q2 0 4.5 0.5t5.5 0.5q2 -7 4 -13l4 -12 q2 1 4.5 2.5t4.5 2.5q2 -5 3.5 -9.5t3.5 -7.5zM46 24q-2 4 -4 7.5t-4 7.5q-3 -8 -5 -16h1.5h1.5h5t5 1z"
         id="glyph238" />
      <glyph
         glyph-name="abreve"
         unicode="ă"
         d="M50 80l2 -2q1 -2 1 -4v-4t-2 -4q-1 -2 -3 -3t-6 -2q-4 0 -7 1t-5 4q-2 2 -2 5q-1 3 -1 6h6h5q0 -2 1 -4q0 -2 1 -3t2 -1h3q1 0 2 1l1 1q1 1 1 2t1 2v5zM79 18q-2 -1 -4 -1.5t-4 -1.5q4 -8 10 -15q-8 0 -15 -1.5t-14 -5.5q1 1 1 2.5v3.5t-0.5 5t-1.5 6q-2 0 -4 -0.5 t-4 -0.5q-3 0 -6.5 0.5t-6.5 1.5q-1 -4 -1.5 -7.5t-1.5 -7.5q-2 1 -5 2t-6.5 1.5t-6.5 0.5t-7 -0.5t-8 -1.5q3 3 6 6.5t5.5 7t4.5 6t3 4.5q-1 2 -2.5 4t-2.5 4l4 -2t4 -1q2 4 4.5 8t5.5 7q-1 1 -2 3.5t-2 4t-2 3.5l-2 4q5 -1 9.5 -2t9.5 -1q3 2 5.5 4t5.5 3q-1 -2 -1.5 -3.5 t-1.5 -3.5q2 0 4.5 0.5t5.5 0.5q2 -7 4 -13l4 -12q2 1 4.5 2.5t4.5 2.5q2 -5 3.5 -9.5t3.5 -7.5zM46 24q-2 4 -4 7.5t-4 7.5q-3 -8 -5 -16h1.5h1.5h5t5 1z"
         id="glyph239" />
      <glyph
         glyph-name="aogonek"
         unicode="ą"
         d="M81 -16q-2 -2 -4 -3.5t-3.5 -2.5t-3 -1h-2.5q-3 0 -5 1t-3.5 2.5t-2.5 3t-1 3.5t1.5 4.5t4.5 5.5q-5 -1 -10 -4q1 1 1 2.5v3.5t-0.5 5t-1.5 6q-2 0 -4 -0.5t-4 -0.5q-3 0 -6.5 0.5t-6.5 1.5q-1 -4 -1.5 -7.5t-1.5 -7.5q-2 1 -5 2t-6.5 1.5t-6.5 0.5t-7 -0.5t-8 -1.5 q3 3 6 6.5t5.5 7t4.5 6t3 4.5q-1 2 -2.5 4t-2.5 4l4 -2t4 -1q2 4 4.5 8t5.5 7q-1 1 -2 3.5t-2 4t-2 3.5l-2 4q5 -1 9.5 -2t9.5 -1q3 2 5.5 4t5.5 3q-1 -2 -1.5 -3.5t-1.5 -3.5q2 0 4.5 0.5t5.5 0.5q2 -7 4 -13l4 -12q2 1 4.5 2.5t4.5 2.5q2 -5 3.5 -9t3.5 -8q-2 -1 -4 -1.5 t-4 -1.5q4 -8 10 -15q-3 0 -6.5 -0.5t-6.5 -1.5q-1 -1 -1.5 -2l-1 -2t-0.5 -2v-2q0 -2 0.5 -2.5t2.5 -0.5t2.5 1t1.5 2q2 -2 4 -3.5t5 -2.5zM46 24q-2 4 -4 7.5t-4 7.5q-3 -8 -5 -16h1.5h1.5h5t5 1z"
         id="glyph240" />
      <glyph
         glyph-name="cacute"
         unicode="ć"
         horiz-adv-x="76"
         d="M73 19q-1 -4 -2.5 -7t-4 -5.5t-5.5 -4.5t-6.5 -3.5t-7 -2t-6.5 -0.5q-8 0 -14.5 2t-11.5 6t-8.5 10.5t-4.5 14.5q1 0 2 -0.5t2 -1.5q1 8 5 14t10 10t14 6t17 2q4 0 9 -0.5t11 -0.5q-1 -4 -1.5 -7.5t-0.5 -7.5v-4t1 -4q-3 2 -6 3t-5.5 2t-5 1.5t-4.5 0.5q-4 0 -7.5 -1 t-7 -3t-6.5 -4.5t-5 -6.5q2 0 3.5 0.5t3.5 1.5v-2v-2q0 -4 1 -6.5t3.5 -4.5t5.5 -3t7 -1h4.5t6 1.5l7 3t7.5 4.5zM53.3223 71.791q-2 -1 -4.5 -2t-4.5 -2.5l-4 -3t-4 -3.5l-6 7q3 3 6 6.5t6 7.5q1 -1 2 -2.5t2.5 -3t3.5 -2.5t3 -2z"
         id="glyph241" />
      <glyph
         glyph-name="ccircumflex"
         unicode="ĉ"
         horiz-adv-x="76"
         d="M55 67q-2 0 -4 -2q-2 -1 -3 -1q-2 -1 -3 -1q-2 -1 -3 -2v3q0 2 -1 4q0 2 -1 3q-1 2 -1 3l-4 -6q-1 -3 -2 -7l-2 2t-3 1q-2 1 -3 1q-2 0 -4 1q2 1 4 3l4 4l2 4t2 5l12 1q1 -5 4 -9q2 -3 6 -7zM73 19q-1 -4 -2.5 -7t-4 -5.5t-5.5 -4.5t-6.5 -3.5t-7 -2t-6.5 -0.5 q-8 0 -14.5 2t-11.5 6t-8.5 10.5t-4.5 14.5q1 0 2 -0.5t2 -1.5q1 8 5 14t10 10t14 6t17 2q4 0 9 -0.5t11 -0.5q-1 -4 -1.5 -7.5t-0.5 -7.5v-4t1 -4q-3 2 -6 3t-5.5 2t-5 1.5t-4.5 0.5q-4 0 -7.5 -1t-7 -3t-6.5 -4.5t-5 -6.5q2 0 3.5 0.5t3.5 1.5v-2v-2q0 -4 1 -6.5t3.5 -4.5 t5.5 -3t7 -1h4.5t6 1.5l7 3t7.5 4.5z"
         id="glyph242" />
      <glyph
         glyph-name="cdotaccent"
         unicode="ċ"
         horiz-adv-x="76"
         d="M46 70q0 -2 -1 -3t-1 -3q-1 -1 -3 -1q-1 -1 -3 -1t-3 1t-3 1q-1 1 -1 3q-1 1 -1 3t1 3t1 3q1 1 3 1q1 1 3 1t3 -1t3 -1q1 -1 1 -3q1 -1 1 -3zM73 19q-1 -4 -2.5 -7t-4 -5.5t-5.5 -4.5t-6.5 -3.5t-7 -2t-6.5 -0.5q-8 0 -14.5 2t-11.5 6t-8.5 10.5t-4.5 14.5q1 0 2 -0.5 t2 -1.5q1 8 5 14t10 10t14 6t17 2q4 0 9 -0.5t11 -0.5q-1 -4 -1.5 -7.5t-0.5 -7.5v-4t1 -4q-3 2 -6 3t-5.5 2t-5 1.5t-4.5 0.5q-4 0 -7.5 -1t-7 -3t-6.5 -4.5t-5 -6.5q2 0 3.5 0.5t3.5 1.5v-2v-2q0 -4 1 -6.5t3.5 -4.5t5.5 -3t7 -1h4.5t6 1.5l7 3t7.5 4.5z"
         id="glyph243" />
      <glyph
         glyph-name="ccaron"
         unicode="č"
         horiz-adv-x="76"
         d="M55 78q-4 -4 -6 -7q-2 -4 -4 -9l-12 1q-1 2 -2 5l-2 4t-4 4q-2 2 -4 3q2 0 4 1q2 0 3 1q2 1 3 1l2 2q1 -4 2 -7t4 -6q1 1 1 3q1 2 1 3q0 2 1 3v4q1 -1 3 -2t3 -1q2 -1 3 -2q2 -1 4 -1zM73 19q-1 -4 -2.5 -7t-4 -5.5t-5.5 -4.5t-6.5 -3.5t-7 -2t-6.5 -0.5q-8 0 -14.5 2 t-11.5 6t-8.5 10.5t-4.5 14.5q1 0 2 -0.5t2 -1.5q1 8 5 14t10 10t14 6t17 2q4 0 9 -0.5t11 -0.5q-1 -4 -1.5 -7.5t-0.5 -7.5v-4t1 -4q-3 2 -6 3t-5.5 2t-5 1.5t-4.5 0.5q-4 0 -7.5 -1t-7 -3t-6.5 -4.5t-5 -6.5q2 0 3.5 0.5t3.5 1.5v-2v-2q0 -4 1 -6.5t3.5 -4.5t5.5 -3t7 -1 h4.5t6 1.5l7 3t7.5 4.5z"
         id="glyph244" />
      <glyph
         glyph-name="dcaron"
         unicode="ď"
         horiz-adv-x="78"
         d="M53 79q-4 -4 -6 -7q-2 -4 -3 -9l-12 1l-2 4t-3 5q-1 2 -3 4t-4 3q2 0 3 1q2 0 3 1q2 1 3 1l2 2q1 -4 3 -7q1 -3 3 -6q1 1 2 3t1 3v3v3q1 -1 3 -1q2 -1 3 -2q2 -1 4 -1q1 -1 3 -1zM76 32q0 -1 0.5 -1.5t0.5 -1.5q0 -4 -1.5 -8t-4.5 -8t-6.5 -6.5t-8 -5t-9.5 -3.5t-10 -1 q-4 0 -8 0.5t-7 3.5q-4 0 -8.5 -1.5t-8.5 -2.5q4 10 6 20.5t2 21.5q-3 -1 -6 -4v3v2q0 10 -5 17q2 0 4 0.5t4.5 1l5 1t5 0.5h5h3.5q10 0 18 -2t13.5 -5.5t9 -8.5t3.5 -11v-1v-1q1 0 3 1zM55 29q-1 4 -3.5 6.5t-5.5 4t-6.5 2t-6.5 0.5v-19v-8v-9q4 1 7.5 3.5t5.5 5t3.5 6.5 t0.5 8h2.5h2.5z"
         id="glyph245" />
      <glyph
         glyph-name="dcroat"
         unicode="đ"
         horiz-adv-x="79"
         d="M77 32v-1.5v-1.5q0 -4 -1.5 -8t-4.5 -8t-6.5 -6.5t-8 -5t-9.5 -3.5t-10 -1q-4 0 -7.5 0.5t-7.5 3.5q-4 0 -8 -1.5t-9 -2.5q4 11 6 22q-2 0 -4 -1t-4 -1q1 4 1 7.5t-1 7.5q3 -1 5 -1.5t5 -0.5v4v5q-3 -1 -6 -4q0 2 0.5 3t0.5 2q0 10 -6 17q2 0 4 0.5t4.5 1l5 1t5 0.5h5 h3.5q10 0 18 -2t14 -5.5t9 -8.5t3 -11v-1v-1q1 0 2 0.5t2 0.5zM42 18q-1 0 -3.5 0.5t-5.5 0.5q0 -6 1 -13q4 1 7 3.5t5.5 5t3.5 6.5t0 8h2.5h2.5q-1 4 -3.5 6.5t-5.5 4t-6.5 2t-5.5 0.5l-1 -11q2 0 4.5 0.5t4.5 1.5q-1 -2 -1 -4v-3.5t0.5 -3.5t0.5 -4z"
         id="glyph246" />
      <glyph
         glyph-name="emacron"
         unicode="ē"
         horiz-adv-x="70"
         d="M50 62q-3 1 -7 1h-7h-7q-4 -1 -7 -2v3v4t-1 3q0 2 -1 3q3 -1 7 -1h8h7q4 1 7 2v-3v-3v-4q1 -1 1 -3zM33 0h-9h-7.5t-6.5 -0.5t-6 -1.5q3 9 4.5 18t1.5 18q0 8 -2 17h-6v0l6 2l-1 5q3 -1 5.5 -1.5t5.5 -1.5q8 2 16.5 2.5t17.5 0.5h7.5h7.5q-1 -4 -1.5 -7.5t-0.5 -7.5v-3 t1 -3q-8 3 -16.5 5.5t-17.5 4.5q0 -3 -0.5 -6.5t-0.5 -7.5q4 1 8.5 1.5t8.5 0.5q0 -2 -0.5 -3.5t-0.5 -3.5q0 -3 1 -7q-4 2 -8.5 3.5t-8.5 2.5v-8t1 -8q8 1 16.5 3t17.5 4q-1 -3 -1.5 -6t-0.5 -6q0 -5 1 -10q-8 2 -16 3l-16 2v-1z"
         id="glyph247" />
      <glyph
         glyph-name="ebreve"
         unicode="ĕ"
         horiz-adv-x="70"
         d="M44 80l2 -2q1 -2 1 -4v-4t-2 -4q-1 -2 -3 -3t-6 -2q-4 0 -7 1t-4 4q-2 2 -3 5t0 6q2 0 5 -1q3 0 6 1v-4t1 -3t2 -1h3q1 0 2 1l1 1q1 1 1 2t1 2v5zM33 0h-9h-7.5t-6.5 -0.5t-6 -1.5q3 9 4.5 18t1.5 18q0 8 -2 17h-6v0l6 2l-1 5q3 -1 5.5 -1.5t5.5 -1.5q8 2 16.5 2.5 t17.5 0.5h7.5h7.5q-1 -4 -1.5 -7.5t-0.5 -7.5v-3t1 -3q-8 3 -16.5 5.5t-17.5 4.5q0 -3 -0.5 -6.5t-0.5 -7.5q4 1 8.5 1.5t8.5 0.5q0 -2 -0.5 -3.5t-0.5 -3.5q0 -3 1 -7q-4 2 -8.5 3.5t-8.5 2.5v-8t1 -8q8 1 16.5 3t17.5 4q-1 -3 -1.5 -6t-0.5 -6q0 -5 1 -10q-8 2 -16 3 l-16 2v-1z"
         id="glyph248" />
      <glyph
         glyph-name="edotaccent"
         unicode="ė"
         horiz-adv-x="70"
         d="M43 69v-3l-2 -2t-3 -2q-1 -1 -3 0h-3l-2 2l-2 2t-1 3t1 4l2 2l2 2t3 0h3q1 -1 3 -2l2 -2v-4zM33 0h-9h-7.5t-6.5 -0.5t-6 -1.5q3 9 4.5 18t1.5 18q0 8 -2 17h-6v0l6 2l-1 5q3 -1 5.5 -1.5t5.5 -1.5q8 2 16.5 2.5t17.5 0.5h7.5h7.5q-1 -4 -1.5 -7.5t-0.5 -7.5v-3t1 -3 q-8 3 -16.5 5.5t-17.5 4.5q0 -3 -0.5 -6.5t-0.5 -7.5q4 1 8.5 1.5t8.5 0.5q0 -2 -0.5 -3.5t-0.5 -3.5q0 -3 1 -7q-4 2 -8.5 3.5t-8.5 2.5v-8t1 -8q8 1 16.5 3t17.5 4q-1 -3 -1.5 -6t-0.5 -6q0 -5 1 -10q-8 2 -16 3l-16 2v-1z"
         id="glyph249" />
      <glyph
         glyph-name="eogonek"
         unicode="ę"
         horiz-adv-x="70"
         d="M67 -16l-3.5 -3.5t-3.5 -2.5t-3.5 -1h-2.5q-3 0 -5 1t-3.5 2.5t-2 3t-0.5 3.5q0 3 2 6t5 6q-4 1 -8.5 1.5t-8.5 0.5v-1h-9h-7.5t-6.5 -0.5t-6 -1.5q3 9 4.5 18t1.5 18q0 8 -2 17h-6v0l6 2l-1 5q3 -1 5.5 -1.5t5.5 -1.5q8 2 16.5 2.5t17.5 0.5h7.5h7.5q-1 -4 -1.5 -7.5 t-0.5 -7.5v-3t1 -3q-8 3 -16.5 5.5t-17.5 4.5q0 -3 -0.5 -6.5t-0.5 -7.5q4 1 8.5 1.5t8.5 0.5q0 -2 -0.5 -3.5t-0.5 -3.5q0 -3 1 -7q-4 2 -8.5 3.5t-8.5 2.5v-8t1 -8q8 1 16.5 3t17.5 4q-1 -3 -1.5 -6t-0.5 -6q0 -5 1 -10q-3 1 -5.5 1.5t-5.5 0.5q-1 -1 -1 -2t-0.5 -2l-1 -2 t-0.5 -2q0 -2 1 -2.5t2 -0.5q2 0 3 1t1 2q2 -2 4 -3.5t5 -2.5z"
         id="glyph250" />
      <glyph
         glyph-name="ecaron"
         unicode="ě"
         horiz-adv-x="70"
         d="M52 78q-4 -4 -6 -8t-3 -8h-12q-1 2 -3 5l-2 4t-3 4t-4 3q2 0 3 1q2 0 3 1q2 1 3 1l2 2q1 -4 3 -7q1 -3 3 -6q1 1 2 3t1 3v4v3q1 -1 3 -2t3 -1q2 -1 4 -1q1 -1 3 -1zM33 0h-9h-7.5t-6.5 -0.5t-6 -1.5q3 9 4.5 18t1.5 18q0 8 -2 17h-6v0l6 2l-1 5q3 -1 5.5 -1.5t5.5 -1.5 q8 2 16.5 2.5t17.5 0.5h7.5h7.5q-1 -4 -1.5 -7.5t-0.5 -7.5v-3t1 -3q-8 3 -16.5 5.5t-17.5 4.5q0 -3 -0.5 -6.5t-0.5 -7.5q4 1 8.5 1.5t8.5 0.5q0 -2 -0.5 -3.5t-0.5 -3.5q0 -3 1 -7q-4 2 -8.5 3.5t-8.5 2.5v-8t1 -8q8 1 16.5 3t17.5 4q-1 -3 -1.5 -6t-0.5 -6q0 -5 1 -10 q-8 2 -16 3l-16 2v-1z"
         id="glyph251" />
      <glyph
         glyph-name="gcircumflex"
         unicode="ĝ"
         horiz-adv-x="77"
         d="M55 66q-2 0 -3 -1q-2 -1 -4 -1q-2 -1 -3 -1q-2 -1 -3 -2v3v4t-1 3q-1 2 -2 3q-2 -3 -3 -6t-3 -7l-2 2t-3 1q-2 1 -3 1q-2 0 -3 1q2 1 4 3t3 4t3 4q1 2 2 5h12q1 -5 3 -8q2 -4 6 -8zM73 19q-1 -4 -1.5 -6.5t-2.5 -5.5v-5v-5l-11 -1l-2 2q-4 -1 -8 -1.5t-7 -0.5 q-8 0 -14.5 2t-11.5 6t-8.5 10.5t-4.5 14.5q1 0 2 -0.5t2 -1.5q1 8 5 14t10 10t14 6t17 2q4 0 9 -0.5t11 -0.5q-1 -4 -1.5 -7.5t-0.5 -7.5v-4t1 -4q-3 2 -6 3t-5.5 2t-5 1.5t-4.5 0.5q-4 0 -7.5 -1t-7.5 -3t-6.5 -4.5t-4.5 -6.5q2 0 3.5 0.5t3.5 1.5v-2v-2q0 -4 1 -6.5 t3.5 -4.5t6 -3t7.5 -1h2q-2 4 -3.5 8.5t-1.5 9.5q3 0 5 -0.5t4 -0.5q4 0 8 1t9 3q-1 -4 -1.5 -7.5t-1.5 -6.5z"
         id="glyph252" />
      <glyph
         glyph-name="gbreve"
         unicode="ğ"
         horiz-adv-x="77"
         d="M47 80l2 -2q1 -2 1 -3v-5q0 -2 -2 -4q-1 -2 -3 -3t-6 -1t-7 1t-4 4q-2 2 -3 5t0 5h5t6 1v-5q0 -2 1 -2q1 -1 3 -1q1 0 2 -1q1 0 2 1t1 2l1 1q0 1 1 2v5zM73 19q-1 -4 -1.5 -6.5t-2.5 -5.5v-5v-5l-11 -1l-2 2q-4 -1 -8 -1.5t-7 -0.5q-8 0 -14.5 2t-11.5 6t-8.5 10.5 t-4.5 14.5q1 0 2 -0.5t2 -1.5q1 8 5 14t10 10t14 6t17 2q4 0 9 -0.5t11 -0.5q-1 -4 -1.5 -7.5t-0.5 -7.5v-4t1 -4q-3 2 -6 3t-5.5 2t-5 1.5t-4.5 0.5q-4 0 -7.5 -1t-7.5 -3t-6.5 -4.5t-4.5 -6.5q2 0 3.5 0.5t3.5 1.5v-2v-2q0 -4 1 -6.5t3.5 -4.5t6 -3t7.5 -1h2 q-2 4 -3.5 8.5t-1.5 9.5q3 0 5 -0.5t4 -0.5q4 0 8 1t9 3q-1 -4 -1.5 -7.5t-1.5 -6.5z"
         id="glyph253" />
      <glyph
         glyph-name="gdotaccent"
         unicode="ġ"
         horiz-adv-x="77"
         d="M46 70v-3q-1 -1 -2 -3l-2 -2t-3 0h-4l-2 2t-2 3q-1 1 0 3v3l2 2l2 2t4 1q2 0 3 -1l2 -2l2 -2v-3zM73 19q-1 -4 -1.5 -6.5t-2.5 -5.5v-5v-5l-11 -1l-2 2q-4 -1 -8 -1.5t-7 -0.5q-8 0 -14.5 2t-11.5 6t-8.5 10.5t-4.5 14.5q1 0 2 -0.5t2 -1.5q1 8 5 14t10 10t14 6t17 2 q4 0 9 -0.5t11 -0.5q-1 -4 -1.5 -7.5t-0.5 -7.5v-4t1 -4q-3 2 -6 3t-5.5 2t-5 1.5t-4.5 0.5q-4 0 -7.5 -1t-7.5 -3t-6.5 -4.5t-4.5 -6.5q2 0 3.5 0.5t3.5 1.5v-2v-2q0 -4 1 -6.5t3.5 -4.5t6 -3t7.5 -1h2q-2 4 -3.5 8.5t-1.5 9.5q3 0 5 -0.5t4 -0.5q4 0 8 1t9 3 q-1 -4 -1.5 -7.5t-1.5 -6.5z"
         id="glyph254" />
      <glyph
         glyph-name="gcommaaccent"
         unicode="ģ"
         horiz-adv-x="77"
         d="M52 -11q-2 -1 -4 -3l-4 -4t-3 -4t-2 -5q-1 1 -4 2q-2 1 -5 2q3 4 5 7q2 4 3 9q1 -1 2 -1l4 -2t4 -1h4zM73 19q-1 -4 -1.5 -6.5t-2.5 -5.5v-5v-5l-11 -1l-2 2q-4 -1 -8 -1.5t-7 -0.5q-8 0 -14.5 2t-11.5 6t-8.5 10.5t-4.5 14.5q1 0 2 -0.5t2 -1.5q1 8 5 14t10 10t14 6 t17 2q4 0 9 -0.5t11 -0.5q-1 -4 -1.5 -7.5t-0.5 -7.5v-4t1 -4q-3 2 -6 3t-5.5 2t-5 1.5t-4.5 0.5q-4 0 -7.5 -1t-7.5 -3t-6.5 -4.5t-4.5 -6.5q2 0 3.5 0.5t3.5 1.5v-2v-2q0 -4 1 -6.5t3.5 -4.5t6 -3t7.5 -1h2q-2 4 -3.5 8.5t-1.5 9.5q3 0 5 -0.5t4 -0.5q4 0 8 1t9 3 q-1 -4 -1.5 -7.5t-1.5 -6.5z"
         id="glyph255" />
      <glyph
         glyph-name="hcircumflex"
         unicode="ĥ"
         horiz-adv-x="81"
         d="M57 64q-2 0 -3 -1q-2 -1 -3 -1q-2 -1 -4 -1q-2 -1 -3 -2q0 2 1 3q0 2 -1 4q0 2 -1 3q-1 2 -1 3l-4 -6q-1 -3 -3 -7l-2 2t-3 1q-2 1 -3 1q-2 0 -3 1q2 1 4 3t3 4t3 4q1 2 2 5h12q1 -5 4 -8q1 -4 5 -8zM31 -1q-4 1 -7.5 1h-6.5q-6 0 -15 -2q4 8 6 17t2 19q0 6 -1 11.5 t-2 11.5q3 -1 6 -1.5l6 -1t6 -0.5h6q0 -12 1 -25q4 0 7.5 0.5t7.5 0.5q1 7 1.5 14.5t3.5 15.5q3 -1 5 -2t4.5 -1.5t5 -0.5h5.5h4q-3 -5 -5 -10.5t-3 -11.5q2 0 4.5 1t4.5 1q-1 -5 -1 -11q0 -3 0.5 -5.5t0.5 -5.5h-4h-5q1 -4 2 -7.5t2 -6.5h-2h-2h-1.5h-1.5q-4 0 -8.5 -1 t-9.5 -2q-1 5 -1 10v10q-4 1 -7 2t-7 2q0 -6 -0.5 -11t-0.5 -11z"
         id="glyph256" />
      <glyph
         glyph-name="hbar"
         unicode="ħ"
         horiz-adv-x="81"
         d="M31 -1q-4 1 -7.5 1h-6.5q-6 0 -15 -2q4 8 6 16.5t2 18.5l-9 -1q1 2 1 4v4v5.5v4.5q2 0 3.5 -1t3.5 -1q0 2 -1 4.5t-1 4.5q3 -1 6 -1.5l6 -1t6 -0.5h6l1 -9q4 0 8 -0.5t8 -0.5q1 4 1.5 8t2.5 8q3 -1 5 -2t4.5 -1.5t5 -0.5h5.5h4q-2 -3 -3 -6l-2 -6q3 0 5.5 0.5t4.5 0.5 l-11 -3q-1 -2 -1 -4t-1 -4q2 0 4.5 1t4.5 1q-1 -5 -1 -11q0 -3 0.5 -5.5t0.5 -5.5h-4h-5q1 -4 2 -7.5t2 -6.5h-2h-2h-1.5h-1.5q-4 0 -8.5 -1t-9.5 -2q-1 5 -1 10v10q-4 1 -7 2t-7 2q0 -6 -0.5 -11t-0.5 -11zM47 36q-4 -1 -7.5 -1.5t-7.5 -0.5v-2.5v-2.5q4 0 7.5 0.5t7.5 0.5 v3v3z"
         id="glyph257" />
      <glyph
         glyph-name="itilde"
         unicode="ĩ"
         horiz-adv-x="35"
         d="M35 72q0 -3 -1 -5t-2 -3q-1 -2 -4 -3q-2 -1 -4 -1t-4 1l-2 2l-2 2t-1 2t-1 2t-1 0h-1v-2v-2t1 -3h-3h-3h-3q-1 0 -2 -1v2t-1 3v3t1 4t2 3t3 2t4 1t3 -1t3 -1q1 -1 1 -3q1 -1 1 -2t1 -2t2 0q1 0 1 1t1 2v2t-1 3q1 0 2 -1h3t4 1h3v-2v-2v-2zM31 58q-1 -8 -2 -16.5t-1 -16.5 q0 -6 0.5 -12.5t1.5 -12.5h-4h-4q-4 0 -8 -0.5t-9 -1.5q1 7 2 14.5t1 14.5q0 6 -1 12.5t-2 12.5q3 0 6 0.5t6.5 1.5t6.5 2t7 2z"
         id="glyph258" />
      <glyph
         glyph-name="imacron"
         unicode="ī"
         horiz-adv-x="35"
         d="M33 61q-3 1 -7 1h-7h-8q-4 -1 -7 -2v3v4v3q0 2 -1 3q3 -1 7 -1h7q4 0 8 1t7 1v-3v-3v-4q1 -1 1 -3zM31 58q-1 -8 -2 -16.5t-1 -16.5q0 -6 0.5 -12.5t1.5 -12.5h-4h-4q-4 0 -8 -0.5t-9 -1.5q1 7 2 14.5t1 14.5q0 6 -1 12.5t-2 12.5q3 0 6 0.5t6.5 1.5t6.5 2t7 2z"
         id="glyph259" />
      <glyph
         glyph-name="ibreve"
         unicode="ĭ"
         horiz-adv-x="35"
         d="M27 78l2 -2q1 -2 1 -4t-1 -4q0 -2 -1 -4t-4 -3q-2 -1 -5 -2q-4 0 -7 1t-5 4q-2 2 -2 5q-1 3 -1 6h6h5q0 -2 1 -4q0 -2 1 -3t2 -1h2t2 1t2 1q1 1 1 2v2q1 2 1 5zM31 58q-1 -8 -2 -16.5t-1 -16.5q0 -6 0.5 -12.5t1.5 -12.5h-4h-4q-4 0 -8 -0.5t-9 -1.5q1 7 2 14.5t1 14.5 q0 6 -1 12.5t-2 12.5q3 0 6 0.5t6.5 1.5t6.5 2t7 2z"
         id="glyph260" />
      <glyph
         glyph-name="iogonek"
         unicode="į"
         horiz-adv-x="35"
         d="M30 -16l-3.5 -3.5t-3.5 -2.5t-3.5 -1h-2.5q-3 0 -5 1t-3.5 2.5t-2 3t-0.5 3.5q0 3 2 6.5t7 6.5q-2 0 -5 -0.5t-5 -1.5q1 7 2 14.5t1 14.5q0 6 -1 12.5t-2 12.5q3 0 6 0.5t6.5 1.5t6.5 2t7 2q-1 -8 -2 -16.5t-1 -16.5q0 -6 0.5 -12.5t1.5 -12.5h-4h-4h-1.5h-1.5l-2 -2 t-1.5 -2.5l-1 -3t-0.5 -2.5q0 -2 1 -2.5t2 -0.5q2 0 3 1t1 2q2 -2 4 -3.5t5 -2.5z"
         id="glyph261" />
      <glyph
         glyph-name="ij"
         unicode="ĳ"
         horiz-adv-x="96"
         d="M31 58q-1 -8 -2 -16.5t-1 -16.5q0 -6 0.5 -12.5t1.5 -12.5h-4h-4q-4 0 -8 -0.5t-9 -1.5q1 7 2 14.5t1 14.5q0 6 -1 12.5t-2 12.5q3 0 6 0.5t6.5 1.5t6.5 2t7 2zM95.8887 21q-4 -6 -9.5 -10.5t-12.5 -7.5t-16 -5t-19 -3q0 3 -0.5 6t-0.5 5.5t-1 5t-3 5.5q7 -2 13.5 -3 t11.5 -1q3 0 5.5 0.5t5.5 0.5q-1 12 -3 24t-6 23l14 -4t13 -2h3q-1 -3 -1.5 -7t-0.5 -7.5t-0.5 -7.5t-0.5 -8v-3.5v-2.5q2 1 4 1t4 1z"
         id="glyph262" />
      <glyph
         glyph-name="jcircumflex"
         unicode="ĵ"
         horiz-adv-x="60"
         d="M58 67q-2 0 -4 -1t-3 -1q-2 -1 -3 -1l-4 -2q0 2 1 3q0 2 -1 4q0 2 -1 3q-1 2 -1 3l-4 -6q-1 -3 -2 -7q-1 1 -3 2q-1 1 -2 1q-2 1 -4 1t-3 1q2 1 4 3t3 4t3 4q1 2 2 5h12q1 -5 4 -8q2 -4 6 -8zM60 21q-4 -6 -9 -10q-5 -5 -13 -8q-7 -3 -16 -5t-19 -3v6t-1 5q0 3 -1 6t-3 5 q7 -2 13 -3t12 -1q3 0 5 1h6q-1 12 -3 24t-6 23l14 -4t13 -2h3q-1 -3 -1 -7q-1 -4 -1 -8t-1 -7v-8v-3v-3q2 1 4 1t4 1z"
         id="glyph263" />
      <glyph
         glyph-name="kcommaaccent"
         unicode="ķ"
         horiz-adv-x="76"
         d="M46 -8q-2 -1 -4 -3t-3 -4l-4 -4q-1 -2 -2 -5q-1 1 -4 2l-4 2q3 4 4 7q2 4 3 9q1 -1 3 -1q2 -1 3 -2q2 -1 4 -1h4zM32 56q-2 -12 -2 -25q7 6 13.5 13t11.5 16q5 -5 10.5 -8.5t11.5 -6.5v0q-6 -5 -13 -9t-14 -7q5 -7 11 -13.5t13 -12.5v0q-13 -2 -25 -8q-3 8 -8 14.5 t-11 12.5v-11t1 -11q-4 0 -7.5 -0.5l-7 -1t-7 -1.5t-7.5 -2q7 21 8 42q0 5 -0.5 10.5t-1.5 10.5q5 -1 9 -2t7 -1q2 0 3.5 0.5t4.5 0.5z"
         id="glyph264" />
      <glyph
         glyph-name="kgreenlandic"
         unicode="ĸ"
         horiz-adv-x="76"
         d="M32 56q-2 -12 -2 -25q7 6 13.5 13t11.5 16q5 -5 10.5 -8.5t11.5 -6.5v0q-6 -5 -13 -9t-14 -7q5 -7 11 -13.5t13 -12.5v0q-13 -2 -25 -8q-3 8 -8 14.5t-11 12.5v-11t1 -11q-4 0 -7.5 -0.5l-7 -1t-7 -1.5t-7.5 -2q7 21 8 42q0 5 -0.5 10.5t-1.5 10.5q5 -1 9 -2t7 -1 q2 0 3.5 0.5t4.5 0.5z"
         id="glyph265" />
      <glyph
         glyph-name="lacute"
         unicode="ĺ"
         horiz-adv-x="64"
         d="M65 0q-8 1 -15.5 1.5t-14.5 0.5q-8 0 -16.5 -1t-18.5 -2q2 1 4.5 2.5t4.5 2.5q1 5 1.5 10.5t0.5 10.5q0 8 -1 15.5t-3 15.5h5q5 0 10.5 0.5t11.5 1.5q0 -11 -1 -22t-4 -22q8 3 16.5 5t17.5 4v-4v-4q0 -4 0.5 -7.5t1.5 -7.5zM39.1133 69.9844q-2 -1 -4.5 -2t-4.5 -2.5 l-4 -3t-4 -3.5l-6 7q3 3 6 6.5t6 7.5q1 -1 2 -2.5t2.5 -3t3.5 -2.5t3 -2z"
         id="glyph266" />
      <glyph
         glyph-name="lcommaaccent"
         unicode="ļ"
         horiz-adv-x="64"
         d="M43 -7l-4 -2l-4 -4t-3 -5l-2 -4q-1 1 -4 2q-2 1 -5 1q3 4 5 8t3 9q1 -1 3 -2t3 -1q2 -1 4 -1q2 -1 4 -1zM65 0q-8 1 -15.5 1.5t-14.5 0.5q-8 0 -16.5 -1t-18.5 -2q2 1 4.5 2.5t4.5 2.5q1 5 1.5 10.5t0.5 10.5q0 8 -1 15.5t-3 15.5h5q5 0 10.5 0.5t11.5 1.5q0 -11 -1 -22 t-4 -22q8 3 16.5 5t17.5 4v-4v-4q0 -4 0.5 -7.5t1.5 -7.5z"
         id="glyph267" />
      <glyph
         glyph-name="ldotaccent"
         unicode="ŀ"
         horiz-adv-x="96"
         d="M93 33q0 -2 -1 -3t-3 -2l-4 -2t-5 -1t-6 1l-4 2t-3 2t-1 3t1 3l3 3q2 1 5 1q3 1 5 1q3 0 5 -1t4 -1q2 -1 3 -3q1 -1 1 -3zM65 0q-8 1 -15.5 1.5t-14.5 0.5q-8 0 -16.5 -1t-18.5 -2q2 1 4.5 2.5t4.5 2.5q1 5 1.5 10.5t0.5 10.5q0 8 -1 15.5t-3 15.5h5q5 0 10.5 0.5 t11.5 1.5q0 -11 -1 -22t-4 -22q8 3 16.5 5t17.5 4v-4v-4q0 -4 0.5 -7.5t1.5 -7.5z"
         id="glyph268" />
      <glyph
         glyph-name="lcaron"
         unicode="ľ"
         horiz-adv-x="64"
         d="M39 76q-2 -1 -4 -3l-3 -3q-2 -2 -4 -5l-2 -4q-1 1 -4 2q-2 1 -4 1q3 4 4 8q2 4 3 9q1 -1 3 -2t3 -1q2 -1 4 -1q2 -1 4 -1zM65 0q-8 1 -15.5 1.5t-14.5 0.5q-8 0 -16.5 -1t-18.5 -2q2 1 4.5 2.5t4.5 2.5q1 5 1.5 10.5t0.5 10.5q0 8 -1 15.5t-3 15.5h5q5 0 10.5 0.5 t11.5 1.5q0 -11 -1 -22t-4 -22q8 3 16.5 5t17.5 4v-4v-4q0 -4 0.5 -7.5t1.5 -7.5z"
         id="glyph269" />
      <glyph
         glyph-name="nacute"
         unicode="ń"
         d="M83 54q-6 -7 -9 -15t-3 -17q0 -5 0.5 -10t2.5 -10q-4 0 -8 -1q-3 -1 -7 -2t-8 -3q-3 8 -7.5 15.5t-10.5 14.5q1 -14 -4 -29q-9 3 -16 3q-2 0 -5 -0.5t-6 -0.5q6 7 9 15t3 17v6.5t-1 6.5q-3 2 -6 4.5t-7 4.5h8.5t8 0.5t7 2t7.5 3.5l21 -34v4.5v4.5q0 7 1.5 14t5.5 14 q6 -4 11.5 -6t12.5 -2zM60.6953 68.6172q-2 -1 -4.5 -2t-4.5 -2.5l-4 -3t-4 -3.5l-6 7q3 3 6 6.5t6 7.5q1 -1 2 -2.5t2.5 -3t3.5 -2.5t3 -2z"
         id="glyph270" />
      <glyph
         glyph-name="ncommaaccent"
         unicode="ņ"
         d="M49 -6q-2 -1 -4 -3l-4 -4t-3 -4t-3 -5q-1 1 -3 2t-5 1q3 4 4 8q2 4 3 9q1 -1 3 -2t4 -1q2 -1 4 -1h4zM83 54q-6 -7 -9 -15t-3 -17q0 -5 0.5 -10t2.5 -10q-4 0 -8 -1q-3 -1 -7 -2t-8 -3q-3 8 -7.5 15.5t-10.5 14.5q1 -14 -4 -29q-9 3 -16 3q-2 0 -5 -0.5t-6 -0.5q6 7 9 15 t3 17v6.5t-1 6.5q-3 2 -6 4.5t-7 4.5h8.5t8 0.5t7 2t7.5 3.5l21 -34v4.5v4.5q0 7 1.5 14t5.5 14q6 -4 11.5 -6t12.5 -2z"
         id="glyph271" />
      <glyph
         glyph-name="ncaron"
         unicode="ň"
         d="M59 75q-4 -4 -6 -7q-2 -4 -3 -9l-12 1q-1 2 -2 5q-1 2 -3 4q-1 2 -3 4t-4 3q2 0 3 1q2 0 3 1q2 1 3 1l2 2q1 -4 3 -7q1 -3 4 -6q1 1 1 3q1 2 1 3v4v3q1 -1 3 -2t4 -1q2 -1 3 -1q1 -2 3 -2zM83 54q-6 -7 -9 -15t-3 -17q0 -5 0.5 -10t2.5 -10q-4 0 -8 -1q-3 -1 -7 -2t-8 -3 q-3 8 -7.5 15.5t-10.5 14.5q1 -14 -4 -29q-9 3 -16 3q-2 0 -5 -0.5t-6 -0.5q6 7 9 15t3 17v6.5t-1 6.5q-3 2 -6 4.5t-7 4.5h8.5t8 0.5t7 2t7.5 3.5l21 -34v4.5v4.5q0 7 1.5 14t5.5 14q6 -4 11.5 -6t12.5 -2z"
         id="glyph272" />
      <glyph
         glyph-name="napostrophe"
         unicode="ŉ"
         horiz-adv-x="102"
         d="M27 62l-4 -2l-4 -4t-3 -5l-2 -4q-1 1 -4 2q-2 1 -5 1q3 4 5 8t3 9l2 -2q2 -1 4 -1q2 -1 4 -1q2 -1 4 -1zM103.508 54q-6 -7 -9 -15t-3 -17q0 -5 0.5 -10t2.5 -10q-4 0 -8 -1q-3 -1 -7 -2t-8 -3q-3 8 -7.5 15.5t-10.5 14.5q1 -14 -4 -29q-9 3 -16 3q-2 0 -5 -0.5t-6 -0.5 q6 7 9 15t3 17v6.5t-1 6.5q-3 2 -6 4.5t-7 4.5h8.5t8 0.5t7 2t7.5 3.5l21 -34v4.5v4.5q0 7 1.5 14t5.5 14q6 -4 11.5 -6t12.5 -2z"
         id="glyph273" />
      <glyph
         glyph-name="eng"
         unicode="ŋ"
         d="M79 -3q-8 -12 -22 -18.5t-35 -7.5v5.5t-0.5 5.5t-1.5 5.5t-2 5.5q7 -2 13 -3t11 -1q3 0 5.5 0.5t5.5 0.5q-4 10 -9 19t-11 16q0 -7 -1 -14t-3 -14q-9 3 -16 3q-2 0 -5 -0.5t-6 -0.5q6 7 9 15t3 17v6.5t-1 6.5q-3 2 -6 4.5t-7 4.5h8.5t8 0.5t7 2t7.5 3.5l21 -34v4.5v4.5 q0 7 1.5 14t5.5 14q6 -4 11.5 -6t12.5 -2q-6 -7 -9 -15t-3 -17v-5.5t0.5 -7.5t1 -7.5t1.5 -6.5q1 0 2.5 0.5t2.5 1.5z"
         id="glyph274" />
      <glyph
         glyph-name="omacron"
         unicode="ō"
         horiz-adv-x="83"
         d="M57 60q-3 1 -7 1h-7q-4 0 -8 -1t-7 -1v3v3v4t-1 3q3 -1 7 -1t7 -1q4 0 8 1t7 2v-3v-4v-3q1 -1 1 -3zM65 57q-2 -1 -3.5 -3t-3.5 -3q5 -1 9 -3t7 -5t5 -7t2 -8q0 -5 -2 -9.5t-5 -8t-7.5 -6t-9.5 -4t-10.5 -2.5t-10.5 -1h-4.5t-4.5 0.5t-3.5 0.5h-2.5q1 1 2 2.5t2 2.5 q-5 1 -8.5 2.5t-6.5 4.5t-5 6.5t-2 8.5q0 6 2 10.5t5.5 8t8.5 6t10.5 4.5t12 2.5t12.5 0.5h4.5h5.5h1zM60 31q0 4 -2 6.5t-5 4.5q-1 -1 -1 -2.5t-1 -2.5q-3 1 -5.5 1h-3.5q-3 0 -6.5 -1t-6 -3t-4 -4.5t-1.5 -6.5q0 -3 2 -5.5t4 -5.5q0 2 0.5 3.5t0.5 3.5q4 -2 6.5 -2.5 t5.5 -0.5t6 1t5.5 3t4 4.5t1.5 6.5z"
         id="glyph275" />
      <glyph
         glyph-name="obreve"
         unicode="ŏ"
         horiz-adv-x="83"
         d="M51 78l2 -2q1 -2 1 -4t-1 -4q0 -2 -1 -4t-4 -3q-2 -1 -5 -2q-4 0 -7 1t-5 4q-2 2 -2 5q-1 3 -1 6h6h5q0 -2 1 -4q0 -2 1 -3t2 -1h3q1 0 2 1l1 1q1 1 1 2v2q1 2 1 5zM65 57q-2 -1 -3.5 -3t-3.5 -3q5 -1 9 -3t7 -5t5 -7t2 -8q0 -5 -2 -9.5t-5 -8t-7.5 -6t-9.5 -4 t-10.5 -2.5t-10.5 -1h-4.5t-4.5 0.5t-3.5 0.5h-2.5q1 1 2 2.5t2 2.5q-5 1 -8.5 2.5t-6.5 4.5t-5 6.5t-2 8.5q0 6 2 10.5t5.5 8t8.5 6t10.5 4.5t12 2.5t12.5 0.5h4.5h5.5h1zM60 31q0 4 -2 6.5t-5 4.5q-1 -1 -1 -2.5t-1 -2.5q-3 1 -5.5 1h-3.5q-3 0 -6.5 -1t-6 -3t-4 -4.5 t-1.5 -6.5q0 -3 2 -5.5t4 -5.5q0 2 0.5 3.5t0.5 3.5q4 -2 6.5 -2.5t5.5 -0.5t6 1t5.5 3t4 4.5t1.5 6.5z"
         id="glyph276" />
      <glyph
         glyph-name="ohungarumlaut"
         unicode="ő"
         horiz-adv-x="83"
         d="M48 71q-2 -1 -5 -2l-4 -2t-4 -3l-4 -4l-6 7l6 6t6 8q1 -1 2 -3l2 -2l3 -3q3 -1 4 -2zM66 70l-4 -2t-4 -3q-2 -1 -4 -3t-4 -3l-6 7l6 6t6 8q1 -1 1 -3l3 -3q1 -1 3 -2t3 -2zM65 57q-2 -1 -3.5 -3t-3.5 -3q5 -1 9 -3t7 -5t5 -7t2 -8q0 -5 -2 -9.5t-5 -8t-7.5 -6t-9.5 -4 t-10.5 -2.5t-10.5 -1h-4.5t-4.5 0.5t-3.5 0.5h-2.5q1 1 2 2.5t2 2.5q-5 1 -8.5 2.5t-6.5 4.5t-5 6.5t-2 8.5q0 6 2 10.5t5.5 8t8.5 6t10.5 4.5t12 2.5t12.5 0.5h4.5h5.5h1zM60 31q0 4 -2 6.5t-5 4.5q-1 -1 -1 -2.5t-1 -2.5q-3 1 -5.5 1h-3.5q-3 0 -6.5 -1t-6 -3t-4 -4.5 t-1.5 -6.5q0 -3 2 -5.5t4 -5.5q0 2 0.5 3.5t0.5 3.5q4 -2 6.5 -2.5t5.5 -0.5t6 1t5.5 3t4 4.5t1.5 6.5z"
         id="glyph277" />
      <glyph
         glyph-name="racute"
         unicode="ŕ"
         horiz-adv-x="80"
         d="M79 3q-7 -1 -14 -3t-14 -5q-1 10 -5 19q-2 0 -4 -0.5t-4 -0.5h-1.5h-1.5v-15q-2 0 -3 0.5t-3 0.5q-5 0 -10.5 -1.5t-12.5 -3.5q2 7 4 13.5t3 13.5q-3 2 -5.5 4t-3.5 4q2 -1 5 -1.5t5 -0.5q1 6 1 11v2q-3 -1 -5.5 -2t-5.5 -2q2 5 2 9q0 3 -1 6.5t-3 5.5q10 1 18.5 2 t14.5 1h7t8 -0.5t8 -1.5t7.5 -2.5t5.5 -4t3 -6.5q1 1 2 1.5l3 1.5q-1 -4 -2.5 -7.5t-3.5 -7t-4.5 -6l-5.5 -5.5q7 -11 16 -19zM46 45q-2 0 -5 -0.5t-6 -0.5v-9.5v-8.5q3 0 5.5 1t4.5 2.5t3 4t2 5.5q2 0 4 0.5t4 0.5h-1v0h1q-1 1 -2.5 2t-2.5 1.5t-3 1t-4 0.5z M57.4238 72.6211q-2 -1 -4.5 -2t-4.5 -2.5l-4 -3t-4 -3.5l-6 7q3 3 6 6.5t6 7.5q1 -1 2 -2.5t2.5 -3t3.5 -2.5t3 -2z"
         id="glyph278" />
      <glyph
         glyph-name="rcommaaccent"
         unicode="ŗ"
         horiz-adv-x="80"
         d="M50 -7q-2 -1 -4 -3l-4 -4t-3 -4t-2 -5q-1 1 -4 2q-2 1 -5 1q3 4 5 8t3 9l2 -2q2 -1 4 -1q2 -1 4 -1h4zM79 3q-7 -1 -14 -3t-14 -5q-1 10 -5 19q-2 0 -4 -0.5t-4 -0.5h-1.5h-1.5v-15q-2 0 -3 0.5t-3 0.5q-5 0 -10.5 -1.5t-12.5 -3.5q2 7 4 13.5t3 13.5q-3 2 -5.5 4t-3.5 4 q2 -1 5 -1.5t5 -0.5q1 6 1 11v2q-3 -1 -5.5 -2t-5.5 -2q2 5 2 9q0 3 -1 6.5t-3 5.5q10 1 18.5 2t14.5 1h7t8 -0.5t8 -1.5t7.5 -2.5t5.5 -4t3 -6.5q1 1 2 1.5l3 1.5q-1 -4 -2.5 -7.5t-3.5 -7t-4.5 -6l-5.5 -5.5q7 -11 16 -19zM46 45q-2 0 -5 -0.5t-6 -0.5v-9.5v-8.5 q3 0 5.5 1t4.5 2.5t3 4t2 5.5q2 0 4 0.5t4 0.5h-1v0h1q-1 1 -2.5 2t-2.5 1.5t-3 1t-4 0.5z"
         id="glyph279" />
      <glyph
         glyph-name="rcaron"
         unicode="ř"
         horiz-adv-x="80"
         d="M57 78q-4 -4 -6 -7q-2 -4 -4 -9l-12 1q-1 2 -2 5l-2 4t-4 4q-2 2 -4 3q2 0 4 1q2 0 3 1q2 1 3 1l2 2q1 -4 2 -7t4 -6q1 1 1 3q1 2 1 3q0 2 1 3v4q1 -1 3 -2t3 -1q2 -1 3 -2q2 -1 4 -1zM79 3q-7 -1 -14 -3t-14 -5q-1 10 -5 19q-2 0 -4 -0.5t-4 -0.5h-1.5h-1.5v-15 q-2 0 -3 0.5t-3 0.5q-5 0 -10.5 -1.5t-12.5 -3.5q2 7 4 13.5t3 13.5q-3 2 -5.5 4t-3.5 4q2 -1 5 -1.5t5 -0.5q1 6 1 11v2q-3 -1 -5.5 -2t-5.5 -2q2 5 2 9q0 3 -1 6.5t-3 5.5q10 1 18.5 2t14.5 1h7t8 -0.5t8 -1.5t7.5 -2.5t5.5 -4t3 -6.5q1 1 2 1.5l3 1.5q-1 -4 -2.5 -7.5 t-3.5 -7t-4.5 -6l-5.5 -5.5q7 -11 16 -19zM46 45q-2 0 -5 -0.5t-6 -0.5v-9.5v-8.5q3 0 5.5 1t4.5 2.5t3 4t2 5.5q2 0 4 0.5t4 0.5h-1v0h1q-1 1 -2.5 2t-2.5 1.5t-3 1t-4 0.5z"
         id="glyph280" />
      <glyph
         glyph-name="sacute"
         unicode="ś"
         horiz-adv-x="75"
         d="M73 27v-2v-2q0 -4 -1.5 -7.5t-4 -6.5t-6 -5.5t-7.5 -4t-8.5 -2.5t-8.5 -1q-3 0 -6.5 0.5t-6.5 0.5t-6 -0.5t-6 -1.5l-3.5 10.5t-3.5 7.5q-2 4 -4 7q6 -3 11.5 -4.5t10 -2.5t8.5 -1h6h5t5 1q-2 2 -4.5 3t-5.5 2l-6 2l-6 2t-5.5 2t-5.5 3t-4 5l-2 6q-2 -1 -3 -1t-2 -1 q-1 0 -1 -1q2 4 4.5 8t6 6.5t7.5 4t8 2.5q9 3 20 3h7q3 0 7.5 0.5t9.5 1.5l-2 -4t-1.5 -4.5t-1 -4.5t-0.5 -4q0 -1 0.5 -2t0.5 -2v-2q-8 3 -15.5 4.5t-14.5 1.5h-3.5h-3.5q0 -2 1.5 -3.5t2.5 -1.5q1 -1 3 -2q3 -1 7 -2t7.5 -3t7.5 -4.5t6 -6.5q2 1 3.5 2.5zM53.7129 70.9121 q-2 -1 -4.5 -2t-4.5 -2.5l-4 -3t-4 -3.5l-6 7q3 3 6 6.5t6 7.5q1 -1 2 -2.5t2.5 -3t3.5 -2.5t3 -2z"
         id="glyph281" />
      <glyph
         glyph-name="scircumflex"
         unicode="ŝ"
         horiz-adv-x="75"
         d="M54 67q-2 0 -3 -1q-2 -1 -3 -1l-4 -2t-3 -1v3v3q0 2 -1 4t-2 2q-2 -3 -3 -5q-1 -3 -3 -7l-2 2t-3 1q-2 1 -3 1h-3q2 1 4 3t3 4t3 5q1 2 2 5h12q1 -5 3 -8q2 -4 6 -8zM73 27v-2v-2q0 -4 -1.5 -7.5t-4 -6.5t-6 -5.5t-7.5 -4t-8.5 -2.5t-8.5 -1q-3 0 -6.5 0.5t-6.5 0.5 t-6 -0.5t-6 -1.5l-3.5 10.5t-3.5 7.5q-2 4 -4 7q6 -3 11.5 -4.5t10 -2.5t8.5 -1h6h5t5 1q-2 2 -4.5 3t-5.5 2l-6 2l-6 2t-5.5 2t-5.5 3t-4 5l-2 6q-2 -1 -3 -1t-2 -1q-1 0 -1 -1q2 4 4.5 8t6 6.5t7.5 4t8 2.5q9 3 20 3h7q3 0 7.5 0.5t9.5 1.5l-2 -4t-1.5 -4.5t-1 -4.5 t-0.5 -4q0 -1 0.5 -2t0.5 -2v-2q-8 3 -15.5 4.5t-14.5 1.5h-3.5h-3.5q0 -2 1.5 -3.5t2.5 -1.5q1 -1 3 -2q3 -1 7 -2t7.5 -3t7.5 -4.5t6 -6.5q2 1 3.5 2.5z"
         id="glyph282" />
      <glyph
         glyph-name="scedilla"
         unicode="ş"
         horiz-adv-x="75"
         d="M49 -15q0 -3 -1.5 -5t-3.5 -3t-4 -1.5t-3 -0.5q-2 0 -5 1t-5 3q2 1 3 3t1 4l2 -2t2 -1h1q1 0 2 0.5t1.5 1t0.5 1v0.5v1q0 1 -0.5 1.5t-1.5 1t-3 0.5h-2h-2l3 6q-3 0 -5.5 0.5t-5.5 0.5t-5.5 -0.5t-5.5 -1.5l-3.5 10.5t-3.5 7.5q-2 4 -4 7q6 -3 11.5 -4.5t10 -2.5t8.5 -1 h6h5t5 1q-2 2 -4.5 3t-5.5 2l-6 2l-6 2t-5.5 2t-5.5 3t-4 5l-2 6q-2 -1 -3 -1t-2 -1q-1 0 -1 -1q2 4 4.5 8t6 6.5t7.5 4t8 2.5q9 3 20 3h7q3 0 7.5 0.5t9.5 1.5l-2 -4t-1.5 -4.5t-1 -4.5t-0.5 -4q0 -1 0.5 -2t0.5 -2v-2q-8 3 -15.5 4.5t-14.5 1.5h-3.5h-3.5q0 -2 1.5 -3.5 t2.5 -1.5q1 -1 3 -2q3 -1 7 -2t7.5 -3t7.5 -4.5t6 -6.5q2 1 3.5 2.5l3.5 3.5v-2v-2q0 -4 -1.5 -7.5t-4 -6.5t-5.5 -5t-7 -4t-8.5 -3t-8.5 -1l-1 -3q3 0 5 -0.5t3 -1.5l2 -2t1 -2t0.5 -1z"
         id="glyph283" />
      <glyph
         glyph-name="tcommaaccent"
         unicode="ţ"
         horiz-adv-x="65"
         d="M45 -8q-2 -1 -4 -3l-4 -4t-3 -4t-3 -5q-1 1 -3 2t-5 1q3 4 4 8q2 4 3 9q1 -1 3 -2t4 -1q2 -1 4 -1h4zM49 0h-2h-1.5h-0.5v0q-5 0 -11 -0.5t-12 -2.5v2.5v2.5q0 11 2 21t6 20q-7 -1 -14.5 -2.5t-14.5 -4.5q1 4 1.5 7t0.5 6t-0.5 5.5t-0.5 5.5q8 -2 17 -3t17 -1q1 2 2.5 4 t3.5 4v-4v-4v0h11t12 1q-1 -2 -1.5 -3.5t-0.5 -4.5v-3.5t1 -4.5q-5 1 -11 2t-12 1q0 -11 2 -22t6 -22z"
         id="glyph284" />
      <glyph
         glyph-name="tcaron"
         unicode="ť"
         horiz-adv-x="65"
         d="M45 77q-4 -4 -5 -7q-2 -4 -4 -9l-12 1q-1 2 -2 5q-1 2 -3 4q-1 2 -3 4t-4 3q2 0 3 1q2 0 3 1q2 1 3 1l2 2q1 -4 3 -7q1 -3 4 -6q1 1 1 3q1 2 1 3q0 2 1 3q0 2 -1 4q1 -1 3 -2t4 -1q2 -1 3 -2t3 -1zM49 0h-2h-1.5h-0.5v0q-5 0 -11 -0.5t-12 -2.5v2.5v2.5q0 11 2 21t6 20 q-7 -1 -14.5 -2.5t-14.5 -4.5q1 4 1.5 7t0.5 6t-0.5 5.5t-0.5 5.5q8 -2 17 -3t17 -1q1 2 2.5 4t3.5 4v-4v-4v0h11t12 1q-1 -2 -1.5 -3.5t-0.5 -4.5v-3.5t1 -4.5q-5 1 -11 2t-12 1q0 -11 2 -22t6 -22z"
         id="glyph285" />
      <glyph
         glyph-name="tbar"
         unicode="ŧ"
         horiz-adv-x="65"
         d="M45 14l4 -14h-2h-1.5h-0.5v0q-5 0 -11 -0.5t-12 -2.5v2.5v2.5q0 6 1 13q-5 0 -9 -1t-6 -1q0 2 0.5 4t0.5 4q0 3 -0.5 5.5t-0.5 4.5q3 -1 7.5 -2t9.5 -1q2 8 5 15q-7 -1 -14.5 -2.5t-14.5 -4.5q1 4 1.5 7t0.5 6t-0.5 5.5t-0.5 5.5q8 -2 17 -3t17 -1q1 2 2.5 4t3.5 4v-4v-4 v0h11t12 1q-1 -2 -1.5 -3.5t-0.5 -4.5v-3.5t1 -4.5q-5 1 -11 2t-12 1q0 -4 0.5 -8t0.5 -8q4 0 8.5 1t7.5 2q-1 -2 -1 -4v-4v-5.5t1 -3.5h-13z"
         id="glyph286" />
      <glyph
         glyph-name="utilde"
         unicode="ũ"
         horiz-adv-x="80"
         d="M57 72q0 -3 -1 -5t-2 -3q-1 -2 -3 -3t-5 -1q-2 0 -4 1l-2 2t-1 2q-1 1 -1 2t-1 2t-2 0h-1v-2v-2t1 -3h-3h-2h-3q-1 0 -3 -1v2v3q0 1 -1 3q0 2 1 4t2 3t3 2t4 1t4 -1q1 -1 2 -1q1 -1 1 -3q1 -1 1 -2t2 -2q1 -1 1 0q1 0 2 1v2v2t-1 3h3h3h3h3v-2v-1v-3zM77 58 q0 -15 -2.5 -26.5t-8.5 -19t-14 -11.5t-19 -4q-3 0 -6 0.5t-6 1.5h1q1 0 1.5 1t1.5 2q-5 2 -9 5t-6.5 8.5t-4 12t-1.5 13.5v3.5v3t0.5 3t0.5 3.5h3h2.5h2.5h4.5t5.5 0.5t5.5 1t5.5 1.5q-2 -4 -3 -7.5t-2 -6.5t-1.5 -6t-0.5 -6q0 -5 1.5 -9t3.5 -8v1q3 -1 6 0q3 0 5 1t4 2.5 t3 4l2 5t1 5v5.5t-0.5 4.5l-1 5t-2 5.5t-2.5 6q2 -1 4.5 -1.5l5 -1t5 -0.5h4.5q3 0 5.5 0.5t5.5 1.5z"
         id="glyph287" />
      <glyph
         glyph-name="umacron"
         unicode="ū"
         horiz-adv-x="80"
         d="M55 62q-3 1 -7 1h-7q-4 0 -7 -1q-4 -1 -7 -1v3v3q0 2 -1 4q0 2 -1 3q3 -1 7 -1t8 -1q4 0 7 1q4 1 7 2v-3v-4v-3q1 -1 1 -3zM77 58q0 -15 -2.5 -26.5t-8.5 -19t-14 -11.5t-19 -4q-3 0 -6 0.5t-6 1.5h1q1 0 1.5 1t1.5 2q-5 2 -9 5t-6.5 8.5t-4 12t-1.5 13.5v3.5v3t0.5 3 t0.5 3.5h3h2.5h2.5h4.5t5.5 0.5t5.5 1t5.5 1.5q-2 -4 -3 -7.5t-2 -6.5t-1.5 -6t-0.5 -6q0 -5 1.5 -9t3.5 -8v1q3 -1 6 0q3 0 5 1t4 2.5t3 4l2 5t1 5v5.5t-0.5 4.5l-1 5t-2 5.5t-2.5 6q2 -1 4.5 -1.5l5 -1t5 -0.5h4.5q3 0 5.5 0.5t5.5 1.5z"
         id="glyph288" />
      <glyph
         glyph-name="ubreve"
         unicode="ŭ"
         horiz-adv-x="80"
         d="M49 79l2 -2q1 -2 1 -4v-4t-2 -4q-1 -2 -3 -3t-6 -2q-4 0 -7 1t-5 4q-2 2 -2 5q-1 3 0 6h5h6v-4t1 -3t2 -1h3q1 0 2 1l1 1q1 1 1 2t1 2v5zM77 58q0 -15 -2.5 -26.5t-8.5 -19t-14 -11.5t-19 -4q-3 0 -6 0.5t-6 1.5h1q1 0 1.5 1t1.5 2q-5 2 -9 5t-6.5 8.5t-4 12t-1.5 13.5 v3.5v3t0.5 3t0.5 3.5h3h2.5h2.5h4.5t5.5 0.5t5.5 1t5.5 1.5q-2 -4 -3 -7.5t-2 -6.5t-1.5 -6t-0.5 -6q0 -5 1.5 -9t3.5 -8v1q3 -1 6 0q3 0 5 1t4 2.5t3 4l2 5t1 5v5.5t-0.5 4.5l-1 5t-2 5.5t-2.5 6q2 -1 4.5 -1.5l5 -1t5 -0.5h4.5q3 0 5.5 0.5t5.5 1.5z"
         id="glyph289" />
      <glyph
         glyph-name="uring"
         unicode="ů"
         horiz-adv-x="80"
         d="M50 71q0 -2 -1 -4l-2 -4t-3 -2q-2 -1 -4 -1t-4 1t-3 2l-2 4t-1 4t1 4l2 4t3 2q2 1 4 1t4 -1t3 -2l2 -4t1 -4zM46 71v2t-2 1l-1 1h-2h-2t-2 -1l-1 -1q0 -1 -1 -2q0 -1 1 -1q0 -1 1 -2t2 -1h2h2t1 1l2 2v1zM77 58q0 -15 -2.5 -26.5t-8.5 -19t-14 -11.5t-19 -4q-3 0 -6 0.5 t-6 1.5h1q1 0 1.5 1t1.5 2q-5 2 -9 5t-6.5 8.5t-4 12t-1.5 13.5v3.5v3t0.5 3t0.5 3.5h3h2.5h2.5h4.5t5.5 0.5t5.5 1t5.5 1.5q-2 -4 -3 -7.5t-2 -6.5t-1.5 -6t-0.5 -6q0 -5 1.5 -9t3.5 -8v1q3 -1 6 0q3 0 5 1t4 2.5t3 4l2 5t1 5v5.5t-0.5 4.5l-1 5t-2 5.5t-2.5 6 q2 -1 4.5 -1.5l5 -1t5 -0.5h4.5q3 0 5.5 0.5t5.5 1.5z"
         id="glyph290" />
      <glyph
         glyph-name="uhungarumlaut"
         unicode="ű"
         horiz-adv-x="80"
         d="M48 72q-2 -1 -4 -3l-4 -2t-4 -3t-4 -3l-6 7l6 6t6 7l2 -2t2 -3l3 -3q2 0 3 -1zM67 70l-4 -2l-4 -2t-4 -3t-4 -3l-7 6l7 7q3 3 5 7q1 -1 2 -3q1 -1 3 -2l3 -3q2 -1 3 -2zM77 58q0 -15 -2.5 -26.5t-8.5 -19t-14 -11.5t-19 -4q-3 0 -6 0.5t-6 1.5h1q1 0 1.5 1t1.5 2 q-5 2 -9 5t-6.5 8.5t-4 12t-1.5 13.5v3.5v3t0.5 3t0.5 3.5h3h2.5h2.5h4.5t5.5 0.5t5.5 1t5.5 1.5q-2 -4 -3 -7.5t-2 -6.5t-1.5 -6t-0.5 -6q0 -5 1.5 -9t3.5 -8v1q3 -1 6 0q3 0 5 1t4 2.5t3 4l2 5t1 5v5.5t-0.5 4.5l-1 5t-2 5.5t-2.5 6q2 -1 4.5 -1.5l5 -1t5 -0.5h4.5 q3 0 5.5 0.5t5.5 1.5z"
         id="glyph291" />
      <glyph
         glyph-name="uogonek"
         unicode="ų"
         horiz-adv-x="80"
         d="M51 -16q-2 -2 -4 -3.5t-3.5 -2.5t-3 -1h-2.5q-3 0 -5 1t-3.5 2.5t-2 3t-0.5 3.5t1 5t4 5q-3 0 -5.5 0.5t-5.5 1.5l1 0.5q1 0.5 3 2.5q-5 2 -9 5t-6.5 8.5t-4 12t-1.5 13.5v3.5v3t0.5 3t0.5 3.5h3h2.5h2.5h4.5t5.5 0.5t5.5 1t5.5 1.5q-2 -4 -3 -7.5t-2 -6.5t-1.5 -6 t-0.5 -6q0 -5 1.5 -9t3.5 -8v1q3 -1 6 0q3 0 5 1t4 2.5t3 4l2 5t1 5v5.5t-0.5 4.5l-1 5t-2 5.5t-2.5 6q2 -1 4.5 -1.5l5 -1t5 -0.5h4.5q3 0 6 0.5t5 1.5q0 -28 -10 -43.5q-9 -15.5 -29 -16.5l-2 -4t-1 -4t0.5 -2.5t2.5 -0.5t3 1t1 2q2 -2 4 -3.5t5 -2.5z"
         id="glyph292" />
      <glyph
         glyph-name="wcircumflex"
         unicode="ŵ"
         horiz-adv-x="93"
         d="M64 60q-2 0 -4 -1t-3 -1q-2 -1 -3 -2q-2 -1 -3 -1v3q0 2 -1 3q0 2 -1 4l-1 2q-2 -3 -4 -5q-1 -3 -2 -7q-1 1 -3 2q-1 1 -2 1q-2 1 -3 1h-4q2 1 4 3l4 4q1 2 2 5q1 2 2 5h12q1 -5 4 -8q2 -4 6 -8zM94 54q-7 -13 -10.5 -25.5t-3.5 -27.5l-12 -2l-12 -2q-2 6 -4.5 11.5 t-5.5 10.5q-1 -2 -1.5 -5t-1.5 -5.5l-2 -5t-1 -5.5q-5 2 -10.5 3t-10.5 1q-1 0 -1.5 -0.5t-1 -0.5h-1.5h-2q0 2 0.5 4t0.5 3q0 12 -3.5 23.5t-11.5 22.5q13 1 27 4q1 -5 2.5 -9t2.5 -7.5t1.5 -7.5t1.5 -9q1 4 2 7.5t1.5 6.5t1 5.5t-0.5 6.5q3 0 5.5 -0.5t4.5 -0.5h3.5h4.5 v-7.5t1 -6.5l2 -6t3 -5q1 4 1.5 8l1 8t1 8.5t0.5 9.5q7 -2 14 -3.5t14 -1.5z"
         id="glyph293" />
      <glyph
         glyph-name="ycircumflex"
         unicode="ŷ"
         horiz-adv-x="83"
         d="M58 62q-2 0 -3 -1q-2 -1 -4 -1q-2 -1 -3 -2q-2 -1 -3 -1v3v3q0 2 -1 3q-1 2 -2 3q-2 -3 -3 -6t-3 -7l-2 2t-3 1q-2 1 -3 1q-2 0 -3 1q2 1 4 3t3 4t3 5l2 4l12 1q1 -5 3 -9q2 -3 6 -7zM87 57q-10 -8 -18.5 -16.5t-16.5 -18.5v0v-6t1 -6l2 -6l2 -6q-6 2 -11 3t-10 1 q-3 0 -6.5 -0.5t-7.5 -1.5q3 6 4.5 11.5t2.5 11.5v0q-5 9 -12 17t-17 15h1q4 -1 7.5 -1h6.5q8 0 16 2q4 -11 11 -19q4 4 7 9t5 10q4 -1 7.5 -1h7.5t8.5 0.5t9.5 1.5z"
         id="glyph294" />
      <glyph
         glyph-name="zacute"
         unicode="ź"
         horiz-adv-x="73"
         d="M70 -2h-1.5h-1.5h-2h-2q-9 0 -17 0.5t-16 1.5t-15 2t-14 3v0l9 1q4 4 8.5 9t9 10.5t8.5 11t6 11.5q-10 -2 -19 -6t-19 -9q1 4 1.5 8t0.5 7v4.5t-1 4.5q6 1 12.5 1h11.5q12 0 22.5 -1.5t21.5 -3.5v0l-7 -1q-2 -5 -4.5 -10t-6 -10t-7 -9.5t-7.5 -9.5q7 2 13.5 4.5t13.5 5.5 q-1 -3 -1 -5.5v-4.5q0 -4 0.5 -7.5t2.5 -7.5zM56.3008 71.5957q-2 -1 -4.5 -2t-4.5 -2.5l-4 -3t-4 -3.5l-6 7q3 3 6 6.5t6 7.5q1 -1 2 -2.5t2.5 -3t3.5 -2.5t3 -2z"
         id="glyph295" />
      <glyph
         glyph-name="zdotaccent"
         unicode="ż"
         horiz-adv-x="73"
         d="M46 70v-3q-1 -1 -2 -3l-2 -2t-3 0h-4l-2 2t-2 3q-1 1 0 3v3l2 2l2 2t4 1q2 0 3 -1l2 -2l2 -2v-3zM70 -2h-1.5h-1.5h-2h-2q-9 0 -17 0.5t-16 1.5t-15 2t-14 3v0l9 1q4 4 8.5 9t9 10.5t8.5 11t6 11.5q-10 -2 -19 -6t-19 -9q1 4 1.5 8t0.5 7v4.5t-1 4.5q6 1 12.5 1h11.5 q12 0 22.5 -1.5t21.5 -3.5v0l-7 -1q-2 -5 -4.5 -10t-6 -10t-7 -9.5t-7.5 -9.5q7 2 13.5 4.5t13.5 5.5q-1 -3 -1 -5.5v-4.5q0 -4 0.5 -7.5t2.5 -7.5z"
         id="glyph296" />
      <glyph
         glyph-name="aeacute"
         unicode="ǽ"
         horiz-adv-x="116"
         d="M72 0h-5.5h-5.5t-6 -0.5t-6 -1.5l2 6t1 7q-7 -1 -12 -2q-2 0 -4 0.5t-4 0.5q-3 -7 -5 -14q-2 1 -6 2q-3 1 -6 1.5t-7 0.5q-3 0 -6.5 -0.5t-7.5 -1.5q3 2 5 4.5l4 5t4.5 5l4.5 4.5l1 2l-4.5 4.5t-4.5 6.5q4 -2 7.5 -3t6.5 -2q3 3 6 6.5t6.5 6.5t7.5 6l8 6l-14 1v0 q4 2 9.5 3t11.5 2l-0.5 0.5q-0.5 0.5 -0.5 1.5q1 0 2 -0.5t3 -0.5h3l6 2l6 2q-1 -1 -2 -1.5t-1 -1.5q6 0 11.5 0.5t10.5 0.5q2 0 5 -0.5t6 -0.5h5.5h5.5q-2 -7 -2 -15v-3v-3q-7 3 -15.5 5t-18.5 3q0 -3 -0.5 -6t-0.5 -6q4 1 8.5 1.5t9.5 0.5q-1 -2 -1 -3.5v-3.5v-3.5t1 -3.5 q-4 2 -8.5 3.5t-9.5 2.5q0 -4 0.5 -8t0.5 -8q8 1 16.5 3t17.5 4q-1 -3 -1 -6v-6v-5t1 -5q-8 2 -16.5 3t-16.5 2v-1h-6zM39 23l8 2t8 3v3.5v2.5v4.5t-1 5.5q-4 -4 -7.5 -9.5t-7.5 -11.5zM79.9824 71.4004q-2 -1 -4.5 -2t-4.5 -2.5l-4 -3t-4 -3.5l-6 7q3 3 6 6.5t6 7.5 q1 -1 2 -2.5t2.5 -3t3.5 -2.5t3 -2z"
         id="glyph297" />
      <glyph
         glyph-name="oslashacute"
         unicode="ǿ"
         horiz-adv-x="83"
         d="M81 28q0 -5 -2 -9.5t-5 -8t-7.5 -6t-9.5 -4t-10.5 -2.5t-11.5 -1h-3.5h-3t-3 0.5t-2.5 0.5q-2 -2 -5 -3.5t-5 -3.5q2 3 4.5 6.5t4.5 6.5q-4 1 -7.5 3t-6 4.5t-4 6t-1.5 7.5q0 5 1.5 9.5t4.5 8t7.5 6t9 4t10 3t11.5 1.5q1 2 1 4.5t1 5.5q2 -2 5 -3.5t6 -2l6 -1t6 -0.5 q-2 -3 -3.5 -5.5t-3.5 -6.5q3 -1 6 -3t5 -4.5t3.5 -5.5t1.5 -7zM28 14q4 6 7 12t5 12q-3 0 -6 -1t-5 -3t-3.5 -4.5t-1.5 -6.5q0 -3 1 -5t3 -4zM58 37q-4 -6 -8 -11t-9 -10h1q3 0 6.5 1t5.5 3t3.5 4.5t1.5 6.5v3.5t-1 2.5zM54.5918 70.4238q-2 -1 -4.5 -2t-4.5 -2.5l-4 -3 t-4 -3.5l-6 7q3 3 6 6.5t6 7.5q1 -1 2 -2.5t2.5 -3t3.5 -2.5t3 -2z"
         id="glyph298" />
      <glyph
         glyph-name="asterisk"
         unicode="*"
         horiz-adv-x="52"
         d="M4 47q2 4 2.5 7.5t1.5 5.5t1 3v1l1 -1q1 -1 3 -2.5t4 -3.5t4 -3q-1 4 -2 6.5t-2 4.5t-3 5q10 -3 21 0q-1 -1 -1.5 -3l-1 -4l-1 -4t-0.5 -4q2 1 3.5 2.5l3 3t2.5 3t2 2.5q0 -2 1.5 -5t2.5 -6t2 -5h-3t-4 -0.5l-4 -1t-4 -0.5q2 -1 5 -2t4 -1q2 -1 5 -1q-1 -1 -2.5 -1.5 t-2.5 -2t-2 -2.5t-2 -3q-2 -3 -5 -7q-1 3 -2 7q0 1 -1 2.5t-1.5 2.5l-1 2t-1.5 2q-1 -1 -1.5 -2l-1 -2t-1 -2.5t-0.5 -3.5q-1 -3 -1 -6q-3 3 -5.5 4.5t-5.5 2.5t-5 2q3 1 5 3q2 1 4.5 2.5t4.5 3.5z"
         id="glyph299" />
      <glyph
         glyph-name="parenleft"
         unicode="("
         horiz-adv-x="47"
         d="M44 89q-1 -4 0 -8q0 -2 0.5 -3.5t1 -3.5t1.5 -3.5t2 -3.5q-2 -1 -4.5 -2.5t-5.5 -3.5t-6 -5.5t-5 -8t-3.5 -9.5t-1.5 -12t2 -13t5.5 -11.5t8 -9.5t10.5 -7q-5 0 -10.5 1.5t-11 4t-10 6t-8 9t-5.5 12.5t-2 15q0 9 2 17t5.5 14t8 10.5t9.5 7.5t9.5 5t7.5 2z"
         id="glyph300" />
      <glyph
         glyph-name="parenright"
         unicode=")"
         horiz-adv-x="47"
         d="M3 -15q1 4 0 8v3.5t-1 3.5l-2 4l-2 4q2 1 5 2t5.5 3.5l5.5 5.5t5 7.5t3.5 10t1.5 12.5t-2 13t-5 11t-8 9.5t-11 6.5q5 0 10.5 -1t11 -3.5t10 -6.5t8.5 -9.5t6 -12t2 -14.5q0 -7 -1.5 -13.5t-3.5 -11.5t-5 -9.5t-6.5 -8t-7 -6t-7 -4t-6.5 -3t-6 -1.5z"
         id="glyph301" />
      <glyph
         glyph-name="plus"
         unicode="+"
         horiz-adv-x="44"
         d="M30 53q-1 -2 -1 -5.5v-7.5q3 0 6 1l6 2q-1 -2 -1 -4v-4.5t0.5 -5t0.5 -3.5q-2 1 -5.5 1h-6.5q0 -3 0.5 -6t1.5 -6q-2 0 -4 0.5t-4.5 0.5t-5 -0.5t-4.5 -0.5l2 6t1 6q-4 0 -7 -0.5t-5 -1.5v4v4.5v5t-1 4.5q6 -2 13 -3q0 3 -1 6t-2 7q2 -1 4 -1h4.5t4.5 0.5t4 0.5z"
         id="glyph302" />
      </font>
</defs>
</svg>
